osu file format v14

[General]
AudioFilename: audio.mp3
AudioLeadIn: 0
PreviewTime: 39719
Countdown: 0
SampleSet: Soft
StackLeniency: 0
Mode: 2
LetterboxInBreaks: 0
WidescreenStoryboard: 1

[Editor]
DistanceSpacing: 1
BeatDivisor: 4
GridSize: 16
TimelineZoom: 1.9

[Metadata]
Title:Koisuru MODE
TitleUnicode:恋するMODE
Artist:Rin'ca
ArtistUnicode:Rin'ca
Creator:-Joakh
Version:muya-'s Salad
Source:D.C.4 〜ダ・カーポ4〜
Tags:DC4 Japanese JP Jpop J-pop pop Rinca yozuca* Nekusam Visual Novel VN Vocals Galgame 美少女ゲーム Video Game Circus D.C.4 ~Da Capo 4~ 2nd OP Second Opening 鷺澤有里栖 Sagisawa Arisu 常坂二乃 Tokisaka Nino 逢見諳子 Oumi Sorane 白河ひより Shirakawa Hiyori 鳳城詩名 Houjyou Shiina 美嶋未羽 Mishima Miu 日野原ちよ子 Hinohara Chiyoko Chatie Golo- Kegare- bigh bighzonda zonda 050 muya-
BeatmapID:3894098
BeatmapSetID:1550986

[Difficulty]
HPDrainRate:4
CircleSize:2.8
OverallDifficulty:7
ApproachRate:7
SliderMultiplier:1.2
SliderTickRate:1

[Events]
//Background and Video events
0,0,"BG5.png",0,0
//Break Periods
//Storyboard Layer 0 (Background)
//Storyboard Layer 1 (Fail)
//Storyboard Layer 2 (Pass)
//Storyboard Layer 3 (Foreground)
//Storyboard Layer 4 (Overlay)
//Storyboard Sound Samples

[TimingPoints]
612,306.122448979592,4,2,1,30,1,0
612,-100,4,2,1,30,0,0
4897,-100,4,2,1,50,0,0
5203,-100,4,2,1,60,0,0
5509,-100,4,2,1,70,0,0
9183,-100,4,2,1,75,0,0
11632,-100,4,2,1,65,0,0
20816,-100,4,2,1,70,0,0
21428,-100,4,2,1,75,0,0
31224,-100,4,2,1,60,0,0
35356,-100,4,2,1,70,0,0
35663,-100,4,2,1,50,0,0
35816,-100,4,2,1,70,0,0
36122,-100,4,2,1,75,0,1
36198,-100,4,2,1,75,0,0
37346,-100,4,2,1,75,0,1
37423,-100,4,2,1,75,0,0
38571,-100,4,2,1,75,0,1
39795,-100,4,2,3,70,0,0
39872,-100,4,2,1,70,0,0
40407,-100,4,2,1,75,0,0
41020,-90.9090909090909,4,2,1,80,0,1
60535,-90.9090909090909,4,2,1,80,0,0
60612,-90.9090909090909,4,2,1,80,0,1
79285,-90.9090909090909,4,2,1,50,0,1
79438,-90.9090909090909,4,2,1,80,0,1
80203,-90.9090909090909,4,2,5,70,0,0
81428,-90.9090909090909,4,2,1,75,0,1
82652,-90.9090909090909,4,2,1,70,0,0
101020,-90.9090909090909,4,2,1,75,0,0
103316,-90.9090909090909,4,2,1,80,0,0
103469,-90.9090909090909,4,2,1,70,0,0
103775,-90.9090909090909,4,2,1,65,0,0
104081,-90.9090909090909,4,2,1,60,0,0
104387,-90.9090909090909,4,2,1,55,0,0
104693,-90.9090909090909,4,2,1,50,0,0
104999,-90.9090909090909,4,2,1,45,0,0
105305,-90.9090909090909,4,2,1,40,0,0
105612,-90.9090909090909,4,2,1,35,0,0
105918,-90.9090909090909,4,2,1,30,0,0
106224,-90.9090909090909,4,2,1,25,0,0
106530,-90.9090909090909,4,2,1,20,0,0
106836,-90.9090909090909,4,2,1,15,0,0
107142,-90.9090909090909,4,2,1,10,0,0
107448,-90.9090909090909,4,2,1,5,0,0

[Colours]
Combo1 : 227,210,225
Combo2 : 217,164,221
Combo3 : 128,191,255
Combo4 : 255,223,164

[HitObjects]
301,256,612,6,0,P|330:206|288:157,1,120,2|2,0:0|0:0,0:0:0:0:
237,158,1071,2,0,L|34:158,1,180,2|2,0:0|0:0,0:0:0:0:
57,158,2142,5,2,0:0:0:0:
160,160,2448,1,2,0:0:0:0:
57,158,2754,1,2,0:0:0:0:
201,157,3060,6,0,L|341:158,1,120,2|2,0:0|0:0,0:0:0:0:
260,157,3520,1,2,0:0:0:0:
260,157,3979,1,2,0:0:0:0:
114,177,4285,6,0,L|244:179,1,120,2|2,0:0|0:0,0:0:0:0:
293,178,4744,1,0,0:0:0:0:
233,178,4897,2,0,P|183:158|190:90,1,120,0|8,3:0|3:2,0:0:0:0:
411,90,5509,6,0,L|413:222,1,120,6|0,3:2|3:0,0:0:0:0:
352,210,5969,1,2,0:0:0:0:
292,212,6122,2,0,L|294:344,1,120,0|2,3:0|3:2,0:0:0:0:
144,328,6734,6,0,L|273:328,2,120,2|0|2,3:2|3:0|3:2,0:0:0:0:
24,328,7652,1,0,3:0:0:0:
254,315,7958,6,0,P|288:268|245:227,1,120,6|8,3:2|0:0,0:0:0:0:
128,223,8571,1,8,3:2:0:0:
123,195,8724,1,8,3:0:0:0:
185,178,8877,1,4,3:0:0:0:
190,150,9030,1,2,3:2:0:0:
57,116,9183,5,6,3:2:0:0:
57,116,9336,2,0,L|196:116,1,120,10|6,3:2|3:2,0:0:0:0:
177,116,9795,1,10,3:2:0:0:
403,122,10101,5,6,3:2:0:0:
462,121,10254,2,0,L|323:121,1,120,10|6,3:2|3:2,0:0:0:0:
403,122,10713,1,10,3:2:0:0:
497,117,11020,2,0,L|497:249,1,120
263,244,11632,6,0,L|126:243,2,120,6|0|0,3:2|3:0|3:0,0:0:0:0:
382,242,12550,1,2,3:2:0:0:
263,244,12856,6,0,L|262:124,1,120,2|0,3:2|3:0,0:0:0:0:
322,124,13316,1,2,0:0:0:0:
381,123,13469,1,0,3:0:0:0:
322,124,13622,1,2,0:0:0:0:
259,124,13775,1,0,3:0:0:0:
31,143,14081,6,0,L|31:17,1,120,2|0,3:2|3:0,0:0:0:0:
150,145,14693,1,0,3:0:0:0:
31,143,14999,1,2,3:2:0:0:
193,152,15305,6,0,L|327:152,1,120,2|2,3:2|3:2,0:0:0:0:
373,154,15765,1,0,0:0:0:0:
313,152,15918,1,2,3:2:0:0:
185,150,16224,1,2,3:2:0:0:
412,283,16530,6,0,L|413:147,1,120,0|0,3:0|3:0,0:0:0:0:
284,290,17142,1,0,3:0:0:0:
412,283,17448,1,2,3:2:0:0:
263,279,17754,6,0,L|262:145,1,120,2|2,3:2|3:2,0:0:0:0:
322,157,18214,1,2,0:0:0:0:
381,157,18367,2,0,L|379:28,1,120,0|2,3:0|3:2,0:0:0:0:
151,39,18979,6,0,L|24:38,2,120,2|0|0,3:2|3:0|3:0,0:0:0:0:
31,38,19897,1,2,3:2:0:0:
259,40,20203,6,0,L|261:167,1,120,2|2,3:2|3:2,0:0:0:0:
133,234,20816,1,0,3:0:0:0:
70,232,20969,1,8,3:0:0:0:
66,163,21122,1,10,3:2:0:0:
132,162,21275,1,8,3:2:0:0:
283,115,21428,6,0,P|314:177|270:215,1,120,6|8,3:2|0:0,0:0:0:0:
167,226,22040,1,0,0:0:0:0:
166,166,22193,1,0,3:0:0:0:
226,165,22346,1,10,0:0:0:0:
452,164,22652,6,0,L|452:37,1,120,2|8,3:2|0:0,0:0:0:0:
391,44,23112,1,2,0:0:0:0:
331,44,23265,1,0,0:0:0:0:
391,44,23418,1,2,3:2:0:0:
452,44,23571,1,8,0:0:0:0:
224,47,23877,6,0,L|95:47,1,120,2|8,3:2|0:0,0:0:0:0:
224,47,24489,1,0,0:0:0:0:
163,46,24642,1,0,3:0:0:0:
104,47,24795,1,10,0:0:0:0:
330,43,25101,6,0,L|322:179,1,120,2|10,3:2|0:0,0:0:0:0:
170,211,25714,1,2,0:0:0:0:
163,151,25867,1,0,3:0:0:0:
234,150,26020,1,10,0:0:0:0:
238,90,26173,1,0,0:0:0:0:
106,69,26326,6,0,P|49:99|68:159,1,120,0|8,3:0|0:0,0:0:0:0:
191,170,26938,1,0,0:0:0:0:
131,170,27091,1,0,3:0:0:0:
69,172,27244,1,10,0:0:0:0:
297,264,27550,6,0,L|432:265,1,120,2|10,3:2|0:0,0:0:0:0:
358,264,28009,1,2,0:0:0:0:
358,264,28316,1,2,3:2:0:0:
416,264,28469,1,8,0:0:0:0:
186,280,28775,6,0,L|61:277,1,120,2|8,3:2|0:0,0:0:0:0:
215,274,29387,1,2,0:0:0:0:
274,274,29540,1,0,3:0:0:0:
334,274,29693,1,8,0:0:0:0:
104,216,29999,6,0,L|33:216,1,60,6|0,3:2|3:0,0:0:0:0:
104,216,30305,2,0,L|164:216,1,60,8|2,0:0|3:2,0:0:0:0:
306,212,30612,1,10,3:2:0:0:
375,175,30765,1,8,3:0:0:0:
375,90,30918,1,4,3:0:0:0:
307,168,31071,1,0,0:0:0:0:
170,165,31224,5,4,3:2:0:0:
170,165,31683,1,2,0:0:0:0:
229,164,31836,2,0,L|227:38,1,120,0|2,1:0|1:2,0:0:0:0:
167,41,32295,1,0,3:0:0:0:
107,44,32448,6,0,L|308:45,2,180,2|2|2,1:2|0:0|1:2,0:0:0:0:
258,90,33673,6,0,L|57:91,2,180,2|2|2,1:2|0:0|1:2,0:0:0:0:
317,88,34744,1,0,3:0:0:0:
292,56,34897,1,0,3:0:0:0:
162,147,35356,5,0,3:0:0:0:
96,144,35509,1,10,3:2:0:0:
35,143,35663,1,12,3:2:0:0:
96,144,35816,1,10,3:2:0:0:
324,172,36122,6,0,L|194:172,1,120,14|10,3:2|3:2,0:0:0:0:
277,178,36581,2,0,L|411:178,1,120,14|0,3:2|3:0,0:0:0:0:
467,176,37040,1,14,3:2:0:0:
424,151,37193,1,0,3:0:0:0:
289,108,37346,6,0,L|144:107,1,120,14|10,3:2|3:2,0:0:0:0:
233,107,37805,1,14,3:2:0:0:
91,110,38112,1,0,3:0:0:0:
33,110,38265,1,14,3:2:0:0:
83,142,38418,1,0,3:0:0:0:
223,162,38571,6,0,P|262:218|232:257,1,120,4|8,3:2|3:2,0:0:0:0:
91,272,39183,1,8,3:2:0:0:
85,212,39336,1,0,3:0:0:0:
120,212,39413,1,8,3:2:0:0:
150,211,39489,1,8,3:2:0:0:
153,152,39642,1,0,3:0:0:0:
19,129,39795,5,14,3:2:0:0:
160,148,40407,1,6,3:2:0:0:
167,88,40560,1,0,3:0:0:0:
96,94,40714,1,10,3:2:0:0:
84,34,40867,1,0,3:0:0:0:
236,36,41020,6,0,P|291:61|266:138,1,132.00000402832,6|8,3:2|0:0,0:0:0:0:
219,130,41479,1,0,0:0:0:0:
153,130,41632,2,0,L|15:129,1,132.00000402832,2|8,3:2|0:0,0:0:0:0:
21,129,42244,5,0,3:0:0:0:
271,252,42550,1,10,0:0:0:0:
272,186,42703,1,0,3:0:0:0:
207,185,42856,2,0,P|143:149|171:80,1,132.00000402832,2|10,0:0|0:0,0:0:0:0:
395,223,43469,6,0,L|258:217,2,132.00000402832,2|8|0,3:2|0:0|3:0,0:0:0:0:
462,218,44234,1,0,3:0:0:0:
435,175,44387,1,10,0:0:0:0:
184,181,44693,6,0,L|184:24,1,132.00000402832,2|10,3:2|0:0,0:0:0:0:
250,46,45152,1,2,3:2:0:0:
250,46,45458,1,2,3:2:0:0:
184,49,45612,1,8,0:0:0:0:
183,114,45765,1,0,0:0:0:0:
329,137,45918,6,0,P|400:172|379:234,1,132.00000402832,2|8,3:2|0:0,0:0:0:0:
239,221,46530,1,0,3:0:0:0:
174,224,46683,1,0,3:0:0:0:
195,243,46836,1,10,0:0:0:0:
446,356,47142,6,0,L|450:222,1,132.00000402832,2|10,3:2|0:0,0:0:0:0:
386,224,47601,1,2,3:2:0:0:
321,223,47754,1,0,0:0:0:0:
386,224,47907,1,2,3:2:0:0:
452,224,48060,1,8,0:0:0:0:
202,234,48367,6,0,P|164:182|204:127,1,132.00000402832,2|8,3:2|0:0,0:0:0:0:
345,145,48979,1,0,3:0:0:0:
413,118,49132,1,0,3:0:0:0:
423,52,49285,1,10,0:0:0:0:
365,22,49438,1,2,0:0:0:0:
219,29,49591,6,0,L|219:171,1,132.00000402832,0|8,3:0|0:0,0:0:0:0:
285,162,50050,1,0,3:0:0:0:
351,161,50203,2,0,L|352:304,1,132.00000402832,2|14,0:0|3:2,0:0:0:0:
285,296,50663,1,0,3:0:0:0:
132,286,50816,6,0,P|188:241|253:237,1,132.00000402832,4|10,3:2|0:0,0:0:0:0:
394,216,51428,1,2,3:2:0:0:
459,216,51581,1,2,3:2:0:0:
426,166,51734,1,8,0:0:0:0:
177,158,52040,6,0,L|38:159,1,132.00000402832,0|10,3:0|0:0,0:0:0:0:
111,157,52499,1,0,3:0:0:0:
177,158,52652,1,2,0:0:0:0:
46,158,52958,1,10,0:0:0:0:
298,204,53265,6,0,P|347:170|296:111,1,132.00000402832,0|10,3:0|0:0,0:0:0:0:
164,107,53877,1,2,3:2:0:0:
99,107,54030,1,0,3:0:0:0:
102,52,54183,1,8,0:0:0:0:
164,107,54336,1,2,0:0:0:0:
309,39,54489,6,0,L|450:39,1,132.00000402832,6|10,3:2|0:0,0:0:0:0:
294,51,55101,1,10,0:0:0:0:
291,116,55254,1,0,3:0:0:0:
358,122,55407,1,10,0:0:0:0:
363,187,55560,1,0,3:0:0:0:
216,190,55714,5,6,3:2:0:0:
216,190,56020,1,8,0:0:0:0:
358,193,56326,1,8,0:0:0:0:
418,220,56479,1,0,3:0:0:0:
415,285,56632,1,8,0:0:0:0:
358,317,56785,1,0,3:0:0:0:
178,161,56938,6,0,P|150:100|204:69,1,132.00000402832,8|10,0:0|0:0,0:0:0:0:
348,65,57550,1,10,0:0:0:0:
414,65,57703,1,0,3:0:0:0:
480,65,57856,1,10,0:0:0:0:
414,65,58009,1,0,3:0:0:0:
265,203,58163,6,0,L|266:64,1,132.00000402832,10|8,0:0|0:0,0:0:0:0:
332,69,58622,1,2,3:2:0:0:
398,68,58775,2,0,L|396:217,1,132.00000402832,10|8,0:0|0:0,0:0:0:0:
331,205,59234,1,0,3:0:0:0:
176,237,59387,5,6,3:2:0:0:
116,219,59540,1,0,3:0:0:0:
175,188,59693,1,14,3:2:0:0:
331,186,59999,1,14,0:0:0:0:
337,120,60152,1,8,3:0:0:0:
269,116,60305,1,6,3:2:0:0:
261,50,60458,1,0,0:0:0:0:
407,24,60612,6,0,L|422:165,1,132.00000402832,6|8,3:2|0:0,0:0:0:0:
354,155,61071,1,0,0:0:0:0:
288,158,61224,1,2,3:2:0:0:
354,155,61377,1,0,3:0:0:0:
420,155,61530,1,8,0:0:0:0:
420,155,61836,5,0,3:0:0:0:
190,188,62142,1,10,0:0:0:0:
188,122,62295,1,0,3:0:0:0:
263,187,62448,2,0,L|259:49,1,132.00000402832,2|10,0:0|0:0,0:0:0:0:
9,43,63060,6,0,L|156:54,1,132.00000402832,2|8,3:2|0:0,0:0:0:0:
288,204,63673,1,0,3:0:0:0:
343,194,63826,1,0,3:0:0:0:
305,178,63979,1,10,0:0:0:0:
56,340,64285,6,0,L|54:181,1,132.00000402832,2|10,3:2|0:0,0:0:0:0:
120,208,64744,1,2,3:2:0:0:
251,208,65050,1,2,3:2:0:0:
186,208,65203,1,8,0:0:0:0:
186,142,65356,1,0,0:0:0:0:
333,127,65509,6,0,L|480:127,2,132.00000402832,2|8|0,3:2|0:0|3:0,0:0:0:0:
265,128,66275,1,0,3:0:0:0:
333,127,66428,1,10,0:0:0:0:
84,233,66734,6,0,P|47:184|100:145,1,132.00000402832,2|10,3:2|0:0,0:0:0:0:
159,133,67193,1,2,3:2:0:0:
159,133,67499,1,2,3:2:0:0:
93,135,67652,1,8,0:0:0:0:
135,84,67805,1,0,0:0:0:0:
288,72,67958,6,0,P|326:137|281:174,1,132.00000402832,2|8,3:2|0:0,0:0:0:0:
152,188,68571,1,0,3:0:0:0:
86,189,68724,1,0,3:0:0:0:
152,188,68877,1,10,0:0:0:0:
217,188,69030,1,2,0:0:0:0:
363,189,69183,6,0,L|363:57,1,132.00000402832,0|8,3:0|0:0,0:0:0:0:
297,55,69642,1,0,3:0:0:0:
231,55,69795,1,2,0:0:0:0:
297,55,69948,1,4,3:2:0:0:
363,57,70101,1,14,3:2:0:0:
107,212,70408,6,0,P|100:154|155:111,1,132.00000402832,4|10,3:2|0:0,0:0:0:0:
276,107,71020,1,2,3:2:0:0:
207,110,71173,2,0,L|203:33,1,66.0000020141602,2|8,3:2|0:0,0:0:0:0:
351,31,71479,6,0,L|358:191,1,132.00000402832,2|0,0:0|0:0,0:0:0:0:
290,166,71938,1,10,0:0:0:0:
224,167,72091,1,0,3:0:0:0:
227,232,72244,1,2,0:0:0:0:
358,230,72550,1,10,0:0:0:0:
107,296,72856,6,0,P|91:235|147:206,1,132.00000402832,0|10,3:0|0:0,0:0:0:0:
291,262,73469,1,2,3:2:0:0:
360,261,73622,1,0,3:0:0:0:
369,205,73775,1,10,0:0:0:0:
337,209,73928,1,0,0:0:0:0:
191,229,74081,6,0,L|175:93,1,132.00000402832,6|10,3:2|0:0,0:0:0:0:
324,68,74693,1,10,0:0:0:0:
335,133,74846,1,0,3:0:0:0:
271,151,74999,1,10,0:0:0:0:
259,216,75152,1,0,3:0:0:0:
406,218,75305,5,6,3:2:0:0:
406,218,75612,1,8,0:0:0:0:
252,225,75918,1,8,0:0:0:0:
186,227,76071,1,0,3:0:0:0:
252,225,76224,1,8,0:0:0:0:
317,225,76377,1,0,3:0:0:0:
172,218,76530,6,0,L|171:84,1,132.00000402832,8|10,0:0|0:0,0:0:0:0:
327,75,77142,1,10,0:0:0:0:
388,98,77295,1,0,3:0:0:0:
395,163,77448,1,10,0:0:0:0:
349,211,77601,1,0,3:0:0:0:
201,233,77755,6,0,L|60:233,1,132.00000402832,10|8,0:0|0:0,0:0:0:0:
134,233,78214,1,0,3:0:0:0:
201,233,78367,2,0,P|261:175|237:122,1,132.00000402832,8|10,0:0|0:0,0:0:0:0:
185,131,78826,1,0,3:0:0:0:
27,124,78979,5,6,3:2:0:0:
27,58,79132,1,0,3:0:0:0:
92,124,79285,1,12,3:2:0:0:
246,181,79591,1,8,3:2:0:0:
253,115,79744,1,8,3:0:0:0:
181,110,79897,1,4,3:0:0:0:
173,44,80050,1,0,3:0:0:0:
318,44,80203,5,6,3:2:0:0:
137,255,81428,6,0,P|99:199|134:144,1,132.00000402832,12|10,3:2|3:2,0:0:0:0:
266,130,81887,1,0,3:0:0:0:
291,112,81964,1,10,3:2:0:0:
270,90,82040,1,10,3:2:0:0:
203,72,82193,1,0,3:0:0:0:
131,60,82346,1,10,3:2:0:0:
131,15,82499,1,0,3:0:0:0:
284,24,82652,6,0,L|286:173,1,132.00000402832,6|8,3:2|0:0,0:0:0:0:
219,156,83112,1,2,0:0:0:0:
153,159,83265,1,0,3:0:0:0:
219,156,83418,1,0,3:0:0:0:
285,155,83571,1,10,0:0:0:0:
407,154,83877,5,0,3:0:0:0:
156,232,84183,1,10,0:0:0:0:
147,166,84336,1,0,3:0:0:0:
210,164,84489,2,0,P|266:133|242:56,1,132.00000402832,2|10,0:0|0:0,0:0:0:0:
13,286,85101,6,0,L|150:242,1,132.00000402832,2|8,3:2|0:0,0:0:0:0:
202,227,85560,1,2,0:0:0:0:
138,245,85714,1,0,3:0:0:0:
75,265,85867,1,0,3:0:0:0:
139,271,86020,1,10,0:0:0:0:
392,279,86326,6,0,P|432:244|393:186,1,132.00000402832,4|8,3:2|0:0,0:0:0:0:
330,186,86785,1,0,3:0:0:0:
396,186,86938,1,10,0:0:0:0:
461,186,87091,1,0,3:0:0:0:
396,186,87244,1,4,3:0:0:0:
148,154,87550,6,0,L|303:118,1,132.00000402832,6|8,3:2|0:0,0:0:0:0:
341,110,88009,1,2,0:0:0:0:
365,48,88163,1,0,3:0:0:0:
356,117,88316,1,0,3:0:0:0:
293,137,88469,1,10,0:0:0:0:
44,270,88775,6,0,L|40:126,1,132.00000402832,2|8,3:2|0:0,0:0:0:0:
106,139,89234,1,0,3:0:0:0:
172,140,89387,2,0,L|169:2,1,132.00000402832,2|8,0:0|0:0,0:0:0:0:
417,64,89999,6,0,L|300:142,2,132.00000402832,2|8|0,3:2|0:0|0:0,0:0:0:0:
479,61,90765,1,2,3:2:0:0:
481,126,90918,1,10,0:0:0:0:
415,126,91071,1,2,0:0:0:0:
266,132,91224,5,6,3:2:0:0:
391,137,91530,1,10,3:2:0:0:
241,141,91836,1,10,3:2:0:0:
176,154,91989,1,0,3:0:0:0:
153,216,92142,1,2,3:2:0:0:
184,274,92295,1,4,3:0:0:0:
332,280,92448,6,0,L|331:129,1,132.00000402832,6|8,3:2|0:0,0:0:0:0:
265,152,92907,1,2,0:0:0:0:
331,148,93060,1,0,3:0:0:0:
396,148,93213,1,0,3:0:0:0:
331,148,93367,1,10,0:0:0:0:
183,150,93672,5,0,3:0:0:0:
433,268,93979,1,10,0:0:0:0:
439,202,94132,1,0,3:0:0:0:
373,197,94284,2,0,L|361:54,1,132.00000402832,2|10,0:0|0:0,0:0:0:0:
111,287,94896,6,0,L|252:249,1,132.00000402832,2|8,3:2|0:0,0:0:0:0:
241,186,95355,1,2,0:0:0:0:
174,191,95509,1,0,3:0:0:0:
108,194,95662,1,0,3:0:0:0:
108,194,95815,1,10,0:0:0:0:
365,198,96121,6,0,L|367:39,1,132.00000402832,6|8,3:2|3:2,0:0:0:0:
300,68,96580,1,0,3:0:0:0:
234,68,96733,1,10,3:2:0:0:
168,68,96886,1,0,3:0:0:0:
234,68,97039,1,4,3:0:0:0:
479,272,97345,6,0,L|324:236,1,132.00000402832,6|8,3:2|0:0,0:0:0:0:
284,243,97804,1,2,0:0:0:0:
350,242,97958,1,0,3:0:0:0:
415,243,98111,1,0,3:0:0:0:
415,243,98264,1,10,0:0:0:0:
163,229,98570,6,0,P|104:199|115:134,1,132.00000402832,2|8,3:2|0:0,0:0:0:0:
174,130,99029,1,0,3:0:0:0:
239,130,99182,2,0,P|293:90|273:32,1,132.00000402832,2|8,0:0|0:0,0:0:0:0:
27,231,99794,6,0,L|161:280,2,132.00000402832,6|8|8,3:2|0:0|0:0,0:0:0:0:
93,226,100560,1,0,3:0:0:0:
27,231,100713,1,2,3:2:0:0:
281,235,101020,6,0,L|289:168,1,66.0000020141602,6|10,3:2|3:2,0:0:0:0:
150,231,101479,2,0,L|158:164,1,66.0000020141602,6|10,3:2|3:2,0:0:0:0:
412,157,101938,6,0,L|420:224,1,66.0000020141602,6|10,3:2|3:2,0:0:0:0:
278,200,102397,2,0,L|286:267,1,66.0000020141602,6|10,3:2|3:2,0:0:0:0:
439,326,102856,1,8,3:2:0:0:
497,315,103009,1,8,3:0:0:0:
465,292,103163,1,4,3:0:0:0:
313,295,103316,5,14,3:2:0:0:
256,192,103622,12,0,108367,0:0:0:0:
