osu file format v14

[General]
AudioFilename: audio.mp3
AudioLeadIn: 0
PreviewTime: 39719
Countdown: 0
SampleSet: Soft
StackLeniency: 0.7
Mode: 2
LetterboxInBreaks: 0
WidescreenStoryboard: 1

[Editor]
DistanceSpacing: 1.3
BeatDivisor: 4
GridSize: 32
TimelineZoom: 3.699999

[Metadata]
Title:Koisuru MODE
TitleUnicode:恋するMODE
Artist:Rin'ca
ArtistUnicode:Rin'ca
Creator:-Joakh
Version:Zonda's Overdose
Source:D.C.4 〜ダ・カーポ4〜
Tags:DC4 Japanese JP Jpop J-pop pop Rinca yozuca* Nekusam Visual Novel VN Vocals Galgame 美少女ゲーム Video Game Circus D.C.4 ~Da Capo 4~ 2nd OP Second Opening 鷺澤有里栖 Sagisawa Arisu 常坂二乃 Tokisaka Nino 逢見諳子 Oumi Sorane 白河ひより Shirakawa Hiyori 鳳城詩名 Houjyou Shiina 美嶋未羽 Mishima Miu 日野原ちよ子 Hinohara Chiyoko Chatie Golo- Kegare- bigh bighzonda zonda 050 muya-
BeatmapID:3884940
BeatmapSetID:1550986

[Difficulty]
HPDrainRate:6
CircleSize:4.2
OverallDifficulty:9.2
ApproachRate:9.2
SliderMultiplier:2
SliderTickRate:2

[Events]
//Background and Video events
0,0,"BG3.jpg",0,0
//Break Periods
//Storyboard Layer 0 (Background)
//Storyboard Layer 1 (Fail)
//Storyboard Layer 2 (Pass)
//Storyboard Layer 3 (Foreground)
//Storyboard Layer 4 (Overlay)
//Storyboard Sound Samples

[TimingPoints]
612,306.122448979592,4,2,1,30,1,0
612,-111.111111111111,4,2,1,30,0,0
4897,-100,4,2,1,50,0,0
5127,-100,4,2,1,5,0,0
5203,-100,4,2,1,60,0,0
5433,-100,4,2,1,5,0,0
5509,-100,4,2,1,70,0,0
8188,-100,4,2,1,5,0,0
8265,-100,4,2,1,70,0,0
9183,-100,4,2,1,75,0,0
10867,-100,4,2,1,25,0,0
11020,-100,4,2,1,20,0,0
11173,-100,4,2,1,15,0,0
11326,-100,4,2,1,10,0,0
11479,-100,4,2,1,5,0,0
11632,-100,4,2,1,65,0,0
20816,-100,4,2,1,70,0,0
21428,-100,4,2,1,75,0,0
23800,-100,4,2,1,5,0,0
23877,-100,4,2,1,75,0,0
27474,-100,4,2,1,5,0,0
27550,-100,4,2,1,75,0,0
28698,-100,4,2,1,5,0,0
28775,-100,4,2,1,75,0,0
31147,-100,4,2,1,5,0,0
31224,-100,4,2,1,60,0,0
35356,-100,4,2,1,70,0,0
35663,-100,4,2,1,50,0,0
35816,-100,4,2,1,70,0,0
36045,-100,4,2,1,5,0,0
36122,-100,4,2,1,75,0,1
36198,-100,4,2,1,75,0,0
37346,-100,4,2,1,75,0,1
37423,-100,4,2,1,75,0,0
38571,-90.9090909090909,4,2,1,75,0,1
39795,-100,4,2,3,70,0,0
39872,-100,4,2,1,70,0,0
40407,-100,4,2,1,75,0,0
41020,-83.3333333333333,4,2,1,80,0,1
44923,-83.3333333333333,4,2,1,5,0,1
44999,-83.3333333333333,4,2,1,80,0,1
45841,-83.3333333333333,4,2,1,5,0,1
45918,-83.3333333333333,4,2,1,80,0,1
47066,-83.3333333333333,4,2,1,5,0,1
47142,-83.3333333333333,4,2,1,80,0,1
48290,-83.3333333333333,4,2,1,5,0,1
48367,-83.3333333333333,4,2,1,80,0,1
49821,-83.3333333333333,4,2,1,5,0,1
49897,-83.3333333333333,4,2,1,80,0,1
50433,-83.3333333333333,4,2,1,5,0,1
50509,-83.3333333333333,4,2,1,80,0,1
53494,-83.3333333333333,4,2,1,5,0,1
53571,-83.3333333333333,4,2,1,80,0,1
55637,-83.3333333333333,4,2,1,5,0,1
55714,-83.3333333333333,4,2,1,80,0,1
60535,-83.3333333333333,4,2,1,5,0,0
60612,-83.3333333333333,4,2,1,80,0,1
64515,-83.3333333333333,4,2,1,5,0,1
64591,-83.3333333333333,4,2,1,80,0,1
65433,-83.3333333333333,4,2,1,5,0,1
65509,-83.3333333333333,4,2,1,80,0,1
66657,-83.3333333333333,4,2,1,5,0,1
66734,-83.3333333333333,4,2,1,80,0,1
67882,-83.3333333333333,4,2,1,5,0,1
67958,-83.3333333333333,4,2,1,80,0,1
69413,-83.3333333333333,4,2,1,5,0,1
69489,-83.3333333333333,4,2,1,80,0,1
73086,-83.3333333333333,4,2,1,5,0,1
73163,-83.3333333333333,4,2,1,80,0,1
74310,-83.3333333333333,4,2,1,5,0,1
74387,-83.3333333333333,4,2,1,80,0,1
80127,-83.3333333333333,4,2,1,5,0,1
80203,-33.3333333333333,4,2,5,70,0,0
80280,-33.3333333333333,4,2,1,70,0,0
81351,-33.3333333333333,4,2,1,5,0,0
81428,-90.9090909090909,4,2,1,75,0,1
82652,-100,4,2,1,70,0,0
86020,-90.9090909090909,4,2,1,70,0,0
86249,-90.9090909090909,4,2,1,5,0,0
86326,-100,4,2,1,70,0,0
87244,-90.9090909090909,4,2,1,70,0,0
87474,-100,4,2,1,5,0,0
87550,-100,4,2,1,70,0,0
88469,-90.9090909090909,4,2,1,70,0,0
88698,-100,4,2,1,5,0,0
88775,-100,4,2,1,70,0,0
89693,-90.9090909090909,4,2,1,70,0,0
89923,-90.9090909090909,4,2,1,5,0,0
89999,-100,4,2,1,70,0,0
91224,-90.9090909090909,4,2,1,70,0,0
91453,-90.9090909090909,4,2,1,5,0,0
91530,-100,4,2,1,70,0,0
95816,-90.9090909090909,4,2,1,70,0,0
96045,-90.9090909090909,4,2,1,5,0,0
96122,-100,4,2,1,70,0,0
97040,-90.9090909090909,4,2,1,70,0,0
97270,-90.9090909090909,4,2,1,5,0,0
97346,-100,4,2,1,70,0,0
98265,-90.9090909090909,4,2,1,70,0,0
98494,-90.9090909090909,4,2,1,5,0,0
98571,-100,4,2,1,70,0,0
99489,-90.9090909090909,4,2,1,70,0,0
99719,-90.9090909090909,4,2,1,5,0,0
99795,-100,4,2,1,70,0,0
101020,-100,4,2,1,75,0,0
103316,-100,4,2,1,80,0,0
103469,-100,4,2,1,70,0,0
103775,-100,4,2,1,65,0,0
104081,-100,4,2,1,60,0,0
104387,-100,4,2,1,55,0,0
104693,-100,4,2,1,50,0,0
104999,-100,4,2,1,45,0,0
105305,-100,4,2,1,40,0,0
105612,-100,4,2,1,35,0,0
105918,-100,4,2,1,30,0,0
106224,-100,4,2,1,25,0,0
106530,-100,4,2,1,20,0,0
106836,-100,4,2,1,15,0,0
107142,-100,4,2,1,10,0,0
107448,-100,4,2,1,5,0,0

[Colours]
Combo1 : 128,190,227
Combo2 : 248,154,92
Combo3 : 206,205,214
Combo4 : 255,225,170

[HitObjects]
178,140,612,6,0,L|87:86,2,89.9999972534181,2|0|2,0:0|0:0|0:0,0:0:0:0:
331,216,1071,2,0,P|361:186|245:46,1,269.999991760254,2|2,0:0|0:0,0:0:0:0:
104,164,1836,5,0,0:0:0:0:
257,286,2142,2,0,L|287:71,1,179.999994506836,2|2,0:0|0:0,0:0:0:0:
129,88,2754,1,2,0:0:0:0:
399,177,3060,6,0,L|490:123,2,89.9999972534181,2|0|2,0:0|0:0|0:0,0:0:0:0:
246,253,3519,2,0,P|216:223|332:83,1,269.999991760254,2|2,0:0|0:0,0:0:0:0:
166,220,4285,5,2,0:0:0:0:
108,153,4438,1,0,0:0:0:0:
168,80,4591,1,2,0:0:0:0:
261,69,4744,2,0,L|325:77,1,44.999998626709
259,100,4897,6,0,P|210:140|270:200,1,150,0|0,3:0|0:0,0:0:0:0:
352,256,5203,2,0,B|329:173|329:173|250:149,1,150,8|0,3:2|0:0,0:0:0:0:
82,230,5509,6,0,P|44:177|151:79,1,200,6|0,3:2|3:0,0:0:0:0:
210,42,5969,2,0,P|248:95|131:149,1,200,2|0,0:0|0:0,0:0:0:0:
62,282,6428,2,0,L|173:296,1,100,2|0,3:2|0:0,0:0:0:0:
343,298,6734,6,0,L|369:68,1,200,2|0,3:2|3:0,0:0:0:0:
265,89,7193,1,0,0:0:0:0:
160,92,7346,2,0,L|390:83,1,200,2|0,3:2|3:0,0:0:0:0:
99,273,7958,6,0,L|100:102,1,150,6|0,3:2|0:0,0:0:0:0:
274,107,8265,2,0,L|387:108,1,100,8|0,0:0|3:0,0:0:0:0:
324,174,8494,1,0,3:0:0:0:
168,233,8571,2,0,L|44:225,1,100,8|8,3:2|3:0,0:0:0:0:
220,131,8877,1,4,3:0:0:0:
59,121,9030,1,2,3:2:0:0:
378,58,9183,5,6,3:2:0:0:
113,56,9336,1,10,3:2:0:0:
33,146,9642,1,6,3:2:0:0:
298,144,9795,1,10,3:2:0:0:
378,230,10101,1,6,3:2:0:0:
113,232,10254,1,10,3:2:0:0:
33,142,10560,5,6,3:2:0:0:
298,144,10714,1,10,3:2:0:0:
256,192,11020,12,0,11479,0:0:0:0:
230,124,11632,6,0,L|422:250,3,200,6|0|0|2,3:2|3:0|3:0|3:2,0:0:0:0:
137,244,12856,6,0,P|110:194|220:95,1,200,2|0,3:2|3:0,0:0:0:0:
286,89,13316,2,0,B|297:197|297:197|182:178,1,200,2|2,0:0|0:0,0:0:0:0:
107,168,13775,2,0,L|104:55,1,100,0|0,3:0|0:0,0:0:0:0:
273,124,14081,6,0,L|465:250,3,200,2|0|0|2,3:2|3:0|3:0|3:2,0:0:0:0:
181,309,15305,6,0,L|170:98,1,200,2|2,3:2|3:2,0:0:0:0:
433,269,15918,2,0,L|496:64,1,200,2|2,3:2|3:2,0:0:0:0:
234,79,16530,6,0,L|42:205,3,200,0|0|0|2,3:0|3:0|3:0|3:2,0:0:0:0:
327,259,17754,6,0,P|319:195|200:125,1,200,2|2,3:2|3:2,0:0:0:0:
112,125,18214,1,2,0:0:0:0:
11,125,18367,2,0,P|14:72|140:14,1,200,0|2,3:0|3:2,0:0:0:0:
392,122,18979,6,0,L|200:248,3,200,2|0|0|2,3:2|3:0|3:0|3:2,0:0:0:0:
486,248,20203,6,0,P|484:160|391:90,1,200,2|2,3:2|3:2,0:0:0:0:
301,81,20663,1,2,0:0:0:0:
132,108,20816,1,0,3:0:0:0:
301,81,20969,1,8,3:0:0:0:
71,179,21122,1,10,3:2:0:0:
231,176,21275,2,0,L|309:175,1,50,8|8,3:2|3:2,0:0:0:0:
106,277,21428,6,0,L|342:274,2,200,6|8|0,3:2|0:0|0:0,0:0:0:0:
208,191,22193,1,0,3:0:0:0:
37,196,22346,2,0,L|32:74,1,100,10|0,0:0|0:0,0:0:0:0:
204,52,22652,6,0,P|270:53|342:164,1,200,2|8,3:2|0:0,0:0:0:0:
241,165,23112,2,0,L|118:159,2,100,2|0|2,0:0|0:0|3:2,0:0:0:0:
71,196,23571,2,0,P|69:150|148:78,1,150,8|0,0:0|0:0,0:0:0:0:
311,251,23877,6,0,L|516:243,2,200,2|8|0,3:2|0:0|0:0,0:0:0:0:
411,173,24642,1,0,3:0:0:0:
242,158,24795,2,0,L|121:153,1,100,10|0,0:0|0:0,0:0:0:0:
312,86,25101,6,0,L|433:84,2,100,2|0|10,3:2|0:0|0:0,0:0:0:0:
148,183,25560,2,0,L|27:181,2,100,0|2|0,0:0|0:0|3:0,0:0:0:0:
314,187,26020,2,0,L|436:187,1,100,10|0,0:0|0:0,0:0:0:0:
148,243,26326,6,0,P|135:193|256:106,2,200,0|8|0,3:0|0:0|0:0,0:0:0:0:
250,246,27091,1,0,3:0:0:0:
79,236,27244,2,0,L|79:108,1,100,10|0,0:0|0:0,0:0:0:0:
249,115,27550,6,0,B|351:104|351:104|255:90,1,200,2|10,3:2|0:0,0:0:0:0:
154,80,28009,2,0,B|185:177|185:177|311:213,1,200,2|2,0:0|3:2,0:0:0:0:
452,214,28469,2,0,L|287:212,1,150,8|0,0:0|0:0,0:0:0:0:
128,207,28775,6,0,P|40:159|78:60,1,200,2|8,3:2|0:0,0:0:0:0:
257,45,29387,1,2,0:0:0:0:
157,46,29540,1,0,3:0:0:0:
57,54,29693,1,8,0:0:0:0:
157,46,29846,1,0,0:0:0:0:
391,97,29999,6,0,L|252:119,1,100,6|0,3:2|3:0,0:0:0:0:
124,224,30305,2,0,L|89:110,1,100,8|2,0:0|3:2,0:0:0:0:
146,113,30535,1,0,3:0:0:0:
326,221,30612,1,10,3:2:0:0:
424,197,30765,1,8,3:0:0:0:
474,135,30918,2,0,P|486:79|407:21,1,150,4|0,3:0|0:0,0:0:0:0:
250,13,31224,6,0,B|142:22|142:22|98:117,1,200,4|0,3:2|1:0,0:0:0:0:
183,244,31683,2,0,B|208:92|208:92|231:238,1,300,2|2,0:0|1:2,0:0:0:0:
147,54,32295,1,0,3:0:0:0:
297,44,32448,6,0,P|314:94|141:216,2,300,2|2|2,1:2|0:0|1:2,0:0:0:0:
216,46,33520,1,0,3:0:0:0:
366,286,33673,6,0,P|449:262|461:62,2,300,2|2|2,1:2|0:0|1:2,0:0:0:0:
285,286,34744,1,0,3:0:0:0:
113,291,34897,6,0,P|39:248|110:102,1,250,0|0,3:0|0:0,0:0:0:0:
214,98,35356,1,0,3:0:0:0:
349,92,35433,1,8,3:2:0:0:
214,98,35509,2,0,L|95:104,1,100,10|12,3:2|3:2,0:0:0:0:
335,218,35816,2,0,L|156:228,1,150,10|0,3:2|0:0,0:0:0:0:
383,146,36122,6,0,L|486:141,2,100,14|0|10,3:2|0:0|3:2,0:0:0:0:
151,181,36581,1,14,3:2:0:0:
211,109,36734,1,0,0:0:0:0:
319,100,36887,1,0,3:0:0:0:
99,75,37040,2,0,L|-4:73,1,100,14|0,3:2|3:0,0:0:0:0:
256,197,37346,6,0,L|128:191,2,100,14|0|10,3:2|0:0|3:2,0:0:0:0:
28,104,37805,1,14,3:2:0:0:
128,95,37958,1,0,0:0:0:0:
231,88,38112,1,0,3:0:0:0:
457,156,38265,2,0,L|320:142,1,100,14|0,3:2|3:0,0:0:0:0:
110,241,38571,6,0,P|87:192|140:98,1,165.000005035401,4|8,3:2|3:2,0:0:0:0:
319,174,38877,2,0,L|180:174,1,110.000003356934,8|0,3:2|3:0,0:0:0:0:
155,175,39106,1,8,3:2:0:0:
360,101,39183,2,0,L|221:101,1,110.000003356934,8|0,3:2|3:0,0:0:0:0:
196,102,39412,1,8,3:2:0:0:
401,30,39489,2,0,L|328:29,1,55.0000016784668,8|0,3:2|3:0,0:0:0:0:
140,32,39642,2,0,L|67:31,1,55.0000016784668,0|8,3:0|3:2,0:0:0:0:
266,29,39795,6,0,P|341:37|270:237,1,350,14|0,3:2|0:0,0:0:0:0:
129,269,40407,2,0,L|123:209,1,50,6|0,3:2|0:0,0:0:0:0:
203,188,40560,2,0,L|274:179,1,50,0|0,3:0|3:0,0:0:0:0:
67,134,40714,2,0,L|142:125,1,50,10|0,3:2|0:0,0:0:0:0:
283,110,40867,2,0,L|363:102,1,50,0|0,3:0|3:0,0:0:0:0:
106,270,41020,6,0,P|18:234|55:92,1,239.999992675781,6|8,3:2|0:0,0:0:0:0:
151,94,41479,1,0,0:0:0:0:
318,171,41632,1,2,3:2:0:0:
198,176,41785,1,0,3:0:0:0:
78,181,41938,1,8,0:0:0:0:
198,176,42091,1,0,0:0:0:0:
450,263,42244,6,0,L|452:72,1,179.999994506836,0|0,3:0|0:0,0:0:0:0:
252,79,42550,2,0,B|132:79|132:79|200:89,1,179.999994506836,10|0,0:0|0:0,0:0:0:0:
252,154,42856,2,0,B|372:154|372:154|304:164,1,179.999994506836,2|0,0:0|0:0,0:0:0:0:
111,246,43163,2,0,L|309:239,1,179.999994506836,10|0,0:0|0:0,0:0:0:0:
68,160,43469,6,0,L|322:150,1,239.999992675781,2|8,3:2|0:0,0:0:0:0:
307,150,43928,1,0,0:0:0:0:
248,126,44081,1,0,3:0:0:0:
307,150,44234,1,0,3:0:0:0:
485,240,44387,2,0,L|331:238,1,119.999996337891,10|0,0:0|0:0,0:0:0:0:
121,226,44693,6,0,P|82:166|199:49,1,239.999992675781,2|10,3:2|0:0,0:0:0:0:
290,40,45152,2,0,P|325:97|179:138,1,239.999992675781,2|2,3:2|3:2,0:0:0:0:
378,291,45612,2,0,P|426:251|374:147,1,179.999994506836,8|0,0:0|0:0,0:0:0:0:
185,252,45918,6,0,P|176:179|334:77,1,239.999992675781,2|8,3:2|0:0,0:0:0:0:
408,63,46377,1,0,0:0:0:0:
470,143,46530,1,0,3:0:0:0:
408,63,46683,1,0,3:0:0:0:
246,55,46836,2,0,L|113:90,1,119.999996337891,10|0,0:0|0:0,0:0:0:0:
397,298,47142,6,0,P|405:226|257:135,1,239.999992675781,2|10,3:2|0:0,0:0:0:0:
165,129,47601,2,0,P|167:63|316:2,1,239.999992675781,2|2,3:2|3:2,0:0:0:0:
150,242,48060,2,0,B|45:212|45:212|38:139,1,179.999994506836,8|0,0:0|0:0,0:0:0:0:
241,155,48367,6,0,P|329:150|412:11,1,239.999992675781,2|8,3:2|0:0,0:0:0:0:
356,136,48826,1,0,0:0:0:0:
241,155,48979,2,0,L|97:154,1,119.999996337891,0|0,3:0|3:0,0:0:0:0:
303,258,49285,2,0,L|438:256,1,119.999996337891,10|2,0:0|0:0,0:0:0:0:
151,254,49591,6,0,P|125:180|247:131,1,179.999994506836,0|0,3:0|0:0,0:0:0:0:
361,254,49897,2,0,P|387:180|265:131,1,179.999994506836,8|0,0:0|0:0,0:0:0:0:
150,107,50203,1,2,0:0:0:0:
394,60,50356,1,4,3:2:0:0:
110,243,50509,2,0,L|103:100,1,119.999996337891,14|0,3:2|3:0,0:0:0:0:
165,114,50739,1,0,3:0:0:0:
360,104,50816,6,0,P|407:192|321:260,1,179.999994506836,4|0,3:2|0:0,0:0:0:0:
167,264,51122,2,0,L|162:125,1,119.999996337891,10|0,0:0|0:0,0:0:0:0:
324,88,51428,2,0,L|199:82,1,119.999996337891,2|2,3:2|3:2,0:0:0:0:
48,83,51734,1,8,0:0:0:0:
207,85,51887,1,2,0:0:0:0:
48,83,52040,6,0,P|53:162|195:225,1,239.999992675781,0|10,3:0|0:0,0:0:0:0:
305,216,52499,1,0,3:0:0:0:
184,227,52652,2,0,P|194:158|334:80,1,239.999992675781,2|10,0:0|0:0,0:0:0:0:
56,272,53265,6,0,L|26:88,1,179.999994506836,0|0,3:0|0:0,0:0:0:0:
232,77,53571,2,0,L|372:74,1,119.999996337891,10|0,0:0|0:0,0:0:0:0:
179,174,53877,2,0,L|379:171,2,179.999994506836,2|2|2,3:2|0:0|0:0,0:0:0:0:
446,266,54489,6,0,P|475:214|358:92,1,239.999992675781,6|10,3:2|0:0,0:0:0:0:
220,89,54948,1,0,3:0:0:0:
490,49,55101,2,0,L|312:47,1,119.999996337891,10|0,0:0|3:0,0:0:0:0:
310,46,55331,1,0,3:0:0:0:
136,48,55407,2,0,L|51:150,1,119.999996337891,10|0,0:0|3:0,0:0:0:0:
327,225,55714,6,0,P|365:173|278:113,1,179.999994506836,6|0,3:2|0:0,0:0:0:0:
112,208,56020,2,0,L|106:71,1,119.999996337891,8|2,0:0|3:2,0:0:0:0:
275,166,56326,2,0,L|281:29,1,119.999996337891,8|0,0:0|3:0,0:0:0:0:
448,38,56632,2,0,L|313:36,1,119.999996337891,8|0,0:0|3:0,0:0:0:0:
267,33,56862,1,0,3:0:0:0:
79,121,56938,6,0,L|218:127,1,119.999996337891,8|0,0:0|3:0,0:0:0:0:
367,237,57244,2,0,L|375:113,1,119.999996337891,10|0,0:0|3:0,0:0:0:0:
207,73,57550,2,0,L|70:66,1,119.999996337891,10|0,0:0|3:0,0:0:0:0:
254,146,57856,2,0,L|414:144,1,119.999996337891,10|0,0:0|3:0,0:0:0:0:
313,91,58086,1,0,3:0:0:0:
107,242,58163,6,0,P|91:179|172:111,1,179.999994506836,10|0,0:0|0:0,0:0:0:0:
382,224,58469,2,0,L|507:202,1,119.999996337891,8|2,0:0|3:2,0:0:0:0:
330,148,58775,2,0,L|205:141,1,119.999996337891,10|0,0:0|3:0,0:0:0:0:
48,85,59081,2,0,L|182:77,1,119.999996337891,8|0,0:0|3:0,0:0:0:0:
227,74,59310,1,0,3:0:0:0:
424,226,59387,6,0,L|442:92,1,119.999996337891,6|0,3:2|3:0,0:0:0:0:
177,171,59693,2,0,L|54:158,1,119.999996337891,14|0,3:2|3:0,0:0:0:0:
121,112,59923,1,0,3:0:0:0:
304,92,59999,2,0,L|437:88,1,119.999996337891,14|8,0:0|3:0,0:0:0:0:
265,261,60305,2,0,L|69:248,1,179.999994506836,6|0,3:2|0:0,0:0:0:0:
313,253,60612,6,0,P|433:231|474:111,1,239.999992675781,6|8,3:2|0:0,0:0:0:0:
357,93,61071,1,0,0:0:0:0:
190,170,61224,1,2,3:2:0:0:
310,175,61377,1,0,3:0:0:0:
430,180,61530,1,8,0:0:0:0:
310,175,61683,1,0,0:0:0:0:
58,239,61836,6,0,L|56:48,1,179.999994506836,0|0,3:0|0:0,0:0:0:0:
256,55,62142,2,0,B|376:55|376:55|308:65,1,179.999994506836,10|0,0:0|0:0,0:0:0:0:
256,130,62448,2,0,B|136:130|136:130|204:140,1,179.999994506836,2|0,0:0|0:0,0:0:0:0:
397,222,62755,2,0,L|199:215,1,179.999994506836,10|0,0:0|0:0,0:0:0:0:
440,136,63061,6,0,L|186:126,1,239.999992675781,2|8,3:2|0:0,0:0:0:0:
201,126,63520,1,0,0:0:0:0:
260,102,63673,1,0,3:0:0:0:
201,126,63826,1,0,3:0:0:0:
23,216,63979,2,0,L|177:214,1,119.999996337891,10|0,0:0|0:0,0:0:0:0:
398,209,64285,6,0,P|373:139|222:65,1,239.999992675781,2|10,3:2|0:0,0:0:0:0:
111,142,64744,2,0,L|369:133,1,239.999992675781,2|2,3:2|3:2,0:0:0:0:
505,64,65203,2,0,L|295:54,1,179.999994506836,8|0,0:0|0:0,0:0:0:0:
118,50,65509,6,0,P|132:150|278:204,1,239.999992675781,2|8,3:2|0:0,0:0:0:0:
366,213,65969,1,0,0:0:0:0:
246,209,66122,2,0,L|225:61,1,119.999996337891,0|0,3:0|3:0,0:0:0:0:
392,120,66428,2,0,L|455:9,1,119.999996337891,10|0,0:0|0:0,0:0:0:0:
195,8,66734,6,0,B|129:15|82:50|82:50|154:75|187:161,1,239.999992675781,2|10,3:2|0:0,0:0:0:0:
290,155,67193,2,0,B|192:223|192:223|56:181,1,239.999992675781,2|2,3:2|3:2,0:0:0:0:
198,74,67652,2,0,L|404:73,1,179.999994506836,8|0,0:0|0:0,0:0:0:0:
195,186,67958,6,0,P|107:181|24:42,1,239.999992675781,2|8,3:2|0:0,0:0:0:0:
80,167,68417,1,0,0:0:0:0:
195,186,68570,2,0,L|339:185,1,119.999996337891,0|0,3:0|3:0,0:0:0:0:
144,291,68876,2,0,L|9:289,1,119.999996337891,10|2,0:0|0:0,0:0:0:0:
292,294,69183,6,0,L|292:99,1,179.999994506836,0|0,3:0|0:0,0:0:0:0:
87,209,69489,2,0,L|220:197,1,119.999996337891,8|0,0:0|3:0,0:0:0:0:
36,131,69795,1,2,0:0:0:0:
288,107,69948,1,4,3:2:0:0:
36,131,70101,2,0,L|34:2,1,119.999996337891,14|0,3:2|3:0,0:0:0:0:
96,8,70331,1,0,3:0:0:0:
303,198,70407,6,0,L|94:202,1,179.999994506836,4|0,3:2|0:0,0:0:0:0:
349,122,70714,2,0,L|357:-33,1,119.999996337891,10|0,0:0|0:0,0:0:0:0:
199,31,71020,2,0,L|342:21,1,119.999996337891,2|2,3:2|3:2,0:0:0:0:
474,24,71326,1,8,0:0:0:0:
317,159,71479,6,0,B|225:193|135:162|135:162|146:206|122:239|122:239|179:235|217:276,1,359.999989013672,2|10,0:0|0:0,0:0:0:0:
328,292,72091,1,0,3:0:0:0:
208,105,72244,2,0,B|93:63|63:150|63:150|68:106|23:51,1,239.999992675781,2|10,0:0|0:0,0:0:0:0:
456,272,72856,6,0,L|486:88,1,179.999994506836,0|0,3:0|0:0,0:0:0:0:
280,77,73162,2,0,L|140:74,1,119.999996337891,10|0,0:0|0:0,0:0:0:0:
333,174,73468,2,0,L|133:171,2,179.999994506836,2|0|0,3:2|0:0|0:0,0:0:0:0:
66,266,74080,6,0,P|37:214|154:92,1,239.999992675781,6|10,3:2|0:0,0:0:0:0:
292,89,74539,1,0,3:0:0:0:
22,49,74692,2,0,L|200:47,1,119.999996337891,10|0,0:0|3:0,0:0:0:0:
202,46,74922,1,0,3:0:0:0:
376,48,74998,2,0,L|461:150,1,119.999996337891,10|0,0:0|3:0,0:0:0:0:
185,225,75305,6,0,P|147:173|234:113,1,179.999994506836,6|0,3:2|0:0,0:0:0:0:
400,208,75611,2,0,L|406:71,1,119.999996337891,8|2,0:0|3:2,0:0:0:0:
237,166,75917,2,0,L|231:29,1,119.999996337891,8|0,0:0|3:0,0:0:0:0:
64,38,76223,2,0,L|199:36,1,119.999996337891,8|0,0:0|3:0,0:0:0:0:
245,33,76453,1,0,3:0:0:0:
433,121,76529,6,0,L|294:127,1,119.999996337891,8|0,0:0|3:0,0:0:0:0:
145,237,76835,2,0,L|137:113,1,119.999996337891,10|0,0:0|3:0,0:0:0:0:
305,73,77141,2,0,L|442:66,1,119.999996337891,10|0,0:0|3:0,0:0:0:0:
258,146,77447,2,0,L|98:144,1,119.999996337891,10|0,0:0|3:0,0:0:0:0:
199,91,77677,1,0,3:0:0:0:
405,242,77754,6,0,P|440:179|340:111,1,179.999994506836,10|0,0:0|0:0,0:0:0:0:
162,224,78060,2,0,L|37:202,1,119.999996337891,8|0,0:0|3:0,0:0:0:0:
214,148,78366,2,0,L|339:141,1,119.999996337891,8|0,0:0|3:0,0:0:0:0:
496,85,78672,2,0,L|362:77,1,119.999996337891,10|0,0:0|3:0,0:0:0:0:
317,74,78901,1,0,3:0:0:0:
120,226,78978,6,0,L|102:92,1,119.999996337891,6|0,3:2|3:0,0:0:0:0:
367,171,79284,2,0,L|490:158,1,119.999996337891,12|0,3:2|3:0,0:0:0:0:
423,112,79514,1,0,3:0:0:0:
240,92,79590,2,0,L|107:88,1,119.999996337891,8|8,3:2|3:0,0:0:0:0:
279,261,79896,2,0,L|409:257,1,119.999996337891,4|0,3:0|3:0,0:0:0:0:
188,311,80203,6,0,B|149:163|149:163|148:204|148:204|136:130|136:130|126:175|126:175|118:42|118:42|117:106|117:106|110:30|110:30|124:194|124:194|132:57|132:57|190:263|185:312|185:312|203:203|203:203|203:188|203:188|209:144|209:144|229:138|229:138|240:188|240:188|288:60|288:60|322:161|322:161|345:53|345:53|363:214|363:214|373:23|373:23|227:15|63:31,1,2400.00009155274,6|12,3:2|3:2,0:0:0:0:
19,66,81504,5,0,3:0:0:0:
73,30,81581,1,0,3:0:0:0:
228,231,81734,2,0,L|214:150,1,55.0000016784668,10|0,3:2|3:0,0:0:0:0:
132,178,81887,2,0,L|118:97,1,55.0000016784668,0|10,3:0|3:2,0:0:0:0:
313,96,82040,2,0,L|383:95,1,55.0000016784668,10|0,3:2|3:0,0:0:0:0:
274,45,82193,2,0,L|190:45,1,55.0000016784668,0|10,3:0|3:2,0:0:0:0:
427,212,82346,2,0,L|336:213,1,55.0000016784668,10|0,3:2|3:0,0:0:0:0:
159,262,82499,2,0,L|68:263,1,55.0000016784668,0|10,3:0|3:2,0:0:0:0:
307,21,82652,6,0,P|369:37|392:161,1,200,6|8,3:2|0:0,0:0:0:0:
224,213,83112,2,0,L|454:203,1,200,2|0,0:0|3:0,0:0:0:0:
251,126,83571,2,0,L|137:122,1,100,10|0,0:0|0:0,0:0:0:0:
402,261,83877,6,0,L|401:41,1,200,0|10,3:0|0:0,0:0:0:0:
301,61,84336,1,0,3:0:0:0:
131,65,84489,2,0,L|130:188,1,100,2|0,0:0|3:0,0:0:0:0:
301,159,84795,2,0,L|300:282,1,100,10|0,0:0|0:0,0:0:0:0:
60,232,85101,6,0,L|286:217,1,200,2|8,3:2|0:0,0:0:0:0:
431,205,85560,1,2,0:0:0:0:
409,109,85713,1,0,3:0:0:0:
327,56,85866,1,0,3:0:0:0:
137,53,86020,2,0,P|139:123|240:146,1,165.000005035401,10|0,0:0|0:0,0:0:0:0:
390,232,86326,6,0,L|161:236,1,200,4|8,3:2|0:0,0:0:0:0:
291,160,86785,1,0,3:0:0:0:
120,122,86938,1,10,0:0:0:0:
220,108,87091,1,0,3:0:0:0:
330,90,87244,1,4,3:0:0:0:
381,27,87397,1,0,0:0:0:0:
129,292,87550,6,0,P|127:243|264:158,1,200,6|8,3:2|0:0,0:0:0:0:
401,150,88009,2,0,P|400:88|263:21,1,200,2|0,0:0|3:0,0:0:0:0:
106,33,88469,2,0,L|96:165,1,110.000003356934,10|0,0:0|0:0,0:0:0:0:
341,254,88775,6,0,B|286:178|286:178|157:161,1,200,2|8,3:2|0:0,0:0:0:0:
125,223,89234,1,0,3:0:0:0:
296,99,89387,2,0,L|405:91,1,100,2|0,0:0|3:0,0:0:0:0:
284,186,89693,2,0,L|83:196,1,165.000005035401,8|0,0:0|0:0,0:0:0:0:
301,290,89999,6,0,P|360:264|320:126,1,200,2|8,3:2|0:0,0:0:0:0:
186,110,90458,2,0,P|269:111|328:-13,1,200,0|2,3:0|3:2,0:0:0:0:
161,225,90918,1,10,0:0:0:0:
331,189,91071,1,2,0:0:0:0:
56,192,91224,6,0,P|50:123|156:87,1,165.000005035401,6|0,3:2|0:0,0:0:0:0:
302,127,91530,2,0,L|163:133,1,100,10|0,3:2|3:0,0:0:0:0:
372,230,91836,2,0,L|232:234,1,100,10|0,3:2|3:0,0:0:0:0:
443,145,92142,2,0,L|446:33,1,100,2|4,3:2|3:0,0:0:0:0:
205,21,92448,6,0,P|143:37|120:161,1,200,6|8,3:2|0:0,0:0:0:0:
288,213,92908,2,0,L|58:203,1,200,2|0,0:0|3:0,0:0:0:0:
261,126,93367,2,0,L|375:122,1,100,10|0,0:0|0:0,0:0:0:0:
110,261,93673,6,0,L|111:41,1,200,0|10,3:0|0:0,0:0:0:0:
211,61,94132,1,0,3:0:0:0:
381,65,94285,2,0,L|382:188,1,100,2|0,0:0|3:0,0:0:0:0:
211,159,94591,2,0,L|212:282,1,100,10|0,0:0|0:0,0:0:0:0:
452,232,94897,6,0,L|226:217,1,200,2|8,3:2|0:0,0:0:0:0:
81,205,95356,1,2,0:0:0:0:
103,109,95509,1,0,3:0:0:0:
185,56,95662,1,0,3:0:0:0:
375,53,95816,2,0,P|373:123|272:146,1,165.000005035401,10|0,0:0|0:0,0:0:0:0:
122,232,96122,6,0,L|351:236,1,200,6|8,3:2|3:2,0:0:0:0:
221,160,96581,1,0,3:0:0:0:
392,122,96734,1,10,3:2:0:0:
292,108,96887,1,0,3:0:0:0:
182,90,97040,1,4,3:0:0:0:
131,27,97193,1,0,0:0:0:0:
383,292,97346,6,0,P|385:243|248:158,1,200,6|8,3:2|0:0,0:0:0:0:
111,150,97805,2,0,P|112:88|249:21,1,200,2|0,0:0|3:0,0:0:0:0:
406,33,98265,2,0,L|416:165,1,110.000003356934,10|0,0:0|0:0,0:0:0:0:
171,254,98571,6,0,B|226:178|226:178|355:161,1,200,2|8,3:2|0:0,0:0:0:0:
387,223,99030,1,0,3:0:0:0:
216,99,99183,2,0,L|107:91,1,100,2|0,0:0|3:0,0:0:0:0:
228,186,99489,2,0,L|429:196,1,165.000005035401,8|0,0:0|0:0,0:0:0:0:
211,290,99795,6,0,P|152:264|192:126,1,200,6|8,3:2|0:0,0:0:0:0:
329,108,100254,2,0,L|391:108,2,50,0|0|8,3:0|3:0|0:0,0:0:0:0:
228,105,100560,1,0,3:0:0:0:
329,108,100714,1,2,3:2:0:0:
157,43,100867,1,2,3:2:0:0:
422,45,101020,5,6,3:2:0:0:
157,43,101173,1,10,3:2:0:0:
77,133,101479,1,6,3:2:0:0:
342,131,101632,1,10,3:2:0:0:
422,217,101938,1,6,3:2:0:0:
157,219,102091,1,10,3:2:0:0:
77,129,102397,5,6,3:2:0:0:
342,131,102551,1,10,3:2:0:0:
82,39,102856,2,0,L|187:30,2,100,8|8|4,3:2|3:0|3:0,0:0:0:0:
334,233,103316,5,14,3:2:0:0:
256,192,103469,12,0,109591,0:0:0:0:
