osu file format v14

[General]
AudioFilename: audio.mp3
AudioLeadIn: 0
PreviewTime: 39719
Countdown: 0
SampleSet: Soft
StackLeniency: 0.7
Mode: 2
LetterboxInBreaks: 0
WidescreenStoryboard: 1

[Editor]
Bookmarks: 223
DistanceSpacing: 1.1
BeatDivisor: 4
GridSize: 32
TimelineZoom: 3.699999

[Metadata]
Title:Koisuru MODE
TitleUnicode:恋するMODE
Artist:Rin'ca
ArtistUnicode:Rin'ca
Creator:-Joakh
Version:Kegare's Platter
Source:D.C.4 〜ダ・カーポ4〜
Tags:DC4 Japanese JP Jpop J-pop pop Rinca yozuca* Nekusam Visual Novel VN Vocals Galgame 美少女ゲーム Video Game Circus D.C.4 ~Da Capo 4~ 2nd OP Second Opening 鷺澤有里栖 Sagisawa Arisu 常坂二乃 Tokisaka Nino 逢見諳子 Oumi Sorane 白河ひより Shirakawa Hiyori 鳳城詩名 Houjyou Shiina 美嶋未羽 Mishima Miu 日野原ちよ子 Hinohara Chiyoko Chatie Golo- Kegare- bigh bighzonda zonda 050 muya-
BeatmapID:3884939
BeatmapSetID:1550986

[Difficulty]
HPDrainRate:5
CircleSize:3
OverallDifficulty:8
ApproachRate:8
SliderMultiplier:1.69
SliderTickRate:1

[Events]
//Background and Video events
0,0,"BG.jpg",0,0
//Break Periods
//Storyboard Layer 0 (Background)
//Storyboard Layer 1 (Fail)
//Storyboard Layer 2 (Pass)
//Storyboard Layer 3 (Foreground)
//Storyboard Layer 4 (Overlay)
//Storyboard Sound Samples

[TimingPoints]
612,306.122448979592,4,2,1,30,1,0
612,-100,4,2,1,30,0,0
4897,-100,4,2,1,50,0,0
5203,-100,4,2,1,60,0,0
5509,-100,4,2,1,70,0,0
9183,-100,4,2,1,75,0,0
11632,-100,4,2,1,65,0,0
20816,-100,4,2,1,70,0,0
21428,-100,4,2,1,75,0,0
31224,-100,4,2,1,60,0,0
35356,-100,4,2,1,70,0,0
35663,-100,4,2,1,50,0,0
35816,-100,4,2,1,70,0,0
36122,-100,4,2,1,75,0,1
36198,-100,4,2,1,75,0,0
37346,-100,4,2,1,75,0,1
37423,-100,4,2,1,75,0,0
38571,-100,4,2,1,75,0,1
39795,-100,4,2,3,70,0,0
39872,-100,4,2,1,70,0,0
40407,-100,4,2,1,75,0,0
41020,-100,4,2,1,80,0,1
60535,-100,4,2,1,80,0,0
60612,-100,4,2,1,80,0,1
79285,-100,4,2,1,50,0,1
79438,-100,4,2,1,80,0,1
80203,-100,4,2,5,70,0,0
81428,-100,4,2,1,75,0,1
82652,-100,4,2,1,70,0,0
101020,-100,4,2,1,75,0,0
103316,-100,4,2,1,80,0,0
103469,-100,4,2,1,70,0,0
103775,-100,4,2,1,65,0,0
104081,-100,4,2,1,60,0,0
104387,-100,4,2,1,55,0,0
104693,-100,4,2,1,50,0,0
104999,-100,4,2,1,45,0,0
105305,-100,4,2,1,40,0,0
105612,-100,4,2,1,35,0,0
105918,-100,4,2,1,30,0,0
106224,-100,4,2,1,25,0,0
106530,-100,4,2,1,20,0,0
106836,-100,4,2,1,15,0,0
107142,-100,4,2,1,10,0,0
107448,-100,4,2,1,5,0,0

[Colours]
Combo1 : 191,191,191
Combo2 : 199,141,141
Combo3 : 128,191,255
Combo4 : 255,210,128

[HitObjects]
235,162,612,6,0,P|179:214|240:261,1,169,2|2,0:0|0:0,0:0:0:0:
328,260,1071,2,0,P|425:192|382:82,1,253.5,2|2,0:0|0:0,0:0:0:0:
154,86,2142,2,0,L|264:213,2,169,2|2|2,0:0|0:0|0:0,0:0:0:0:
380,86,3060,6,0,L|483:86,1,84.5,2|0,0:0|0:0,0:0:0:0:
380,86,3367,1,2,0:0:0:0:
295,98,3520,2,0,P|269:171|338:205,1,169,2|0,0:0|0:0,0:0:0:0:
430,195,3979,1,2,0:0:0:0:
175,278,4285,6,0,P|136:208|187:147,1,169,2|2,0:0|0:0,0:0:0:0:
371,199,4744,2,0,P|399:85|292:38,1,253.5,0|8,0:0|3:2,0:0:0:0:
201,55,5356,1,0,0:0:0:0:
422,172,5509,6,0,P|457:241|396:289,1,169,6|0,3:2|3:0,0:0:0:0:
301,250,5969,2,0,P|261:184|325:143,1,169,2|0,0:0|0:0,0:0:0:0:
417,155,6428,2,0,P|426:115|408:75,1,84.5,2|0,3:2|0:0,0:0:0:0:
242,77,6734,6,0,L|66:126,1,169,2|0,3:2|3:0,0:0:0:0:
257,88,7346,2,0,P|315:138|269:199,1,169,2|0,3:2|3:0,0:0:0:0:
178,218,7805,1,0,0:0:0:0:
397,189,7958,6,0,P|449:254|392:288,1,169,6|8,3:2|0:0,0:0:0:0:
291,118,8418,2,0,L|231:117,1,42.25,0|0,3:0|3:0,0:0:0:0:
249,117,8571,2,0,L|249:220,1,84.5,8|8,3:2|3:0,0:0:0:0:
349,201,8877,2,0,L|349:307,1,84.5,4|2,3:0|3:2,0:0:0:0:
127,286,9183,5,6,3:2:0:0:
211,283,9336,2,0,P|284:250|293:169,1,169,10|6,3:2|3:2,0:0:0:0:
141,155,9795,2,0,L|302:204,1,169,10|6,3:2|3:2,0:0:0:0:
150,166,10254,2,0,P|80:130|103:55,1,169,10|6,3:2|3:2,0:0:0:0:
322,55,10714,5,10,3:2:0:0:
256,192,10867,12,0,11326,0:0:0:0:
159,128,11632,6,0,P|101:169|164:203,1,169,6|0,3:2|3:0,0:0:0:0:
276,225,12244,2,0,L|102:163,1,169,0|2,3:0|3:2,0:0:0:0:
333,222,12856,6,0,P|384:276|324:320,1,169,2|0,3:2|3:0,0:0:0:0:
231,314,13316,2,0,L|230:215,1,84.5,2|0,0:0|3:0,0:0:0:0:
322,219,13622,2,0,L|321:122,1,84.5,2|0,0:0|3:0,0:0:0:0:
84,150,14081,6,0,L|85:335,1,169,2|0,3:2|3:0,0:0:0:0:
203,318,14693,1,0,3:0:0:0:
84,318,14999,1,2,3:2:0:0:
320,318,15305,6,0,P|372:253|317:197,1,169,2|2,3:2|3:2,0:0:0:0:
156,189,15918,2,0,P|145:110|216:76,1,169,2|2,3:2|3:2,0:0:0:0:
457,93,16530,6,0,L|456:284,1,169,0|0,3:0|3:0,0:0:0:0:
363,265,16989,1,0,0:0:0:0:
270,267,17142,1,0,3:0:0:0:
375,266,17448,1,2,3:2:0:0:
131,260,17754,6,0,P|77:200|131:150,1,169,2|2,3:2|3:2,0:0:0:0:
230,150,18214,2,0,L|75:266,1,169,2|0,0:0|0:0,0:0:0:0:
179,151,18673,1,2,3:2:0:0:
398,150,18979,6,0,L|398:348,1,169,2|0,3:2|3:0,0:0:0:0:
264,320,19591,1,0,3:0:0:0:
398,319,19897,1,2,3:2:0:0:
161,319,20203,2,0,P|108:239|170:196,1,169,2|2,3:2|3:2,0:0:0:0:
241,198,20663,1,2,0:0:0:0:
148,198,20816,5,0,3:0:0:0:
241,198,20969,1,8,3:0:0:0:
409,197,21122,2,0,L|323:208,1,84.5,10|8,3:2|3:2,0:0:0:0:
106,197,21428,6,0,P|106:291|177:290,1,169,6|8,3:2|0:0,0:0:0:0:
281,298,22040,2,0,L|281:191,1,84.5,0|0,0:0|3:0,0:0:0:0:
188,215,22346,2,0,L|84:215,1,84.5,10|0,0:0|0:0,0:0:0:0:
254,213,22652,6,0,P|304:159|235:108,1,169,2|8,3:2|0:0,0:0:0:0:
153,110,23112,2,0,L|255:110,1,84.5,2|0,0:0|0:0,0:0:0:0:
236,202,23418,1,2,3:2:0:0:
77,208,23571,1,8,0:0:0:0:
269,212,23877,6,0,L|116:301,1,169,2|8,3:2|0:0,0:0:0:0:
218,212,24489,2,0,L|217:99,1,84.5,0|0,0:0|3:0,0:0:0:0:
124,127,24795,2,0,L|125:221,1,84.5,10|0,0:0|0:0,0:0:0:0:
275,211,25101,6,0,L|376:257,1,84.5,2|0,3:2|0:0,0:0:0:0:
275,211,25407,1,10,0:0:0:0:
139,210,25714,2,0,L|235:209,1,84.5,2|0,0:0|3:0,0:0:0:0:
122,210,26020,2,0,L|122:315,1,84.5,10|0,0:0|0:0,0:0:0:0:
341,294,26326,6,0,P|407:241|325:171,1,169,0|8,3:0|0:0,0:0:0:0:
262,219,26938,2,0,L|183:253,1,84.5,0|0,0:0|3:0,0:0:0:0:
268,225,27244,2,0,L|345:258,1,84.5,10|0,0:0|0:0,0:0:0:0:
193,222,27550,6,0,P|134:177|189:127,1,169,2|10,3:2|0:0,0:0:0:0:
290,134,28009,2,0,L|385:134,1,84.5,2|0,0:0|0:0,0:0:0:0:
281,136,28316,1,2,3:2:0:0:
122,137,28469,1,8,0:0:0:0:
318,135,28775,6,0,L|165:208,1,169,2|8,3:2|0:0,0:0:0:0:
256,124,29387,2,0,L|148:140,1,84.5,2|0,0:0|3:0,0:0:0:0:
75,134,29693,2,0,L|74:234,1,84.5,8|0,0:0|0:0,0:0:0:0:
293,198,29999,6,0,L|392:198,1,84.5,6|0,3:2|3:0,0:0:0:0:
282,218,30305,2,0,L|172:217,1,84.5,8|2,0:0|3:2,0:0:0:0:
240,217,30535,1,0,3:0:0:0:
282,218,30612,2,0,L|282:331,1,84.5,10|8,3:2|3:0,0:0:0:0:
121,302,30918,1,4,3:0:0:0:
315,303,31224,5,4,3:2:0:0:
145,303,31683,2,0,P|142:202|227:161,1,169,2|0,0:0|0:0,0:0:0:0:
282,165,32142,1,2,1:2:0:0:
88,165,32448,6,0,L|245:84,1,169,2|0,1:2|1:0,0:0:0:0:
332,109,32907,2,0,P|338:188|266:221,1,169,2|0,0:0|0:0,0:0:0:0:
174,206,33367,1,2,1:2:0:0:
392,276,33673,6,0,P|444:205|380:174,1,169,2|0,1:2|1:0,0:0:0:0:
301,171,34132,2,0,P|229:204|234:284,1,169,2|0,0:0|0:0,0:0:0:0:
327,287,34591,1,2,1:2:0:0:
418,301,34744,1,0,3:0:0:0:
280,136,34897,5,0,3:0:0:0:
117,152,35356,2,0,L|118:228,1,42.25,0|8,3:0|3:2,0:0:0:0:
117,194,35509,2,0,L|207:194,1,84.5,10|12,3:2|3:2,0:0:0:0:
295,194,35816,2,0,L|295:296,1,84.5,10|0,3:2|0:0,0:0:0:0:
73,277,36122,6,0,L|74:181,1,84.5,14|0,3:2|0:0,0:0:0:0:
166,194,36428,1,10,3:2:0:0:
318,158,36581,2,0,L|164:256,1,169,14|0,3:2|3:0,0:0:0:0:
83,192,37040,2,0,L|177:190,1,84.5,14|0,3:2|3:0,0:0:0:0:
388,191,37346,6,0,L|459:140,2,84.5,14|0|10,3:2|0:0|3:2,0:0:0:0:
217,191,37805,2,0,P|168:130|224:77,1,169,14|0,3:2|3:0,0:0:0:0:
317,77,38265,2,0,L|316:195,1,84.5,14|0,3:2|3:0,0:0:0:0:
97,161,38571,2,0,L|95:266,1,84.5,4|0,3:2|3:0,0:0:0:0:
137,245,38800,1,8,3:2:0:0:
179,245,38877,2,0,L|87:246,1,84.5,8|0,3:2|3:0,0:0:0:0:
314,245,39183,5,8,3:2:0:0:
355,245,39259,1,0,3:0:0:0:
355,202,39336,1,0,3:0:0:0:
312,202,39413,1,8,3:2:0:0:
270,202,39489,2,0,L|342:201,1,42.25,8|0,3:2|3:0,0:0:0:0:
355,202,39642,1,0,3:0:0:0:
135,149,39795,6,0,P|83:98|149:68,1,169,14|2,3:2|0:0,0:0:0:0:
351,323,40407,2,0,L|259:322,1,84.5,6|0,3:2|3:0,0:0:0:0:
308,323,40637,1,0,3:0:0:0:
351,323,40714,2,0,L|350:228,1,84.5,10|0,3:2|3:0,0:0:0:0:
129,153,41020,6,0,P|82:209|148:241,1,169,6|8,3:2|0:0,0:0:0:0:
334,174,41632,2,0,L|334:62,1,84.5,2|0,3:2|3:0,0:0:0:0:
241,93,41938,2,0,L|160:117,1,84.5,8|0,0:0|0:0,0:0:0:0:
286,41,42244,5,0,3:0:0:0:
82,61,42550,2,0,L|166:60,1,84.5,10|0,0:0|3:0,0:0:0:0:
259,62,42856,2,0,L|258:158,1,84.5,2|0,0:0|3:0,0:0:0:0:
165,158,43163,2,0,L|166:253,1,84.5,10|0,0:0|0:0,0:0:0:0:
387,213,43469,6,0,P|443:160|384:117,1,169,2|8,3:2|0:0,0:0:0:0:
171,117,44081,2,0,L|171:226,1,84.5,0|0,3:0|3:0,0:0:0:0:
263,201,44387,2,0,L|365:168,1,84.5,10|0,0:0|0:0,0:0:0:0:
123,198,44693,6,0,P|67:245|124:293,1,169,2|10,3:2|0:0,0:0:0:0:
217,292,45152,2,0,P|274:244|217:196,1,169,2|2,3:2|3:2,0:0:0:0:
123,199,45612,2,0,L|126:99,1,84.5,8|0,0:0|0:0,0:0:0:0:
344,214,45918,6,0,P|417:181|422:100,1,169,2|8,3:2|0:0,0:0:0:0:
284,112,46530,2,0,L|173:109,1,84.5,0|0,3:0|3:0,0:0:0:0:
293,199,46836,2,0,L|293:308,1,84.5,10|0,0:0|0:0,0:0:0:0:
73,293,47142,6,0,P|33:229|97:188,1,169,2|10,3:2|0:0,0:0:0:0:
190,190,47601,2,0,L|340:278,1,169,2|2,3:2|3:2,0:0:0:0:
246,302,48060,2,0,L|160:298,1,84.5,8|0,0:0|0:0,0:0:0:0:
382,260,48367,6,0,P|435:207|379:157,1,169,2|8,3:2|0:0,0:0:0:0:
286,163,48826,1,0,0:0:0:0:
438,158,48979,2,0,L|438:274,1,84.5,0|0,3:0|3:0,0:0:0:0:
336,242,49285,1,10,0:0:0:0:
437,242,49438,1,2,0:0:0:0:
217,77,49591,6,0,L|126:76,1,84.5,0|0,3:0|0:0,0:0:0:0:
217,149,49897,2,0,L|316:151,1,84.5,8|0,0:0|3:0,0:0:0:0:
183,278,50203,2,0,L|184:193,1,84.5,2|4,0:0|3:2,0:0:0:0:
269,186,50509,2,0,L|347:220,1,84.5,14|0,3:2|3:0,0:0:0:0:
126,58,50816,6,0,P|88:126|145:181,1,169,4|10,3:2|0:0,0:0:0:0:
269,181,51428,2,0,L|269:284,1,84.5,2|2,3:2|3:2,0:0:0:0:
171,263,51734,1,8,0:0:0:0:
391,263,51887,6,0,P|438:207|381:148,1,169,2|0,0:0|0:0,0:0:0:0:
229,221,52346,2,0,L|229:136,1,84.5,10|0,0:0|3:0,0:0:0:0:
322,140,52652,2,0,L|323:237,1,84.5,2|0,0:0|3:0,0:0:0:0:
171,224,52958,2,0,L|170:326,1,84.5,10|0,0:0|0:0,0:0:0:0:
393,308,53265,6,0,P|451:264|392:221,1,169,0|10,3:0|0:0,0:0:0:0:
176,152,53877,1,2,3:2:0:0:
268,152,54030,2,0,P|273:193|267:235,1,84.5,0|8,3:0|0:0,0:0:0:0:
175,249,54336,1,2,0:0:0:0:
397,225,54489,6,0,L|397:140,1,84.5,6|0,3:2|0:0,0:0:0:0:
307,133,54795,2,0,L|391:133,1,84.5,10|0,0:0|3:0,0:0:0:0:
242,81,55101,2,0,L|139:81,1,84.5,10|0,0:0|3:0,0:0:0:0:
200,81,55331,1,0,3:0:0:0:
242,81,55407,2,0,L|142:81,1,84.5,10|0,0:0|3:0,0:0:0:0:
378,80,55714,6,0,L|375:193,1,84.5,6|0,3:2|0:0,0:0:0:0:
282,172,56020,2,0,L|199:200,1,84.5,8|2,0:0|3:2,0:0:0:0:
350,189,56326,1,8,0:0:0:0:
434,189,56479,1,0,3:0:0:0:
434,273,56632,1,8,0:0:0:0:
349,270,56785,1,0,3:0:0:0:
129,285,56938,6,0,L|130:171,1,84.5,8|0,0:0|3:0,0:0:0:0:
214,199,57244,2,0,L|214:83,1,84.5,10|0,0:0|3:0,0:0:0:0:
79,113,57550,2,0,L|163:113,1,84.5,10|0,0:0|3:0,0:0:0:0:
298,115,57856,2,0,L|298:212,1,84.5,10|0,0:0|3:0,0:0:0:0:
76,199,58163,6,0,L|74:301,1,84.5,10|0,0:0|3:0,0:0:0:0:
167,285,58469,2,0,L|64:285,1,84.5,8|2,0:0|3:2,0:0:0:0:
229,284,58775,2,0,P|279:226|224:173,1,169,10|8,0:0|0:0,0:0:0:0:
140,174,59234,1,0,3:0:0:0:
360,80,59387,6,0,L|457:115,1,84.5,6|0,3:2|3:0,0:0:0:0:
302,193,59693,2,0,L|302:294,1,84.5,14|0,3:2|3:0,0:0:0:0:
344,278,59923,1,0,3:0:0:0:
386,279,59999,2,0,L|291:280,1,84.5,14|8,0:0|3:0,0:0:0:0:
149,280,60305,2,0,L|149:185,1,84.5,6|0,3:2|0:0,0:0:0:0:
369,176,60612,6,0,P|416:231|342:290,1,169,6|8,3:2|0:0,0:0:0:0:
276,291,61071,1,0,0:0:0:0:
123,292,61224,2,0,L|220:292,1,84.5,2|0,3:2|3:0,0:0:0:0:
291,292,61530,2,0,L|291:182,1,84.5,8|0,0:0|0:0,0:0:0:0:
71,205,61836,5,0,3:0:0:0:
233,286,62142,2,0,L|330:286,1,84.5,10|0,0:0|3:0,0:0:0:0:
317,201,62448,2,0,L|227:201,1,84.5,2|0,0:0|3:0,0:0:0:0:
90,201,62754,2,0,L|200:201,1,84.5,10|0,0:0|0:0,0:0:0:0:
394,201,63060,6,0,P|464:163|456:84,1,169,2|8,3:2|0:0,0:0:0:0:
371,78,63520,1,0,0:0:0:0:
234,128,63673,2,0,L|234:235,1,84.5,0|0,3:0|3:0,0:0:0:0:
324,213,63979,2,0,L|411:172,1,84.5,10|0,0:0|0:0,0:0:0:0:
182,228,64285,6,0,P|189:307|264:333,1,169,2|10,3:2|0:0,0:0:0:0:
364,322,64744,2,0,L|195:306,1,169,2|2,3:2|3:2,0:0:0:0:
281,244,65203,2,0,L|339:160,1,84.5,8|0,0:0|0:0,0:0:0:0:
106,235,65509,6,0,P|52:187|116:153,1,169,2|8,3:2|0:0,0:0:0:0:
378,210,66122,2,0,L|378:313,1,84.5,0|0,3:0|3:0,0:0:0:0:
281,295,66428,2,0,L|380:294,1,84.5,10|0,0:0|0:0,0:0:0:0:
144,289,66734,6,0,P|85:247|143:203,1,169,2|10,3:2|0:0,0:0:0:0:
238,197,67193,2,0,L|389:122,1,169,2|2,3:2|3:2,0:0:0:0:
296,53,67652,2,0,L|202:44,1,84.5,8|0,0:0|0:0,0:0:0:0:
432,179,67958,6,0,P|486:229|428:278,1,169,2|8,3:2|0:0,0:0:0:0:
172,211,68571,2,0,L|172:317,1,84.5,0|0,3:0|3:0,0:0:0:0:
264,289,68877,1,10,0:0:0:0:
172,295,69030,1,2,0:0:0:0:
394,212,69183,6,0,L|394:315,1,84.5,0|0,3:0|0:0,0:0:0:0:
307,319,69489,2,0,L|394:319,1,84.5,8|0,0:0|3:0,0:0:0:0:
272,139,69795,2,0,L|180:140,1,84.5,2|4,0:0|3:2,0:0:0:0:
340,184,70101,2,0,L|339:281,1,84.5,14|0,3:2|3:0,0:0:0:0:
118,98,70407,6,0,P|191:57|273:38,1,169,4|10,3:2|0:0,0:0:0:0:
95,223,71020,2,0,L|4:275,1,84.5,2|2,3:2|3:2,0:0:0:0:
95,223,71326,1,8,0:0:0:0:
329,222,71478,6,0,P|375:161|320:108,1,169,2|0,0:0|0:0,0:0:0:0:
168,108,71937,2,0,L|168:200,1,84.5,10|0,0:0|3:0,0:0:0:0:
261,193,72243,2,0,L|378:193,1,84.5,2|0,0:0|3:0,0:0:0:0:
200,305,72549,2,0,L|92:305,1,84.5,10|0,0:0|0:0,0:0:0:0:
337,214,72856,6,0,P|390:160|332:111,1,169,0|10,3:0|0:0,0:0:0:0:
147,102,73468,1,2,3:2:0:0:
240,99,73622,2,0,L|324:98,1,84.5,0|10,3:0|0:0,0:0:0:0:
232,100,73927,1,0,0:0:0:0:
453,196,74081,6,0,L|452:299,1,84.5,6|0,3:2|0:0,0:0:0:0:
359,281,74386,2,0,L|254:281,1,84.5,10|0,0:0|3:0,0:0:0:0:
396,273,74693,2,0,L|397:162,1,84.5,10|0,0:0|3:0,0:0:0:0:
354,188,74922,1,0,3:0:0:0:
312,188,74998,2,0,L|412:188,1,84.5,10|0,0:0|3:0,0:0:0:0:
174,187,75305,6,0,P|181:97|254:85,1,169,6|8,3:2|0:0,0:0:0:0:
414,87,75918,2,0,L|414:189,1,84.5,8|0,0:0|3:0,0:0:0:0:
323,191,76224,2,0,L|413:192,1,84.5,8|0,0:0|3:0,0:0:0:0:
186,340,76530,6,0,L|186:226,1,84.5,8|0,0:0|3:0,0:0:0:0:
277,255,76836,2,0,L|189:253,1,84.5,10|0,0:0|3:0,0:0:0:0:
100,230,77142,2,0,L|71:273,2,42.25,10|0|0,0:0|3:0|3:0,0:0:0:0:
244,191,77448,1,10,0:0:0:0:
286,191,77525,1,0,3:0:0:0:
327,191,77601,1,0,3:0:0:0:
106,99,77754,6,0,L|106:196,1,84.5,10|0,0:0|3:0,0:0:0:0:
198,171,78060,2,0,L|304:170,1,84.5,8|0,0:0|3:0,0:0:0:0:
376,171,78367,2,0,L|282:171,1,84.5,8|0,0:0|3:0,0:0:0:0:
164,248,78673,2,0,L|161:342,1,84.5,10|0,0:0|3:0,0:0:0:0:
383,136,78979,6,0,P|401:211|329:241,1,169,6|12,3:2|3:2,0:0:0:0:
237,84,79438,1,0,3:0:0:0:
288,84,79515,1,0,3:0:0:0:
338,84,79591,1,8,3:2:0:0:
245,193,79744,1,8,3:0:0:0:
152,196,79897,1,4,3:0:0:0:
245,193,80050,1,0,3:0:0:0:
465,84,80203,5,6,3:2:0:0:
256,192,80356,12,0,81122,0:0:0:0:
190,163,81428,6,0,L|189:227,3,42.25,12|0|0|10,3:2|3:0|3:0|3:2,0:0:0:0:
231,205,81734,1,10,3:2:0:0:
272,205,81810,1,0,3:0:0:0:
272,247,81887,1,0,3:0:0:0:
229,247,81964,1,10,3:2:0:0:
187,247,82040,5,10,3:2:0:0:
146,247,82116,1,0,3:0:0:0:
146,289,82193,1,0,3:0:0:0:
189,289,82270,1,10,3:2:0:0:
230,289,82346,2,0,L|289:289,1,42.25,10|0,3:2|3:0,0:0:0:0:
314,289,82499,1,0,3:0:0:0:
93,288,82652,6,0,P|50:224|107:172,1,169,6|8,3:2|0:0,0:0:0:0:
310,172,83265,2,0,L|310:276,1,84.5,0|0,3:0|3:0,0:0:0:0:
212,255,83571,1,10,0:0:0:0:
322,253,83877,1,0,3:0:0:0:
136,258,84183,6,0,L|135:157,1,84.5,10|0,0:0|3:0,0:0:0:0:
227,168,84489,2,0,L|228:274,1,84.5,2|0,0:0|3:0,0:0:0:0:
76,178,84795,2,0,L|78:81,1,84.5,10|0,0:0|0:0,0:0:0:0:
298,81,85101,6,0,P|361:125|289:164,1,169,2|8,3:2|0:0,0:0:0:0:
121,197,85714,2,0,L|222:197,1,84.5,0|0,3:0|3:0,0:0:0:0:
296,198,86020,2,0,L|296:97,1,84.5,10|0,0:0|0:0,0:0:0:0:
76,198,86326,6,0,P|55:273|126:306,1,169,4|8,3:2|0:0,0:0:0:0:
218,299,86785,1,0,3:0:0:0:
370,306,86938,2,0,L|368:204,1,84.5,10|0,0:0|3:0,0:0:0:0:
280,221,87244,2,0,L|178:192,1,84.5,4|0,3:0|0:0,0:0:0:0:
418,214,87550,6,0,P|466:153|413:96,1,169,6|8,3:2|0:0,0:0:0:0:
220,123,88163,2,0,L|221:216,1,84.5,0|0,3:0|3:0,0:0:0:0:
319,207,88469,1,10,0:0:0:0:
131,140,88775,6,0,P|91:205|154:249,1,169,2|8,3:2|0:0,0:0:0:0:
246,246,89234,1,0,3:0:0:0:
389,231,89387,2,0,L|215:170,1,169,2|8,0:0|0:0,0:0:0:0:
230,80,89846,1,0,0:0:0:0:
450,142,89999,6,0,P|464:219|396:259,1,169,2|8,3:2|0:0,0:0:0:0:
303,259,90458,1,0,3:0:0:0:
151,260,90612,2,0,L|151:167,1,84.5,0|2,0:0|3:2,0:0:0:0:
243,175,90918,1,10,0:0:0:0:
151,175,91071,1,2,0:0:0:0:
371,176,91224,6,0,L|371:276,1,84.5,6|0,3:2|0:0,0:0:0:0:
278,260,91530,2,0,L|171:220,1,84.5,10|0,3:2|3:0,0:0:0:0:
342,92,91836,2,0,L|244:94,1,84.5,10|0,3:2|3:0,0:0:0:0:
164,109,92142,2,0,P|153:152|166:198,1,84.5,2|4,3:2|3:0,0:0:0:0:
380,175,92448,6,0,P|432:139|374:75,1,169,6|8,3:2|0:0,0:0:0:0:
157,74,93060,2,0,L|229:116,1,84.5,0|0,3:0|3:0,0:0:0:0:
316,152,93367,1,10,0:0:0:0:
224,74,93673,5,0,3:0:0:0:
426,74,93979,2,0,L|426:176,1,84.5,10|0,0:0|3:0,0:0:0:0:
333,157,94285,2,0,L|236:156,1,84.5,2|0,0:0|3:0,0:0:0:0:
393,213,94591,2,0,L|392:312,1,84.5,10|0,0:0|0:0,0:0:0:0:
172,241,94897,6,0,P|117:189|172:139,1,169,2|8,3:2|0:0,0:0:0:0:
358,139,95509,2,0,L|263:138,1,84.5,0|0,3:0|3:0,0:0:0:0:
181,154,95816,2,0,P|172:195|185:235,1,84.5,10|0,0:0|0:0,0:0:0:0:
406,226,96122,6,0,P|461:172|405:113,1,169,6|8,3:2|3:2,0:0:0:0:
318,121,96581,1,0,3:0:0:0:
176,103,96734,2,0,L|260:102,1,84.5,10|0,3:2|3:0,0:0:0:0:
159,101,97040,2,0,P|146:141|153:183,1,84.5,4|0,3:0|0:0,0:0:0:0:
372,194,97346,6,0,P|419:254|359:300,1,169,6|8,3:2|0:0,0:0:0:0:
170,304,97958,2,0,L|170:194,1,84.5,0|0,3:0|3:0,0:0:0:0:
263,219,98265,2,0,L|347:220,1,84.5,10|0,0:0|0:0,0:0:0:0:
128,219,98571,6,0,P|72:180|132:88,1,169,2|8,3:2|0:0,0:0:0:0:
305,108,99183,2,0,L|306:220,1,84.5,2|0,0:0|3:0,0:0:0:0:
204,192,99489,2,0,L|202:289,1,84.5,8|0,0:0|0:0,0:0:0:0:
423,263,99795,6,0,P|478:208|416:157,1,169,6|8,3:2|0:0,0:0:0:0:
331,156,100254,2,0,L|271:156,1,42.25,0|0,3:0|3:0,0:0:0:0:
241,156,100407,2,0,L|242:257,1,84.5,8|0,0:0|3:0,0:0:0:0:
335,239,100714,2,0,L|420:204,1,84.5,2|2,3:2|3:2,0:0:0:0:
191,239,101020,5,6,3:2:0:0:
97,238,101173,2,0,P|54:172|104:110,1,169,10|6,3:2|3:2,0:0:0:0:
249,98,101632,2,0,L|76:161,1,169,10|6,3:2|3:2,0:0:0:0:
235,164,102091,6,0,L|398:235,1,169,10|6,3:2|3:2,0:0:0:0:
169,117,102550,1,10,3:2:0:0:
169,117,102856,1,8,3:2:0:0:
262,117,103009,1,8,3:0:0:0:
169,117,103163,1,4,3:0:0:0:
391,117,103316,5,14,3:2:0:0:
256,192,103469,12,0,109591,0:0:0:0:
