osu file format v14

[General]
AudioFilename: audio.mp3
AudioLeadIn: 0
PreviewTime: 39719
Countdown: 0
SampleSet: Soft
StackLeniency: 0.7
Mode: 2
LetterboxInBreaks: 0
WidescreenStoryboard: 1

[Editor]
DistanceSpacing: 1.3
BeatDivisor: 4
GridSize: 32
TimelineZoom: 3.699999

[Metadata]
Title:Koisuru MODE
TitleUnicode:恋するMODE
Artist:Rin'ca
ArtistUnicode:Rin'ca
Creator:-Joakh
Version:Delight
Source:D.C.4 〜ダ・カーポ4〜
Tags:DC4 Japanese JP Jpop J-pop pop Rinca yozuca* Nekusam Visual Novel VN Vocals Galgame 美少女ゲーム Video Game Circus D.C.4 ~Da Capo 4~ 2nd OP Second Opening 鷺澤有里栖 Sagisawa Arisu 常坂二乃 Tokisaka Nino 逢見諳子 Oumi Sorane 白河ひより Shirakawa Hiyori 鳳城詩名 Houjyou Shiina 美嶋未羽 Mishima Miu 日野原ちよ子 Hinohara Chiyoko Chatie Golo- Kegare- bigh bighzonda zonda 050 muya-
BeatmapID:3169439
BeatmapSetID:1550986

[Difficulty]
HPDrainRate:6
CircleSize:4.3
OverallDifficulty:9.4
ApproachRate:9.4
SliderMultiplier:2.1
SliderTickRate:2

[Events]
//Background and Video events
0,0,"BG2.jpg",0,0
//Break Periods
//Storyboard Layer 0 (Background)
//Storyboard Layer 1 (Fail)
//Storyboard Layer 2 (Pass)
//Storyboard Layer 3 (Foreground)
//Storyboard Layer 4 (Overlay)
//Storyboard Sound Samples

[TimingPoints]
612,306.122448979592,4,2,1,30,1,0
612,-100,4,2,1,30,0,0
4897,-100,4,2,1,50,0,0
5127,-100,4,2,1,5,0,0
5203,-100,4,2,1,60,0,0
5433,-100,4,2,1,5,0,0
5509,-100,4,2,1,70,0,0
8188,-100,4,2,1,5,0,0
8265,-100,4,2,1,70,0,0
9183,-100,4,2,1,75,0,0
10867,-100,4,2,1,25,0,0
11020,-100,4,2,1,20,0,0
11173,-100,4,2,1,15,0,0
11326,-100,4,2,1,10,0,0
11479,-100,4,2,1,5,0,0
11632,-100,4,2,1,65,0,0
20816,-100,4,2,1,70,0,0
21428,-100,4,2,1,75,0,0
23800,-100,4,2,1,5,0,0
23877,-100,4,2,1,75,0,0
27474,-100,4,2,1,5,0,0
27550,-100,4,2,1,75,0,0
28698,-100,4,2,1,5,0,0
28775,-100,4,2,1,75,0,0
31147,-100,4,2,1,5,0,0
31224,-100,4,2,1,60,0,0
35356,-100,4,2,1,70,0,0
35663,-100,4,2,1,50,0,0
35816,-100,4,2,1,70,0,0
36045,-100,4,2,1,5,0,0
36122,-100,4,2,1,75,0,1
36198,-100,4,2,1,75,0,0
37346,-100,4,2,1,75,0,1
37423,-100,4,2,1,75,0,0
38571,-90.9090909090909,4,2,1,75,0,1
39795,-100,4,2,3,70,0,0
39872,-100,4,2,1,70,0,0
40407,-100,4,2,1,75,0,0
41020,-90.9090909090909,4,2,1,80,0,1
44923,-90.9090909090909,4,2,1,5,0,1
44999,-90.9090909090909,4,2,1,80,0,1
45841,-90.9090909090909,4,2,1,5,0,1
45918,-90.9090909090909,4,2,1,80,0,1
47066,-90.9090909090909,4,2,1,5,0,1
47142,-90.9090909090909,4,2,1,80,0,1
48290,-90.9090909090909,4,2,1,5,0,1
48367,-90.9090909090909,4,2,1,80,0,1
49821,-90.9090909090909,4,2,1,5,0,1
49897,-90.9090909090909,4,2,1,80,0,1
50433,-90.9090909090909,4,2,1,5,0,1
50509,-90.9090909090909,4,2,1,80,0,1
53494,-90.9090909090909,4,2,1,5,0,1
53571,-90.9090909090909,4,2,1,80,0,1
55637,-90.9090909090909,4,2,1,5,0,1
55714,-90.9090909090909,4,2,1,80,0,1
60535,-90.9090909090909,4,2,1,5,0,0
60612,-90.9090909090909,4,2,1,80,0,1
64515,-90.9090909090909,4,2,1,5,0,1
64591,-90.9090909090909,4,2,1,80,0,1
65433,-90.9090909090909,4,2,1,5,0,1
65509,-90.9090909090909,4,2,1,80,0,1
66657,-90.9090909090909,4,2,1,5,0,1
66734,-90.9090909090909,4,2,1,80,0,1
67882,-90.9090909090909,4,2,1,5,0,1
67958,-90.9090909090909,4,2,1,80,0,1
69413,-90.9090909090909,4,2,1,5,0,1
69489,-90.9090909090909,4,2,1,80,0,1
73086,-90.9090909090909,4,2,1,5,0,1
73163,-90.9090909090909,4,2,1,80,0,1
74310,-90.9090909090909,4,2,1,5,0,1
74387,-90.9090909090909,4,2,1,80,0,1
80127,-90.9090909090909,4,2,1,5,0,1
80203,-100,4,2,5,70,0,0
80280,-100,4,2,1,70,0,0
81351,-100,4,2,1,5,0,0
81428,-90.9090909090909,4,2,1,75,0,1
82652,-100,4,2,1,70,0,0
86020,-90.9090909090909,4,2,1,70,0,0
86249,-90.9090909090909,4,2,1,5,0,0
86326,-100,4,2,1,70,0,0
87244,-90.9090909090909,4,2,1,70,0,0
87474,-100,4,2,1,5,0,0
87550,-100,4,2,1,70,0,0
88469,-90.9090909090909,4,2,1,70,0,0
88698,-100,4,2,1,5,0,0
88775,-100,4,2,1,70,0,0
89693,-90.9090909090909,4,2,1,70,0,0
89923,-90.9090909090909,4,2,1,5,0,0
89999,-100,4,2,1,70,0,0
91224,-90.9090909090909,4,2,1,70,0,0
91453,-90.9090909090909,4,2,1,5,0,0
91530,-100,4,2,1,70,0,0
95816,-90.9090909090909,4,2,1,70,0,0
96045,-90.9090909090909,4,2,1,5,0,0
96122,-100,4,2,1,70,0,0
97040,-90.9090909090909,4,2,1,70,0,0
97270,-90.9090909090909,4,2,1,5,0,0
97346,-100,4,2,1,70,0,0
98265,-90.9090909090909,4,2,1,70,0,0
98494,-90.9090909090909,4,2,1,5,0,0
98571,-100,4,2,1,70,0,0
99489,-90.9090909090909,4,2,1,70,0,0
99719,-90.9090909090909,4,2,1,5,0,0
99795,-100,4,2,1,70,0,0
101020,-100,4,2,1,75,0,0
103316,-100,4,2,1,80,0,0
103469,-100,4,2,1,70,0,0
103775,-100,4,2,1,65,0,0
104081,-100,4,2,1,60,0,0
104387,-100,4,2,1,55,0,0
104693,-100,4,2,1,50,0,0
104999,-100,4,2,1,45,0,0
105305,-100,4,2,1,40,0,0
105612,-100,4,2,1,35,0,0
105918,-100,4,2,1,30,0,0
106224,-100,4,2,1,25,0,0
106530,-100,4,2,1,20,0,0
106836,-100,4,2,1,15,0,0
107142,-100,4,2,1,10,0,0
107448,-100,4,2,1,5,0,0

[Colours]
Combo1 : 191,191,191
Combo2 : 199,141,141
Combo3 : 164,129,182
Combo4 : 255,224,168

[HitObjects]
184,261,612,5,2,0:0:0:0:
70,231,765,1,0,0:0:0:0:
184,261,918,1,2,0:0:0:0:
331,256,1071,2,0,P|441:178|330:102,1,315,2|2,0:0|0:0,0:0:0:0:
120,110,1836,5,0,0:0:0:0:
348,106,2142,2,0,P|247:126|178:203,2,210,2|2|2,0:0|0:0|0:0,0:0:0:0:
170,278,3060,5,2,0:0:0:0:
286,272,3214,1,0,0:0:0:0:
401,267,3367,1,2,0:0:0:0:
253,234,3520,2,0,P|111:192|103:44,1,315,2|2,0:0|0:0,0:0:0:0:
312,47,4285,5,2,0:0:0:0:
186,49,4438,1,0,0:0:0:0:
312,47,4591,1,2,0:0:0:0:
437,50,4744,2,0,L|384:50,1,52.5
310,56,4897,2,0,P|236:66|218:138,1,157.5,0|0,3:0|0:0,0:0:0:0:
421,182,5203,2,0,P|474:224|420:266,1,157.5,8|0,3:2|0:0,0:0:0:0:
232,264,5509,6,0,L|120:263,1,105,6|0,3:2|0:0,0:0:0:0:
273,257,5816,1,0,3:0:0:0:
126,215,5969,2,0,P|108:166|124:117,1,105,2|0,0:0|3:0,0:0:0:0:
270,113,6275,1,0,0:0:0:0:
123,109,6428,2,0,L|238:102,1,105,2|0,3:2|0:0,0:0:0:0:
454,89,6734,6,0,P|469:138|456:188,1,105,2|0,3:2|0:0,0:0:0:0:
309,198,7040,2,0,L|443:183,1,105,0|0,3:0|0:0,0:0:0:0:
174,129,7346,2,0,L|174:236,1,105,2|0,3:2|0:0,0:0:0:0:
325,221,7652,2,0,P|345:267|326:315,1,105,0|0,3:0|0:0,0:0:0:0:
108,337,7958,6,0,P|101:263|169:236,1,157.5,6|0,3:2|0:0,0:0:0:0:
336,229,8265,2,0,L|454:227,1,105,8|0,0:0|3:0,0:0:0:0:
373,229,8494,1,0,3:0:0:0:
176,211,8571,1,8,3:2:0:0:
312,221,8724,1,8,3:0:0:0:
176,211,8877,1,4,3:0:0:0:
394,151,9030,1,2,3:2:0:0:
132,103,9183,5,6,3:2:0:0:
353,91,9336,2,0,P|405:86|457:87,1,105,10|0,3:2|3:0,0:0:0:0:
210,163,9642,1,6,3:2:0:0:
440,167,9795,2,0,P|477:202|486:253,1,105,10|0,3:2|3:0,0:0:0:0:
213,287,10101,5,6,3:2:0:0:
463,188,10254,2,0,P|484:239|465:288,1,105,10|0,3:2|3:0,0:0:0:0:
193,239,10560,1,6,3:2:0:0:
488,129,10714,5,10,3:2:0:0:
256,192,10867,12,0,11479,0:0:0:0:
242,137,11632,6,0,P|151:171|161:268,1,210,6|0,3:2|3:0,0:0:0:0:
287,271,12091,1,0,0:0:0:0:
161,279,12244,2,0,P|146:230|161:180,1,105,0|0,3:0|0:0,0:0:0:0:
287,178,12550,2,0,P|298:128|285:77,1,105,2|0,3:2|0:0,0:0:0:0:
117,96,12856,6,0,P|213:57|316:65,1,210,2|0,3:2|3:0,0:0:0:0:
317,213,13316,1,2,0:0:0:0:
191,216,13469,1,0,3:0:0:0:
317,213,13622,2,0,P|331:164|318:113,1,105,2|0,0:0|3:0,0:0:0:0:
191,111,13928,1,0,0:0:0:0:
359,106,14081,6,0,P|432:159|358:212,1,210,2|0,3:2|3:0,0:0:0:0:
223,215,14540,1,0,0:0:0:0:
359,212,14693,2,0,P|373:261|359:311,1,105,0|0,3:0|0:0,0:0:0:0:
191,317,14999,6,0,L|79:316,1,105,2|0,3:2|0:0,0:0:0:0:
212,258,15305,2,0,P|227:208|213:158,1,105,2|0,3:2|0:0,0:0:0:0:
86,165,15612,2,0,P|74:115|87:65,1,105,2|0,3:2|0:0,0:0:0:0:
255,62,15918,2,0,L|367:62,1,105,2|0,3:2|0:0,0:0:0:0:
234,75,16224,2,0,P|222:125|235:175,1,105,2|0,3:2|0:0,0:0:0:0:
403,206,16530,6,0,P|394:305|301:338,1,210,0|0,3:0|3:0,0:0:0:0:
174,325,16989,1,0,0:0:0:0:
300,320,17142,2,0,L|410:311,1,105,0|0,3:0|0:0,0:0:0:0:
268,273,17448,2,0,P|256:223|268:173,1,105,2|0,3:2|0:0,0:0:0:0:
436,147,17754,6,0,P|338:112|234:111,1,210,2|2,3:2|3:2,0:0:0:0:
359,110,18214,1,2,0:0:0:0:
235,123,18367,2,0,P|216:170|235:218,1,105,0|0,3:0|0:0,0:0:0:0:
361,218,18673,2,0,P|365:270|359:322,1,105,2|0,3:2|0:0,0:0:0:0:
191,336,18979,6,0,P|115:291|190:246,1,210,2|0,3:2|3:0,0:0:0:0:
314,247,19438,1,0,0:0:0:0:
188,245,19591,2,0,P|179:193|187:142,1,105,0|0,3:0|0:0,0:0:0:0:
312,131,19897,2,0,L|430:130,1,105,2|0,3:2|0:0,0:0:0:0:
243,193,20203,6,0,L|138:193,1,105,2|0,3:2|0:0,0:0:0:0:
276,146,20509,1,2,3:2:0:0:
140,149,20663,1,2,0:0:0:0:
353,71,20816,1,0,3:0:0:0:
216,74,20969,1,8,3:0:0:0:
454,66,21122,1,10,3:2:0:0:
216,74,21275,2,0,L|272:73,1,52.5,8|8,3:2|3:2,0:0:0:0:
456,189,21428,6,0,P|352:172|248:183,1,210,6|8,3:2|0:0,0:0:0:0:
112,189,21887,1,0,0:0:0:0:
248,179,22040,2,0,P|263:228|247:277,1,105,0|0,0:0|3:0,0:0:0:0:
110,282,22346,2,0,P|102:231|112:180,1,105,10|0,0:0|0:0,0:0:0:0:
271,182,22652,6,0,P|365:152|365:54,1,210,2|8,3:2|0:0,0:0:0:0:
228,62,23112,1,2,0:0:0:0:
365,54,23265,2,0,P|378:104|365:154,1,105,0|2,0:0|3:2,0:0:0:0:
218,172,23571,2,0,P|148:196|148:270,1,157.5,8|0,0:0|0:0,0:0:0:0:
322,209,23877,6,0,P|395:262|322:315,1,210,2|8,3:2|0:0,0:0:0:0:
186,301,24336,1,0,0:0:0:0:
322,304,24489,2,0,L|210:296,1,105,0|0,0:0|3:0,0:0:0:0:
60,300,24795,2,0,P|40:254|62:209,1,105,10|0,0:0|0:0,0:0:0:0:
286,197,25101,6,0,L|390:196,1,105,2|0,3:2|0:0,0:0:0:0:
254,95,25407,2,0,L|149:93,1,105,10|0,0:0|0:0,0:0:0:0:
313,171,25714,2,0,P|324:221|315:273,1,105,2|0,0:0|3:0,0:0:0:0:
178,274,26020,2,0,P|168:223|178:172,1,105,10|0,0:0|0:0,0:0:0:0:
400,148,26326,6,0,P|298:125|193:123,1,210,0|8,3:0|0:0,0:0:0:0:
193,269,26785,1,0,0:0:0:0:
329,272,26938,1,0,0:0:0:0:
193,269,27091,1,0,3:0:0:0:
404,129,27244,2,0,P|458:169|401:205,1,157.5,10|0,0:0|0:0,0:0:0:0:
195,217,27550,6,0,P|296:194|400:204,1,210,2|10,3:2|0:0,0:0:0:0:
265,188,28009,2,0,P|249:237|265:286,1,105,2|0,0:0|0:0,0:0:0:0:
392,177,28316,1,2,3:2:0:0:
150,195,28469,2,0,P|94:234|147:276,1,157.5,8|0,0:0|0:0,0:0:0:0:
367,289,28775,6,0,P|270:249|168:262,1,210,2|8,3:2|0:0,0:0:0:0:
167,115,29234,1,0,0:0:0:0:
379,140,29387,2,0,L|269:155,1,105,2|0,0:0|3:0,0:0:0:0:
138,168,29693,2,0,P|129:117|139:66,1,105,8|0,0:0|0:0,0:0:0:0:
349,49,29999,6,0,L|474:48,1,105,6|0,3:2|3:0,0:0:0:0:
233,243,30305,2,0,L|128:244,1,105,8|2,0:0|3:2,0:0:0:0:
191,243,30535,1,0,3:0:0:0:
364,223,30612,1,10,3:2:0:0:
228,226,30765,1,8,3:0:0:0:
439,178,30918,2,0,P|496:204|439:231,1,157.5,4|0,3:0|0:0,0:0:0:0:
225,202,31224,6,0,P|151:153|225:104,1,210,4|0,3:2|1:0,0:0:0:0:
351,103,31683,1,2,0:0:0:0:
224,97,31836,1,0,1:0:0:0:
98,96,31989,1,0,0:0:0:0:
225,110,32142,2,0,P|236:160|225:211,1,105,2|0,1:2|3:0,0:0:0:0:
52,257,32448,6,0,P|56:355|150:383,1,210,2|0,1:2|1:0,0:0:0:0:
276,379,32907,1,2,0:0:0:0:
401,378,33060,1,0,1:0:0:0:
276,379,33214,1,0,0:0:0:0:
150,274,33367,2,0,P|131:226|150:178,1,105,2|0,1:2|3:0,0:0:0:0:
318,180,33673,6,0,P|392:131|318:83,1,210,2|0,1:2|1:0,0:0:0:0:
191,93,34132,1,2,0:0:0:0:
317,83,34285,1,0,1:0:0:0:
191,93,34438,1,0,0:0:0:0:
317,83,34591,2,0,P|332:132|317:182,1,105,2|0,1:2|3:0,0:0:0:0:
146,250,34897,6,0,P|152:152|247:127,1,210,0|0,3:0|0:0,0:0:0:0:
394,127,35356,2,0,L|323:113,1,52.5,0|8,3:0|3:2,0:0:0:0:
181,115,35509,1,10,3:2:0:0:
318,112,35663,1,12,3:2:0:0:
82,174,35816,2,0,P|26:213|85:246,1,157.5,10|0,3:2|0:0,0:0:0:0:
326,240,36122,5,14,3:2:0:0:
200,238,36275,1,0,0:0:0:0:
74,239,36428,1,10,3:2:0:0:
310,119,36581,1,14,3:2:0:0:
179,158,36734,1,0,0:0:0:0:
310,119,36887,1,0,3:0:0:0:
88,73,37040,1,14,3:2:0:0:
325,59,37193,2,0,L|250:53,1,52.5,0|0,3:0|3:0,0:0:0:0:
60,255,37346,5,14,3:2:0:0:
185,250,37499,1,0,0:0:0:0:
310,244,37652,1,10,3:2:0:0:
57,146,37805,1,14,3:2:0:0:
194,140,37958,1,0,0:0:0:0:
331,135,38112,1,0,3:0:0:0:
101,35,38265,1,14,3:2:0:0:
326,32,38418,1,0,3:0:0:0:
92,201,38571,5,4,3:2:0:0:
24,187,38647,1,0,3:0:0:0:
35,118,38724,1,0,3:0:0:0:
102,104,38800,1,8,3:2:0:0:
276,142,38877,2,0,L|281:84,1,57.7500017623902,8|0,3:2|3:0,0:0:0:0:
211,87,39030,2,0,L|202:25,1,57.7500017623902,0|8,3:0|3:2,0:0:0:0:
377,225,39183,6,0,L|434:224,1,57.7500017623902,8|0,3:2|3:0,0:0:0:0:
260,161,39336,2,0,L|189:160,1,57.7500017623902,0|8,3:0|3:2,0:0:0:0:
391,108,39489,2,0,L|457:104,1,57.7500017623902,8|0,3:2|3:0,0:0:0:0:
261,77,39642,2,0,L|193:75,1,57.7500017623902,0|8,3:0|3:2,0:0:0:0:
380,139,39795,6,0,P|371:238|277:271,1,210,14|2,3:2|0:0,0:0:0:0:
216,253,40178,1,0,0:0:0:0:
227,191,40254,1,0,0:0:0:0:
290,189,40331,1,0,0:0:0:0:
440,193,40407,6,0,P|465:236|440:282,1,105,6|0,3:2|3:0,0:0:0:0:
378,283,40637,1,0,3:0:0:0:
199,288,40714,1,10,3:2:0:0:
408,282,40867,2,0,L|344:281,1,52.5,0|0,3:0|3:0,0:0:0:0:
104,289,41020,6,0,P|23:230|103:171,1,231.000007049561,6|8,3:2|0:0,0:0:0:0:
240,172,41479,1,0,0:0:0:0:
24,76,41632,2,0,L|145:76,1,115.50000352478,2|0,3:2|3:0,0:0:0:0:
299,68,41938,2,0,P|320:119|299:171,1,115.50000352478,8|0,0:0|0:0,0:0:0:0:
81,180,42244,6,0,P|63:233|78:288,1,115.50000352478,0|0,3:0|0:0,0:0:0:0:
234,289,42550,2,0,L|357:286,1,115.50000352478,10|0,0:0|3:0,0:0:0:0:
121,177,42856,2,0,P|103:122|123:65,1,115.50000352478,2|0,0:0|3:0,0:0:0:0:
383,54,43163,2,0,P|397:109|384:164,1,115.50000352478,10|0,0:0|0:0,0:0:0:0:
123,195,43469,6,0,P|235:173|349:188,1,231.000007049561,2|8,3:2|0:0,0:0:0:0:
234,181,43928,1,0,0:0:0:0:
372,183,44081,2,0,P|390:236|373:291,1,115.50000352478,0|0,3:0|3:0,0:0:0:0:
153,250,44387,2,0,L|277:244,1,115.50000352478,10|0,0:0|0:0,0:0:0:0:
46,214,44693,6,0,P|45:294|124:310,1,173.250005287171,2|0,3:2|0:0,0:0:0:0:
330,284,44999,1,10,0:0:0:0:
191,288,45152,2,0,P|167:237|191:186,1,115.50000352478,2|0,3:2|0:0,0:0:0:0:
413,183,45458,1,2,3:2:0:0:
172,151,45612,2,0,P|111:189|174:223,1,173.250005287171,8|0,0:0|0:0,0:0:0:0:
341,361,45918,6,0,P|352:254|252:216,1,231.000007049561,2|8,3:2|0:0,0:0:0:0:
124,217,46377,1,0,0:0:0:0:
251,216,46530,1,0,3:0:0:0:
124,217,46683,1,0,3:0:0:0:
365,196,46836,2,0,P|425:239|365:282,1,173.250005287171,10|0,0:0|0:0,0:0:0:0:
184,288,47142,6,0,L|58:290,1,115.50000352478,2|0,3:2|0:0,0:0:0:0:
300,211,47448,1,10,0:0:0:0:
66,234,47601,2,0,P|54:179|67:123,1,115.50000352478,2|0,3:2|0:0,0:0:0:0:
306,119,47907,1,2,3:2:0:0:
72,104,48060,2,0,P|79:185|160:199,1,173.250005287171,8|0,0:0|0:0,0:0:0:0:
372,170,48367,6,0,P|455:214|373:261,1,231.000007049561,2|8,3:2|0:0,0:0:0:0:
244,269,48826,1,0,0:0:0:0:
371,260,48979,2,0,P|378:202|371:145,1,115.50000352478,0|0,3:0|3:0,0:0:0:0:
134,163,49285,1,10,0:0:0:0:
371,145,49438,1,2,0:0:0:0:
102,188,49591,6,0,P|47:239|111:278,1,173.250005287171,0|0,3:0|0:0,0:0:0:0:
314,255,49897,1,8,0:0:0:0:
179,252,50050,1,0,3:0:0:0:
418,204,50203,2,0,P|476:157|415:113,1,173.250005287171,2|0,0:0|0:0,0:0:0:0:
210,125,50509,2,0,L|152:125,1,57.7500017623902,14|0,3:2|3:0,0:0:0:0:
349,73,50663,2,0,L|406:69,1,57.7500017623902,0|0,3:0|3:0,0:0:0:0:
185,172,50816,6,0,P|82:205|106:311,1,231.000007049561,4|10,3:2|0:0,0:0:0:0:
250,306,51275,1,0,0:0:0:0:
23,74,51428,2,0,L|138:69,1,115.50000352478,2|2,3:2|3:2,0:0:0:0:
299,58,51734,2,0,P|317:112|301:167,1,115.50000352478,8|2,0:0|0:0,0:0:0:0:
58,167,52040,6,0,L|178:165,1,115.50000352478,0|0,3:0|0:0,0:0:0:0:
411,126,52346,2,0,L|413:246,1,115.50000352478,10|0,0:0|3:0,0:0:0:0:
178,242,52652,2,0,P|163:297|174:353,1,115.50000352478,2|0,0:0|3:0,0:0:0:0:
481,342,52958,2,0,L|349:343,1,115.50000352478,10|0,0:0|0:0,0:0:0:0:
139,344,53265,6,0,P|147:262|224:236,1,173.250005287171,0|0,3:0|0:0,0:0:0:0:
400,237,53571,2,0,P|408:180|397:123,1,115.50000352478,10|0,0:0|0:0,0:0:0:0:
168,135,53877,1,2,3:2:0:0:
397,123,54030,1,0,3:0:0:0:
167,194,54183,2,0,L|42:195,1,115.50000352478,8|2,0:0|0:0,0:0:0:0:
344,74,54489,6,0,P|375:120|344:166,1,115.50000352478,6|0,3:2|0:0,0:0:0:0:
92,184,54795,2,0,L|91:299,1,115.50000352478,10|0,0:0|3:0,0:0:0:0:
322,296,55101,1,10,0:0:0:0:
91,296,55254,2,0,L|155:296,1,57.7500017623902,0|0,3:0|3:0,0:0:0:0:
366,242,55407,2,0,P|428:206|367:168,1,173.250005287171,10|0,0:0|0:0,0:0:0:0:
185,183,55714,6,0,L|67:178,1,115.50000352478,6|0,3:2|0:0,0:0:0:0:
314,69,56020,2,0,L|182:66,1,115.50000352478,8|2,0:0|3:2,0:0:0:0:
433,127,56326,2,0,P|443:183|437:240,1,115.50000352478,8|0,0:0|3:0,0:0:0:0:
103,173,56632,2,0,P|90:228|104:286,1,115.50000352478,8|0,0:0|3:0,0:0:0:0:
173,284,56862,1,0,3:0:0:0:
365,272,56938,6,0,L|496:271,1,115.50000352478,8|0,0:0|3:0,0:0:0:0:
235,186,57244,2,0,P|223:130|234:74,1,115.50000352478,10|0,0:0|3:0,0:0:0:0:
469,80,57550,1,10,0:0:0:0:
234,74,57703,1,0,3:0:0:0:
474,140,57856,2,0,P|490:194|473:249,1,115.50000352478,10|0,0:0|3:0,0:0:0:0:
404,257,58086,1,0,3:0:0:0:
198,263,58163,6,0,L|82:260,1,115.50000352478,10|0,0:0|3:0,0:0:0:0:
382,112,58469,2,0,P|399:166|379:219,1,115.50000352478,8|2,0:0|3:2,0:0:0:0:
144,219,58775,1,10,0:0:0:0:
379,219,58928,1,0,3:0:0:0:
146,142,59081,2,0,L|11:142,1,115.50000352478,8|0,0:0|3:0,0:0:0:0:
87,142,59310,1,0,3:0:0:0:
344,127,59387,5,6,3:2:0:0:
99,139,59540,1,0,3:0:0:0:
344,127,59693,2,0,L|272:128,1,57.7500017623902,14|0,3:2|3:0,0:0:0:0:
92,75,59846,2,0,L|158:75,1,57.7500017623902,0|0,3:0|3:0,0:0:0:0:
357,41,59999,2,0,L|481:40,1,115.50000352478,14|8,0:0|3:0,0:0:0:0:
179,141,60305,2,0,P|104:171|105:253,1,173.250005287171,6|0,3:2|0:0,0:0:0:0:
377,280,60612,6,0,P|262:271|147:285,1,231.000007049561,6|8,3:2|0:0,0:0:0:0:
273,270,61071,1,0,0:0:0:0:
135,289,61224,2,0,P|125:233|136:177,1,115.50000352478,2|0,3:2|3:0,0:0:0:0:
269,168,61530,2,0,L|126:169,1,115.50000352478,8|0,0:0|0:0,0:0:0:0:
400,169,61836,6,0,P|412:224|399:280,1,115.50000352478,0|0,3:0|0:0,0:0:0:0:
237,288,62142,2,0,L|121:288,1,115.50000352478,10|0,0:0|3:0,0:0:0:0:
362,96,62448,2,0,L|477:96,1,115.50000352478,2|0,0:0|3:0,0:0:0:0:
232,34,62754,2,0,L|347:34,1,115.50000352478,10|0,0:0|0:0,0:0:0:0:
119,167,63060,6,0,P|123:276|226:312,1,231.000007049561,2|8,3:2|0:0,0:0:0:0:
353,311,63520,1,0,0:0:0:0:
225,312,63673,1,0,3:0:0:0:
353,311,63826,1,0,3:0:0:0:
109,286,63979,2,0,P|99:229|106:172,1,115.50000352478,10|0,0:0|0:0,0:0:0:0:
361,135,64285,6,0,P|421:176|358:214,1,173.250005287171,2|0,3:2|0:0,0:0:0:0:
168,221,64591,1,10,0:0:0:0:
309,220,64744,2,0,P|331:271|307:321,1,115.50000352478,2|0,3:2|0:0,0:0:0:0:
75,334,65050,1,2,3:2:0:0:
304,327,65203,2,0,P|388:311|457:260,1,173.250005287171,8|0,0:0|0:0,0:0:0:0:
208,147,65509,6,0,P|108:192|106:301,1,231.000007049561,2|8,3:2|0:0,0:0:0:0:
257,302,65969,1,0,0:0:0:0:
105,299,66122,2,0,P|91:244|105:189,1,115.50000352478,0|0,3:0|3:0,0:0:0:0:
365,141,66428,2,0,P|425:182|363:221,1,173.250005287171,10|0,0:0|0:0,0:0:0:0:
157,220,66734,6,0,L|19:221,1,115.50000352478,2|0,3:2|0:0,0:0:0:0:
284,197,67040,1,10,0:0:0:0:
41,63,67193,2,0,L|156:62,1,115.50000352478,2|0,3:2|0:0,0:0:0:0:
391,58,67499,1,2,3:2:0:0:
146,114,67652,2,0,P|84:153|145:193,1,173.250005287171,8|0,0:0|0:0,0:0:0:0:
375,193,67958,6,0,P|456:251|375:309,1,231.000007049561,2|8,3:2|0:0,0:0:0:0:
248,314,68418,1,0,0:0:0:0:
375,309,68571,2,0,P|388:253|375:197,1,115.50000352478,0|0,3:0|3:0,0:0:0:0:
140,207,68877,1,10,0:0:0:0:
375,197,69030,1,2,0:0:0:0:
131,205,69183,6,0,P|72:149|149:125,1,173.250005287171,0|0,3:0|0:0,0:0:0:0:
331,98,69489,1,8,0:0:0:0:
469,98,69642,1,0,3:0:0:0:
206,185,69795,2,0,L|87:184,1,115.50000352478,2|4,0:0|3:2,0:0:0:0:
331,284,70101,2,0,L|388:281,1,57.7500017623902,14|0,3:2|3:0,0:0:0:0:
200,213,70254,2,0,L|127:216,1,57.7500017623902,0|0,3:0|3:0,0:0:0:0:
396,149,70407,6,0,P|476:207|396:265,1,231.000007049561,4|10,3:2|0:0,0:0:0:0:
244,275,70867,1,0,0:0:0:0:
486,43,71020,2,0,L|370:43,1,115.50000352478,2|2,3:2|3:2,0:0:0:0:
208,46,71326,2,0,P|194:102|211:157,1,115.50000352478,8|2,0:0|0:0,0:0:0:0:
455,171,71632,6,0,L|455:290,1,115.50000352478,0|0,3:0|0:0,0:0:0:0:
222,281,71938,2,0,L|85:283,1,115.50000352478,10|0,0:0|3:0,0:0:0:0:
260,132,72244,2,0,L|380:127,1,115.50000352478,2|0,0:0|3:0,0:0:0:0:
123,68,72550,2,0,L|124:197,1,115.50000352478,10|0,0:0|0:0,0:0:0:0:
373,212,72856,6,0,P|430:262|374:314,1,173.250005287171,0|0,3:0|0:0,0:0:0:0:
155,317,73163,2,0,L|39:314,1,115.50000352478,10|0,0:0|0:0,0:0:0:0:
277,193,73469,1,2,3:2:0:0:
39,210,73622,1,0,3:0:0:0:
278,104,73775,2,0,L|393:103,1,115.50000352478,10|0,0:0|0:0,0:0:0:0:
146,167,74081,6,0,P|87:213|147:257,1,173.250005287171,6|0,3:2|0:0,0:0:0:0:
350,247,74387,2,0,L|469:243,1,115.50000352478,10|0,0:0|3:0,0:0:0:0:
232,99,74693,2,0,L|93:99,1,115.50000352478,10|0,0:0|3:0,0:0:0:0:
180,97,74923,1,0,3:0:0:0:
423,93,74999,1,10,0:0:0:0:
180,97,75152,1,0,3:0:0:0:
432,153,75305,6,0,P|446:208|433:264,1,115.50000352478,6|0,3:2|0:0,0:0:0:0:
130,277,75612,2,0,P|120:221|130:165,1,115.50000352478,8|2,0:0|3:2,0:0:0:0:
366,156,75918,2,0,L|481:155,1,115.50000352478,8|0,0:0|3:0,0:0:0:0:
220,109,76224,2,0,L|97:109,1,115.50000352478,8|0,0:0|3:0,0:0:0:0:
167,109,76453,1,0,3:0:0:0:
384,183,76530,6,0,P|401:236|383:290,1,115.50000352478,8|0,0:0|3:0,0:0:0:0:
72,169,76836,2,0,L|187:167,1,115.50000352478,10|0,0:0|3:0,0:0:0:0:
421,126,77142,2,0,L|345:127,1,57.7500017623902,10|0,0:0|3:0,0:0:0:0:
180,124,77295,1,0,3:0:0:0:
415,65,77448,2,0,L|351:65,1,57.7500017623902,10|0,0:0|3:0,0:0:0:0:
189,65,77601,2,0,L|131:64,1,57.7500017623902,0|0,3:0|3:0,0:0:0:0:
359,150,77754,6,0,L|487:146,1,115.50000352478,10|0,0:0|3:0,0:0:0:0:
249,274,78060,2,0,L|374:272,1,115.50000352478,8|0,0:0|3:0,0:0:0:0:
116,213,78367,2,0,P|103:156|114:100,1,115.50000352478,8|0,0:0|3:0,0:0:0:0:
360,80,78673,1,10,0:0:0:0:
116,78,78826,2,0,L|174:78,1,57.7500017623902,0|0,3:0|3:0,0:0:0:0:
360,80,78979,5,6,3:2:0:0:
116,78,79132,1,0,3:0:0:0:
370,178,79285,2,0,L|497:179,1,115.50000352478,12|0,3:2|3:0,0:0:0:0:
421,177,79515,1,0,3:0:0:0:
202,181,79591,1,8,3:2:0:0:
352,179,79744,1,8,3:0:0:0:
77,234,79897,2,0,P|23:287|86:328,1,173.250005287171,4|0,3:0|0:0,0:0:0:0:
297,160,80203,6,0,B|303:123|349:74|417:71|489:128|490:205|421:274|382:222|346:330|346:330|264:242|246:295|177:257|152:182|198:115|239:97|309:119,1,787.5,6|0,3:2|0:0,0:0:0:0:
478,76,81428,6,0,L|418:73,1,57.7500017623902,12|0,3:2|3:0,0:0:0:0:
231,69,81581,2,0,L|164:68,1,57.7500017623902,0|10,3:0|3:2,0:0:0:0:
353,174,81734,1,10,3:2:0:0:
413,185,81810,1,0,3:0:0:0:
442,239,81887,1,0,3:0:0:0:
417,295,81963,1,10,3:2:0:0:
253,292,82040,6,0,L|189:292,1,57.7500017623902,10|0,3:2|3:0,0:0:0:0:
370,116,82193,2,0,L|429:114,1,57.7500017623902,0|10,3:0|3:2,0:0:0:0:
220,231,82346,2,0,L|156:231,1,57.7500017623902,10|0,3:2|3:0,0:0:0:0:
404,53,82499,2,0,L|461:54,1,57.7500017623902,0|10,3:0|3:2,0:0:0:0:
191,61,82652,6,0,P|115:106|187:156,1,210,6|8,3:2|0:0,0:0:0:0:
335,148,83112,1,2,0:0:0:0:
90,138,83265,2,0,P|80:189|89:240,1,105,0|0,3:0|3:0,0:0:0:0:
236,234,83571,2,0,L|104:231,1,105,10|0,0:0|0:0,0:0:0:0:
389,161,83877,5,0,3:0:0:0:
151,159,84183,2,0,P|138:209|153:259,1,105,10|0,0:0|3:0,0:0:0:0:
299,257,84489,2,0,L|418:254,1,105,2|0,0:0|3:0,0:0:0:0:
177,75,84795,2,0,L|72:73,1,105,10|0,0:0|0:0,0:0:0:0:
320,131,85101,6,0,P|393:184|319:235,1,210,2|8,3:2|0:0,0:0:0:0:
184,242,85560,1,2,0:0:0:0:
319,235,85714,1,0,3:0:0:0:
184,242,85867,1,0,3:0:0:0:
408,138,86020,2,0,P|471:173|410:211,1,173.250005287171,10|0,0:0|0:0,0:0:0:0:
181,200,86326,6,0,P|285:193|390:199,1,210,4|8,3:2|0:0,0:0:0:0:
391,52,86785,1,0,3:0:0:0:
175,60,86938,1,10,0:0:0:0:
321,54,87091,1,0,3:0:0:0:
82,130,87244,2,0,P|20:169|82:208,1,173.250005287171,4|0,3:0|0:0,0:0:0:0:
294,198,87550,6,0,P|389:217|394:314,1,210,6|8,3:2|0:0,0:0:0:0:
246,324,88009,1,2,0:0:0:0:
394,318,88163,2,0,P|409:268|393:219,1,105,0|0,3:0|3:0,0:0:0:0:
175,212,88469,2,0,P|97:187|95:105,1,173.250005287171,10|0,0:0|0:0,0:0:0:0:
304,94,88775,6,0,L|421:91,1,105,2|0,3:2|0:0,0:0:0:0:
259,185,89081,2,0,L|146:182,1,105,8|0,0:0|3:0,0:0:0:0:
301,292,89387,1,2,0:0:0:0:
154,295,89540,1,0,3:0:0:0:
410,194,89693,2,0,P|471:231|410:270,1,173.250005287171,8|0,0:0|0:0,0:0:0:0:
181,254,89999,6,0,P|283:232|386:246,1,210,2|8,3:2|0:0,0:0:0:0:
262,243,90458,1,0,3:0:0:0:
262,243,90612,1,0,0:0:0:0:
396,242,90765,1,2,3:2:0:0:
184,132,90918,1,10,0:0:0:0:
399,128,91071,1,2,0:0:0:0:
150,163,91224,6,0,P|88:197|151:229,1,173.250005287171,6|0,3:2|0:0,0:0:0:0:
312,218,91530,2,0,L|417:218,1,105,10|0,3:2|3:0,0:0:0:0:
354,218,91759,1,0,3:0:0:0:
171,226,91836,1,10,3:2:0:0:
307,226,91989,1,0,3:0:0:0:
64,73,92142,1,2,3:2:0:0:
200,70,92295,1,4,3:0:0:0:
445,91,92448,6,0,P|447:188|353:217,1,210,6|8,3:2|0:0,0:0:0:0:
216,208,92907,1,2,0:0:0:0:
431,205,93060,2,0,P|443:255|433:306,1,105,0|0,3:0|3:0,0:0:0:0:
295,306,93367,2,0,L|173:307,1,105,10|0,0:0|0:0,0:0:0:0:
424,153,93673,5,0,3:0:0:0:
193,156,93979,2,0,L|79:158,1,105,10|0,0:0|3:0,0:0:0:0:
224,313,94285,2,0,L|334:312,1,105,2|0,0:0|3:0,0:0:0:0:
76,168,94591,2,0,P|73:116|77:64,1,105,10|0,0:0|0:0,0:0:0:0:
320,65,94897,6,0,P|414:94|426:193,1,210,2|8,3:2|0:0,0:0:0:0:
289,198,95356,1,2,0:0:0:0:
424,200,95509,1,0,3:0:0:0:
289,198,95663,1,0,3:0:0:0:
61,194,95816,2,0,P|64:275|146:293,1,173.250005287171,10|0,0:0|0:0,0:0:0:0:
362,275,96122,6,0,P|260:251|156:262,1,210,6|8,3:2|3:2,0:0:0:0:
156,95,96581,1,0,3:0:0:0:
376,99,96734,1,10,3:2:0:0:
239,99,96887,1,0,3:0:0:0:
465,155,97040,2,0,P|466:237|389:265,1,173.250005287171,4|0,3:0|0:0,0:0:0:0:
190,283,97346,6,0,P|115:237|190:190,1,210,6|8,3:2|0:0,0:0:0:0:
315,194,97805,1,2,0:0:0:0:
189,189,97958,2,0,P|182:138|190:86,1,105,0|0,3:0|3:0,0:0:0:0:
415,56,98265,2,0,P|477:91|414:127,1,173.250005287171,10|0,0:0|0:0,0:0:0:0:
192,156,98571,6,0,P|295:139|398:151,1,210,2|8,3:2|0:0,0:0:0:0:
399,312,99030,1,0,3:0:0:0:
268,311,99183,1,2,0:0:0:0:
399,312,99336,1,0,3:0:0:0:
106,199,99489,2,0,P|44:237|107:273,1,173.250005287171,8|0,0:0|0:0,0:0:0:0:
297,264,99795,6,0,L|421:262,1,105,6|0,3:2|0:0,0:0:0:0:
176,187,100101,2,0,P|158:139|176:91,1,105,8|0,0:0|3:0,0:0:0:0:
244,83,100331,1,0,3:0:0:0:
445,82,100407,2,0,L|309:82,1,105,8|0,0:0|3:0,0:0:0:0:
121,91,100714,1,2,3:2:0:0:
267,86,100867,1,2,3:2:0:0:
48,230,101020,5,6,3:2:0:0:
282,217,101173,2,0,L|398:217,1,105,10|0,3:2|3:0,0:0:0:0:
132,101,101479,1,6,3:2:0:0:
389,67,101632,2,0,L|276:63,1,105,10|0,3:2|3:0,0:0:0:0:
31,79,101938,5,6,3:2:0:0:
299,121,102091,2,0,P|321:165|297:210,1,105,10|0,3:2|3:0,0:0:0:0:
36,244,102397,1,6,3:2:0:0:
302,264,102550,2,0,L|406:261,1,105,10|0,3:2|0:0,0:0:0:0:
151,171,102856,1,8,3:2:0:0:
391,164,103009,1,8,3:0:0:0:
381,164,103163,1,4,3:0:0:0:
75,167,103316,5,14,3:2:0:0:
256,192,103469,12,0,109591,0:0:0:0:
