osu file format v14

[General]
AudioFilename: audio.ogg
AudioLeadIn: 0
PreviewTime: 51021
Countdown: 0
SampleSet: Soft
StackLeniency: 0.4
Mode: 0
LetterboxInBreaks: 0
WidescreenStoryboard: 1

[Editor]
Bookmarks: 6374
DistanceSpacing: 1
BeatDivisor: 4
GridSize: 32
TimelineZoom: 2.1

[Metadata]
Title:Kiseki Melody
TitleUnicode:奇跡メロディ
Artist:Rin'ca
ArtistUnicode:Rin'ca
Creator:nantokanaru
Version:Natsume Shizuku's Insane
Source:D.S.i.F. -Dal Segno- in Future
Tags:visual novel vn eroge yozuca* nekusam dsif circus 美少女ゲーム galgame japanese jp video game pop jpop j-pop Natsume Shizuku -karupa-
BeatmapID:3920887
BeatmapSetID:1901042

[Difficulty]
HPDrainRate:5
CircleSize:4
OverallDifficulty:8
ApproachRate:9
SliderMultiplier:1.8
SliderTickRate:1

[Events]
//Background and Video events
Video,-50,"future.mp4"
0,0,"bg.jpg",0,0
//Break Periods
//Storyboard Layer 0 (Background)
//Storyboard Layer 1 (Fail)
//Storyboard Layer 2 (Pass)
//Storyboard Layer 3 (Foreground)
//Storyboard Layer 4 (Overlay)
//Storyboard Sound Samples

[TimingPoints]
727,352.941176470588,4,2,1,50,1,0
727,-133.333333333333,4,2,1,50,0,0
4962,-62.5,4,2,1,75,0,0
5491,-133.333333333333,4,2,1,50,0,0
6021,-166.666666666667,4,2,1,50,0,0
6374,-125,4,2,1,50,0,0
8138,-125,4,2,1,50,0,0
8844,-166.666666666667,4,2,1,50,0,0
9108,-166.666666666667,4,2,1,5,0,0
9197,-166.666666666667,4,2,1,67,0,0
11315,-100,4,2,1,67,0,0
11491,-90.9090909090909,4,2,1,67,0,0
12021,-100,4,2,1,70,0,0
13255,-100,4,2,1,5,0,0
13344,-100,4,2,1,70,0,0
14667,-100,4,2,1,5,0,0
14756,-100,4,2,1,70,0,0
16079,-100,4,2,1,5,0,0
16168,-100,4,2,1,70,0,0
16609,-100,4,2,1,70,0,0
17491,-100,4,2,1,5,0,0
17579,-100,4,2,1,70,0,0
19432,-100,4,2,1,70,0,0
20491,-90.9090909090909,4,2,1,70,0,0
21021,-133.333333333333,4,2,1,70,0,0
21903,-100,4,2,1,70,0,0
22962,-90.9090909090909,4,2,1,70,0,0
23050,-100,4,2,1,5,0,0
23138,-83.3333333333333,4,2,1,70,0,0
23226,-100,4,2,1,5,0,0
23315,-100,4,2,1,70,0,0
26491,-153.846153846154,4,2,1,50,0,0
35315,-133.333333333333,4,2,1,60,0,0
35668,-100,4,2,1,67,0,0
37432,-90.9090909090909,4,2,1,60,0,0
37696,-90.9090909090909,4,2,1,5,0,0
37785,-100,4,2,1,60,0,0
39108,-100,4,2,1,5,0,0
39197,-100,4,2,1,60,0,0
40256,-83.3333333333333,4,2,1,65,0,0
41049,-83.3333333333333,4,2,1,5,0,0
41138,-100,4,2,1,65,0,0
41491,-83.3333333333333,4,2,1,65,0,0
41755,-83.3333333333333,4,2,1,5,0,0
41844,-83.3333333333333,4,2,1,65,0,0
42197,-100,4,2,1,65,0,0
44844,-100,4,2,1,65,0,0
45903,-90.9090909090909,4,2,1,65,0,0
46256,-90.9090909090909,4,2,1,65,0,0
46521,-90.9090909090909,4,2,1,65,0,0
48726,-83.3333333333333,4,2,1,65,0,0
50844,-100,4,2,1,65,0,0
51550,-83.3333333333333,4,2,1,70,0,0
51814,-83.3333333333333,4,2,1,70,0,0
51903,-83.3333333333333,4,2,1,70,0,0
61696,-83.3333333333333,4,2,1,5,0,0
61785,-83.3333333333333,4,2,1,70,0,0
62844,-83.3333333333333,4,2,1,70,0,0
76962,-100,4,2,1,67,0,0
78197,-100,4,2,1,5,0,0
78285,-100,4,2,1,67,0,0
79608,-100,4,2,1,5,0,0
79697,-100,4,2,1,67,0,0
81109,-100,4,2,1,67,0,0
81550,-100,4,2,1,67,0,0
82432,-100,4,2,1,5,0,0
82520,-100,4,2,1,67,0,0
84374,-100,4,2,1,67,0,0
85432,-90.9090909090909,4,2,1,67,0,0
85962,-133.333333333333,4,2,1,67,0,0
86844,-100,4,2,1,67,0,0
87903,-90.9090909090909,4,2,1,67,0,0
87991,-100,4,2,1,5,0,0
88079,-83.3333333333333,4,2,1,67,0,0
88168,-100,4,2,1,5,0,0
88256,-100,4,2,1,67,0,0
92491,-100,4,2,1,45,0,0
93550,-100,4,2,1,40,0,0
94609,-100,4,2,1,30,0,0
95668,-100,4,2,1,20,0,0
96109,-100,4,2,1,10,0,0
96550,-100,4,2,1,5,0,0

[Colours]
Combo1 : 252,202,165
Combo2 : 145,206,230
Combo3 : 167,197,220

[HitObjects]
76,62,727,6,0,L|156:47,2,67.5000025749207,2|0|2,3:2|0:0|0:0,0:0:0:0:
60,48,1256,2,0,P|10:95|32:163,1,135.000005149841,2|0,0:0|0:0,0:0:0:0:
38,167,1785,1,2,0:0:0:0:
0,244,1962,1,0,0:0:0:0:
71,337,2138,6,0,P|28:328|-11:320,2,67.5000025749207,2|0|2,3:2|0:0|2:0,0:0:0:0:
86,323,2668,2,0,B|124:307|160:330|145:342|182:367|218:351,1,135.000005149841,2|0,0:0|0:0,0:0:0:0:
225,341,3197,1,2,0:0:0:0:
326,377,3374,1,0,0:0:0:0:
249,260,3550,6,0,B|252:218|294:203,2,67.5000025749208,2|0|2,3:2|0:0|0:0,0:0:0:0:
261,275,4079,2,0,P|332:259|407:247,1,135.000005149841,2|0,0:0|0:0,0:0:0:0:
411,257,4609,1,2,0:0:0:0:
389,330,4785,1,0,0:0:0:0:
452,156,4962,5,8,0:0:0:0:
310,358,5138,1,8,0:0:0:0:
318,347,5491,5,0,0:0:0:0:
265,292,5668,2,0,P|230:275|194:285,1,67.5000025749207,2|2,3:2|0:0,0:0:0:0:
145,346,6021,2,0,L|50:326,1,80.9999975280762
37,322,6374,6,0,P|75:318|103:283,1,72,6|0,1:2|0:0,1:2:0:0:
45,176,6726,2,0,P|29:210|45:252,1,72,0|2,1:2|2:2,0:0:0:0:
167,255,7079,2,0,P|144:224|100:217,1,72,0|0,1:2|0:2,0:2:0:0:
33,249,7432,1,2,1:2:0:0:
113,215,7609,1,0,0:2:0:0:
10,71,7785,6,0,P|48:86|86:94,1,72,2|0,1:2|0:0,0:0:0:0:
182,37,8138,2,0,P|153:9|109:24,1,72,2|2,1:2|0:2,0:0:0:0:
179,138,8491,2,0,P|214:123|251:115,1,72,0|0,1:2|0:2,0:2:0:0:
340,28,8844,2,0,B|370:40|370:40|379:60|379:60|412:74,1,80.9999975280763,2|0,1:2|0:0,0:2:0:0:
452,133,9197,5,8,0:0:0:0:
263,41,9374,1,8,0:0:0:0:
435,234,9726,5,8,0:0:0:0:
329,77,9903,1,8,0:0:0:0:
378,313,10256,5,8,0:0:0:0:
366,143,10433,1,8,0:0:0:0:
298,334,10785,5,8,0:0:0:0:
70,284,10962,1,8,0:0:0:0:
84,295,11315,6,0,P|100:272|132:263,1,45,0|0,3:0|3:0,0:0:0:0:
121,180,11491,2,0,P|148:182|172:205,1,49.5000015106202,0|0,3:0|3:0,0:0:0:0:
243,124,11668,1,8,0:0:0:0:
248,158,11756,1,8,0:0:0:0:
255,191,11844,1,8,0:0:0:0:
262,224,11932,1,8,0:0:0:0:
292,257,12021,6,0,B|393:250|335:176|447:164,1,180,14|10,0:0|0:0,0:0:0:0:
361,62,12550,1,0,0:0:0:0:
368,66,12638,1,0,3:3:0:0:
375,71,12726,2,0,P|365:122|353:181,1,90,2|0,3:2|0:0,0:0:0:0:
186,222,13079,2,0,P|156:184|169:138,1,90,10|0,0:0|0:0,0:0:0:0:
240,99,13344,1,0,3:0:0:0:
255,108,13432,6,0,P|244:183|224:301,1,180,0|10,3:0|0:0,0:0:0:0:
226,285,13962,1,0,0:0:0:0:
186,222,14138,2,0,P|142:219|109:249,1,90,2|0,3:2|0:0,0:0:0:0:
310,271,14491,2,0,P|355:256|402:247,1,90,10|0,0:0|0:0,0:0:0:0:
464,306,14756,1,0,0:0:0:0:
448,315,14844,6,0,P|415:269|486:162,1,180,0|10,3:0|0:0,0:0:0:0:
385,46,15374,1,0,0:0:0:0:
377,43,15462,1,0,3:0:0:0:
369,40,15551,1,2,3:2:0:0:
301,75,15726,1,0,0:0:0:0:
142,33,15903,2,0,P|151:84|158:127,1,90,10|0,0:0|0:0,0:0:0:0:
129,208,16168,1,0,0:0:0:0:
118,222,16256,6,0,P|78:229|40:196,1,90,2|0,3:2|0:0,0:0:0:0:
208,251,16609,2,0,P|234:282|224:331,1,90,10|0,0:0|0:0,0:0:0:0:
230,133,16962,1,2,3:2:0:0:
151,304,17138,1,0,0:0:0:0:
237,118,17315,2,0,P|277:111|315:144,1,90,8|0,0:0|0:0,0:0:0:0:
281,222,17579,1,0,3:0:0:0:
289,205,17668,6,0,B|335:184|375:225|360:240|402:277|461:257,1,180,2|10,3:2|0:0,0:0:0:0:
296,346,18197,1,0,0:0:0:0:
288,343,18285,1,0,3:0:0:0:
280,340,18374,1,2,3:2:0:0:
396,329,18550,1,0,0:0:0:0:
204,373,18726,2,0,P|154:317|168:255,1,135,10|8,0:0|0:0,0:0:0:0:
225,197,19079,6,0,P|176:187|118:172,1,90,0|0,3:0|0:0,0:0:0:0:
4,357,19432,1,10,0:0:0:0:
83,319,19609,1,0,3:0:0:0:
19,183,19785,1,10,0:0:0:0:
91,232,19962,1,0,3:0:0:0:
177,108,20138,5,10,0:0:0:0:
175,130,20227,1,8,0:0:0:0:
173,152,20316,1,8,0:0:0:0:
171,174,20403,1,8,0:0:0:0:
190,202,20491,6,0,B|235:233|299:215|313:163|313:163|301:189|270:198,1,198.000006042481,14|0,0:0|3:0,0:0:0:0:
82,296,21021,6,0,P|26:287|40:208,1,135.000005149842,2|0,3:2|0:0,0:0:0:0:
292,337,21550,1,8,0:0:0:0:
163,359,21726,1,0,3:0:0:0:
166,339,21815,1,0,3:0:0:0:
171,310,21903,6,0,B|214:277|256:303|235:326|307:340,1,135,10|0,0:0|0:0,0:0:0:0:
315,323,22256,5,8,0:0:0:0:
427,366,22432,1,8,0:0:0:0:
351,187,22609,1,10,0:0:0:0:
291,336,22785,1,8,0:0:0:0:
426,153,22962,6,0,L|478:167,1,49.5000015106202,8|0,0:0|0:0,0:0:0:0:
282,247,23138,2,0,L|230:261,1,53.9999983520508,8|0,0:0|0:0,0:0:0:0:
312,76,23315,5,14,0:0:0:0:
256,192,23491,12,0,26138,0:0:0:0:
74,62,26491,6,0,P|108:66|134:89,2,58.4999973220826,2|2|2,0:0|0:0|0:0,0:0:0:0:
13,121,27021,2,0,P|30:183|48:250,1,116.999994644165,2|2,0:0|0:0,0:0:0:0:
193,333,27903,1,2,0:0:0:0:
193,333,28256,2,0,P|150:292|99:310,1,116.999994644165,2|2,0:0|0:0,0:0:0:0:
100,308,28962,6,0,P|105:339|110:371,1,58.4999973220826,2|0,0:0|0:0,0:0:0:0:
13,364,29315,1,2,0:0:0:0:
13,364,29491,2,0,P|5:305|-3:238,2,116.999994644165,2|2|2,0:0|0:0|0:0,0:0:0:0:
198,68,31079,6,0,P|225:92|256:94,2,58.4999973220826,2|0|2,0:0|0:0|0:0,0:0:0:0:
263,11,31609,1,2,0:0:0:0:
144,150,31785,2,0,P|199:135|284:123,1,116.999994644165,2|0,0:0|0:0,0:0:0:0:
329,166,32315,2,0,P|309:203|233:201,1,116.999994644165,2|2,0:0|0:0,0:0:0:0:
240,206,33021,1,2,0:0:0:0:
240,206,33197,6,0,P|253:269|266:326,1,116.999994644165,2|2,0:0|0:0,0:0:0:0:
204,367,33726,1,0,0:0:0:0:
204,367,33903,2,0,P|175:347|140:343,1,58.4999973220826,2|0,0:0|0:0,0:0:0:0:
33,376,34256,1,2,0:0:0:0:
33,376,34609,6,0,P|26:320|75:281,1,116.999994644165,2|0,0:0|0:0,0:0:0:0:
0,224,35138,1,2,0:0:0:0:
87,293,35315,2,0,P|97:240|108:175,1,101.250003862381,2|0,0:0|0:0,0:0:0:0:
94,156,35668,5,2,3:2:0:0:
103,116,35756,1,0,3:0:0:0:
133,89,35844,1,0,3:0:0:0:
173,85,35932,1,0,3:0:0:0:
203,111,36021,5,8,0:0:0:0:
337,277,36197,1,8,0:0:0:0:
269,337,36726,5,8,0:0:0:0:
424,166,36903,1,8,0:0:0:0:
349,119,37432,6,0,B|311:108|275:139|288:151|248:186|192:160,1,148.50000453186,4|0,3:2|0:0,0:0:0:0:
194,150,37785,2,0,P|203:110|216:52,1,90,2|2,3:2|0:0,0:0:0:0:
47,120,38138,1,2,3:2:0:0:
102,5,38315,2,0,P|113:58|123:98,1,90,2|0,0:0|3:0,0:0:0:0:
0,192,38668,1,2,0:0:0:0:
152,305,38844,6,0,B|189:276|189:276|238:271|289:311,1,135,2|0,3:2|0:0,0:0:0:0:
288,320,39197,2,0,P|264:352|214:355,1,90,2|0,3:2|0:0,0:0:0:0:
36,368,39550,1,2,3:2:0:0:
152,305,39726,1,0,0:0:0:0:
23,204,39903,1,2,3:2:0:0:
74,294,40079,1,0,0:0:0:0:
233,115,40256,6,0,P|150:132|60:150,1,161.999995056153,6|0,3:2|0:0,0:0:0:0:
23,204,40609,1,10,3:2:0:0:
180,32,40785,6,0,B|221:45|255:11|255:11|267:54|313:66,1,161.999995056153,2|0,3:2|0:0,0:0:0:0:
366,19,41138,2,0,P|319:14|286:50,1,90,2|0,3:2|0:0,0:0:0:0:
488,215,41491,6,0,P|457:151|362:155,1,161.999995056153,6|0,3:2|0:0,0:0:0:0:
351,219,41844,1,0,0:0:0:0:
434,290,42021,1,8,0:0:0:0:
276,346,42197,6,0,L|456:308,1,180,0|0,3:0|3:0,0:0:0:0:
277,212,42726,2,0,L|267:264,1,45,10|0,0:0|0:0,0:0:0:0:
173,378,42903,1,2,3:2:0:0:
173,378,42991,1,0,3:2:0:0:
173,378,43079,6,0,P|118:334|132:269,1,135,6|0,3:2|0:0,0:0:0:0:
150,262,43432,1,10,0:0:0:0:
31,229,43609,2,0,L|43:272,2,45,2|0|0,0:0|3:0|3:0,0:0:0:0:
171,267,43962,1,0,3:0:0:0:
55,154,44138,1,10,0:0:0:0:
163,96,44315,1,0,0:0:0:0:
163,96,44403,1,0,0:0:0:0:
163,96,44491,6,0,P|151:152|140:198,1,90,2|0,3:2|0:0,0:0:0:0:
327,100,44844,1,10,0:2:0:0:
239,19,45021,2,0,L|248:69,2,45,2|0|0,0:0|3:0|3:0,0:0:0:0:
343,107,45374,1,0,3:0:0:0:
241,269,45550,1,10,0:0:0:0:
171,206,45726,1,0,0:0:0:0:
171,206,45815,1,0,0:0:0:0:
171,205,45903,6,0,P|207:173|256:174,1,99.0000030212403,6|0,3:2|3:0,0:0:0:0:
387,361,46256,2,0,P|397:311|408:252,1,99.0000030212403,8|0,0:0|0:0,0:0:0:0:
414,237,46521,1,8,3:0:0:0:
414,237,46609,1,8,3:0:0:0:
498,281,46785,1,8,3:0:0:0:
303,334,46962,2,0,P|251:282|177:292,1,148.50000453186,10|0,0:0|0:0,0:0:0:0:
164,314,47315,5,2,3:2:0:0:
189,206,47491,1,0,0:0:0:0:
9,250,47668,1,10,0:2:0:0:
87,166,47844,1,0,0:0:0:0:
87,166,47932,1,8,3:3:0:0:
87,166,48021,2,0,L|110:277,1,99.0000030212403,10|8,3:3|3:0,0:0:0:0:
220,130,48374,1,10,0:0:0:0:
17,109,48550,1,0,3:0:0:0:
3,126,48638,1,0,3:0:0:0:
2,145,48726,6,0,P|99:151|119:50,1,215.999993408203,6|8,3:2|0:0,0:0:0:0:
13,9,49256,2,0,B|93:33|93:33|123:75|123:75|204:97,1,215.999993408203,6|10,3:2|0:0,0:0:0:0:
267,46,49785,2,0,P|244:23|215:21,1,53.9999983520508,2|0,3:2|0:0,0:0:0:0:
160,203,49962,1,14,0:2:0:0:
472,191,50844,6,0,L|457:250,3,45,0|0|8|8,3:0|0:0|0:0|0:0,0:0:0:0:
414,127,51197,5,8,0:0:0:0:
382,94,51285,1,8,0:0:0:0:
337,85,51374,1,10,0:0:0:0:
299,109,51462,1,8,0:0:0:0:
284,160,51550,6,0,B|304:235|334:347,1,161.999995056153,14|2,0:0|0:0,0:0:0:0:
278,376,51903,1,8,0:0:0:0:
182,190,52079,1,0,0:0:0:0:
182,190,52168,1,0,3:0:0:0:
182,190,52256,2,0,P|172:242|160:299,1,107.999996704102,2|0,3:2|3:0,0:0:0:0:
42,375,52609,2,0,P|-1:337|12:284,1,107.999996704102,10|0,0:0|0:0,0:0:0:0:
31,270,52874,1,0,3:0:0:0:
31,270,52962,6,0,B|86:237|138:284|124:303|176:340|242:308,1,215.999993408203,0|10,3:0|0:0,0:0:0:0:
141,193,53491,1,0,3:0:0:0:
295,369,53668,2,0,P|308:302|315:261,1,107.999996704102,2|0,0:0|3:0,0:0:0:0:
225,73,54021,2,0,P|207:119|266:149,1,107.999996704102,10|0,0:0|0:0,0:0:0:0:
274,134,54285,1,0,3:0:0:0:
274,134,54374,6,0,P|352:149|443:166,1,161.999995056153,0|0,3:0|0:0,0:0:0:0:
501,132,54726,2,0,P|506:196|463:232,1,107.999996704102,10|0,0:0|0:0,0:0:0:0:
451,241,54991,1,0,3:0:0:0:
451,241,55079,1,0,3:0:0:0:
501,357,55256,1,0,3:0:0:0:
302,326,55432,1,10,0:0:0:0:
365,232,55609,1,0,0:0:0:0:
365,232,55697,1,0,3:0:0:0:
365,232,55785,6,0,P|376:285|386:338,1,107.999996704102,2|0,3:2|0:0,0:0:0:0:
255,195,56138,2,0,P|207:196|175:242,1,107.999996704102,10|0,0:0|3:0,0:0:0:0:
57,360,56491,2,0,P|99:326|90:257,1,107.999996704102,2|0,3:2|3:0,0:0:0:0:
10,183,56844,1,10,0:0:0:0:
90,72,57021,2,0,L|105:135,1,53.9999983520508,0|0,0:0|3:0,0:0:0:0:
0,196,57197,6,0,B|43:211|78:175|65:164|116:128|153:144,1,161.999995056153,2|0,3:2|0:0,0:0:0:0:
204,187,57550,1,10,2:0:0:0:
256,45,57726,1,0,3:0:0:0:
256,45,57815,1,0,3:0:0:0:
256,45,57903,2,0,P|310:48|336:102,1,107.999996704102,2|0,3:2|3:0,0:0:0:0:
454,271,58256,2,0,P|467:220|481:158,1,107.999996704102,10|0,0:0|0:0,0:0:0:0:
471,138,58521,1,8,2:2:0:0:
471,138,58609,6,0,B|415:98|415:98|328:93|280:165,1,215.999993408203,0|10,3:0|0:0,0:0:0:0:
467,253,59138,1,0,3:0:0:0:
383,322,59315,2,0,P|370:255|363:214,1,107.999996704102,2|0,0:0|3:0,0:0:0:0:
154,41,59668,2,0,P|168:90|229:105,1,107.999996704102,10|0,0:0|0:0,0:0:0:0:
244,88,59932,1,0,3:0:0:0:
230,58,60021,6,0,P|213:136|191:237,1,161.999995056153,6|0,3:2|0:0,0:0:0:0:
240,277,60374,1,8,0:0:0:0:
53,338,60550,2,0,L|38:279,2,53.9999983520508,0|0|2,0:0|3:0|3:2,0:0:0:0:
195,216,60903,1,0,3:0:0:0:
10,102,61079,1,8,0:0:0:0:
148,149,61256,1,2,3:2:0:0:
148,149,61344,1,0,3:2:0:0:
148,149,61432,6,0,B|183:115|227:136|227:136|260:175|309:169,1,161.999995056153,10|0,0:2|0:0,0:0:0:0:
349,119,61785,1,8,0:0:0:0:
291,331,61962,1,2,3:2:0:0:
470,266,62138,2,0,L|456:206,3,53.9999983520508,0|0|0|0,3:0|3:0|3:0|3:0,0:0:0:0:
388,276,62491,5,10,0:0:0:0:
344,265,62579,1,8,0:0:0:0:
300,253,62668,1,8,0:0:0:0:
256,243,62756,1,8,0:0:0:0:
210,271,62844,6,0,B|159:264|129:293|148:307|104:351|41:320,1,161.999995056153,14|0,0:0|0:0,0:0:0:0:
9,279,63197,1,10,0:0:0:0:
104,175,63374,1,0,3:0:0:0:
104,175,63462,1,0,3:0:0:0:
104,175,63550,2,0,P|116:230|126:286,1,107.999996704102,2|0,3:2|3:0,0:0:0:0:
363,218,63903,2,0,P|335:178|276:177,1,107.999996704102,10|0,0:2|0:0,0:0:0:0:
257,199,64168,1,0,3:0:0:0:
257,199,64256,6,0,P|352:179|480:150,1,215.999993408203,0|10,3:0|0:2,0:0:0:0:
333,107,64785,1,0,3:0:0:0:
418,293,64962,2,0,P|430:233|440:181,1,107.999996704102,2|0,0:0|3:0,0:0:0:0:
333,26,65315,2,0,P|277:38|257:91,1,107.999996704102,10|0,0:0|0:0,0:0:0:0:
245,112,65579,1,0,3:0:0:0:
245,112,65669,6,0,B|171:94|171:94|159:96|159:96|82:75,1,161.999995056153,2|0,3:2|0:0,0:0:0:0:
34,23,66021,2,0,P|49:84|62:143,1,107.999996704102,10|0,0:0|0:0,0:0:0:0:
66,159,66285,1,0,3:0:0:0:
66,159,66374,1,0,3:0:0:0:
171,110,66551,1,0,3:0:0:0:
28,294,66727,1,10,0:0:0:0:
132,232,66904,1,0,0:0:0:0:
132,232,66992,1,0,3:0:0:0:
132,232,67080,6,0,B|212:207|198:295|299:264,1,161.999995056153,6|0,3:2|0:0,0:0:0:0:
343,225,67432,1,10,0:0:0:0:
170,67,67609,2,0,P|271:50|395:26,1,215.999993408203,6|0,3:2|3:0,0:0:0:0:
503,207,68139,1,10,0:2:0:0:
281,268,68315,1,0,3:0:0:0:
288,231,68403,1,0,3:0:0:0:
295,194,68491,6,0,B|338:179|373:215|360:226|411:262|448:246,1,161.999995056153,6|0,3:2|0:0,0:0:0:0:
503,207,68844,1,8,0:0:0:0:
273,358,69021,6,0,B|210:344|190:296|190:296|150:335|75:325,1,215.999993408203,4|0,3:2|3:0,0:0:0:0:
240,226,69550,1,8,0:0:0:0:
42,72,69726,6,0,B|110:94|110:94|154:79|154:79|258:107,1,215.999993408203,4|0,3:2|3:0,0:0:0:0:
382,164,70256,1,8,0:0:0:0:
316,67,70432,1,8,3:0:0:0:
396,186,70610,2,0,P|442:159|447:95,1,107.999996704102,10|8,3:0|3:0,0:0:0:0:
235,204,70962,2,0,B|245:244|245:244|266:264|266:264|279:315,1,107.999996704102,10|0,2:2|3:0,0:0:0:0:
257,327,71226,1,0,3:0:0:0:
236,352,71315,6,0,P|181:340|125:326,1,107.999996704102,14|0,3:2|0:0,0:0:0:0:
294,126,71668,2,0,P|239:114|183:100,1,107.999996704102,10|2,0:0|3:2,0:0:0:0:
13,302,72021,5,8,0:0:0:0:
74,122,72197,1,0,3:0:0:0:
130,327,72374,1,10,0:2:0:0:
71,104,72550,2,0,L|82:158,1,53.9999983520508,0|0,3:0|3:0,0:0:0:0:
234,299,72726,6,0,P|256:251|234:203,1,107.999996704102,10|0,0:2|0:0,3:0:0:0:
13,302,73079,2,0,P|-8:254|13:206,1,107.999996704102,8|0,0:0|3:0,0:0:0:0:
281,120,73432,6,0,B|227:109|227:109|172:140,1,107.999996704102,10|0,0:0|3:0,0:0:0:0:
113,166,73697,1,0,0:0:0:0:
81,156,73785,1,10,0:0:0:0:
310,113,73962,2,0,L|362:97,1,53.9999983520508,2|0,3:2|3:0,0:0:0:0:
151,46,74138,6,0,P|94:30|19:14,1,107.999996704102,10|0,0:0|0:0,0:0:0:0:
184,292,74491,2,0,P|127:276|52:260,1,107.999996704102,10|2,0:0|3:2,0:0:0:0:
337,186,74844,5,8,0:0:0:0:
284,364,75021,2,0,L|271:304,1,53.9999983520508,0|0,3:0|0:0,0:0:0:0:
160,167,75197,5,8,0:0:0:0:
119,163,75285,1,0,3:0:0:0:
81,183,75374,1,2,3:2:0:0:
65,224,75462,1,0,3:0:0:0:
79,265,75550,1,14,0:0:0:0:
235,124,76079,5,0,3:0:0:0:
208,89,76167,1,0,3:0:0:0:
165,81,76255,1,4,3:2:0:0:
27,12,76609,6,0,P|31:50|24:12,1,107.999996704102,2|0,3:2|0:0,0:0:0:0:
42,86,76874,1,0,0:0:0:0:
53,115,76962,6,0,B|38:176|38:176|50:215|50:215|30:298,1,180,6|10,3:2|0:0,0:0:0:0:
144,365,77491,1,0,0:0:0:0:
151,359,77579,1,0,3:0:0:0:
158,354,77667,2,0,P|154:305|111:285,1,90,2|0,3:2|3:0,0:0:0:0:
297,382,78021,2,0,P|339:368|388:359,1,90,10|0,0:2|0:0,0:0:0:0:
449,299,78285,1,0,3:0:0:0:
461,285,78373,6,0,P|409:210|323:227,1,180,0|10,3:0|0:0,0:0:0:0:
330,221,78903,1,0,3:0:0:0:
252,148,79079,2,0,P|294:134|335:114,1,90,2|0,0:0|3:0,0:0:0:0:
143,43,79432,2,0,P|98:43|74:79,1,90,10|0,0:0|0:0,0:0:0:0:
37,160,79697,1,0,3:0:0:0:
21,151,79785,6,0,B|-10:130|-10:130|18:270,1,180,0|10,3:0|0:0,0:0:0:0:
179,348,80315,1,0,0:0:0:0:
182,340,80403,1,0,3:0:0:0:
185,332,80492,1,0,3:0:0:0:
154,258,80668,1,0,3:0:0:0:
285,120,80844,2,0,P|328:133|338:185,1,90,10|0,0:0|0:0,0:0:0:0:
380,254,81109,1,0,3:0:0:0:
370,269,81197,6,0,P|315:255|255:241,1,90,0|0,3:0|0:0,0:0:0:0:
412,71,81550,2,0,P|467:85|527:99,1,90,10|0,0:0|3:0,0:0:0:0:
341,172,81903,1,2,0:0:0:0:
296,0,82079,1,0,3:0:0:0:
346,191,82256,2,0,P|303:181|259:170,1,90,10|0,0:0|0:0,0:0:0:0:
176,133,82520,1,0,3:0:0:0:
164,147,82609,6,0,B|143:193|184:233|199:218|236:260|216:319,1,180,0|10,3:0|2:0,0:0:0:0:
63,247,83138,1,0,0:0:0:0:
66,239,83226,1,0,3:0:0:0:
69,231,83315,1,2,3:2:0:0:
102,322,83491,1,0,3:0:0:0:
26,110,83667,2,0,P|70:157|135:144,1,135,10|8,0:0|0:2,0:0:0:0:
222,166,84020,6,0,P|209:117|197:59,1,90,0|0,3:0|0:0,0:0:0:0:
371,80,84374,1,10,0:0:0:0:
284,104,84550,1,0,3:0:0:0:
426,5,84726,1,10,0:0:0:0:
512,30,84903,1,0,3:0:0:0:
364,174,85079,5,10,3:2:0:0:
361,153,85168,1,0,3:2:0:0:
358,132,85257,1,0,3:2:0:0:
355,111,85344,1,0,3:2:0:0:
371,80,85432,6,0,B|446:62|488:135|488:135|456:121|421:136,1,198.000006042481,6|8,3:2|0:0,0:0:0:0:
199,38,85962,6,0,P|126:37|99:92,1,135.000005149842,0|0,3:0|3:0,0:0:0:0:
267,210,86491,1,8,0:0:0:0:
171,162,86667,1,0,3:0:0:0:
167,182,86756,1,0,3:0:0:0:
162,211,86844,6,0,B|96:193|99:263|32:233,1,135,6|0,3:2|0:0,0:0:0:0:
12,224,87197,5,8,0:0:0:0:
149,287,87373,1,8,0:0:0:0:
100,86,87550,1,10,0:0:0:0:
36,234,87726,1,8,0:0:0:0:
231,120,87903,6,0,L|218:72,1,49.5000015106202,8|0,0:0|0:0,0:0:0:0:
149,287,88079,2,0,L|163:339,1,53.9999983520508,8|0,0:0|0:0,0:0:0:0:
322,227,88256,5,14,0:0:0:0:
256,192,88432,12,0,90726,0:0:0:0:
256,192,90903,5,6,0:0:0:0:
256,192,91079,12,0,96726,0:0:0:0:
