osu file format v14

[General]
AudioFilename: Rin'ca - Kiseki Melody.mp3
AudioLeadIn: 0
PreviewTime: 51141
Countdown: 0
SampleSet: Soft
StackLeniency: 0.7
Mode: 0
LetterboxInBreaks: 0
WidescreenStoryboard: 1

[Editor]
Bookmarks: 12024,26141,37435,51553,76965,90906
DistanceSpacing: 1
BeatDivisor: 4
GridSize: 32
TimelineZoom: 2.3

[Metadata]
Title:Kiseki Melody
TitleUnicode:奇跡メロディ
Artist:Rin'ca
ArtistUnicode:Rin'ca
Creator:frozz
Version:Hard
Source:D.S.i.F. -Dal Segno- in Future
Tags:visual novel vn eroge dsif circus yozuca* nekusam japanese video game vgm pop jpop j-pop -keqing
BeatmapID:3288764
BeatmapSetID:1610753

[Difficulty]
HPDrainRate:5
CircleSize:3.5
OverallDifficulty:6.5
ApproachRate:8
SliderMultiplier:1.5
SliderTickRate:1

[Events]
//Background and Video events
Video,0,"Rin'ca - Kiseki Melody.mp4"
0,0,"Rin'ca - Kiseki Melody 3.jpg",0,0
//Break Periods
//Storyboard Layer 0 (Background)
//Storyboard Layer 1 (Fail)
//Storyboard Layer 2 (Pass)
//Storyboard Layer 3 (Foreground)
//Storyboard Layer 4 (Overlay)
//Storyboard Sound Samples

[TimingPoints]
730,352.941176470588,4,2,1,40,1,0
730,-142.857142857143,4,2,1,40,0,0
4965,-100,4,2,1,70,0,0
5494,-142.857142857143,4,2,1,40,0,0
6377,-125,4,2,1,60,0,0
9200,-100,4,2,1,60,0,0
12024,-100,4,2,1,70,0,0
26141,-142.857142857143,4,2,1,50,0,0
37435,-125,4,2,1,60,0,0
48729,-100,4,2,1,60,0,0
51553,-83.3333333333333,4,2,1,85,0,1
76259,-111.111111111111,4,2,1,85,0,1
76965,-100,4,2,1,75,0,0
77671,-107.52688172043,4,2,1,75,0,0
80141,-100,4,2,1,75,0,0
90994,-100,4,2,1,5,0,0

[Colours]
Combo1 : 106,255,106
Combo2 : 255,106,181
Combo3 : 255,255,106
Combo4 : 106,106,255

[HitObjects]
362,257,730,6,0,P|405:234|465:261,1,104.999996795654,2|2,1:2|0:0,0:0:0:0:
462,336,1259,2,0,P|419:359|359:332,1,104.999996795654,2|2,1:2|0:0,0:0:0:0:
292,307,1788,1,2,0:0:0:0:
292,307,1965,1,2,0:0:0:0:
205,261,2141,6,0,P|192:312|184:363,1,104.999996795654,2|2,1:2|0:0,0:0:0:0:
97,343,2671,2,0,P|109:291|117:240,1,104.999996795654,2|2,1:2|0:0,0:0:0:0:
53,185,3200,1,2,0:0:0:0:
53,185,3377,1,2,0:0:0:0:
100,95,3553,6,0,L|217:74,1,104.999996795654,2|2,1:2|0:0,0:0:0:0:
278,27,4082,2,0,L|299:144,1,104.999996795654,2|2,1:2|0:0,0:0:0:0:
346,205,4612,1,2,0:0:0:0:
346,205,4788,1,2,0:0:0:0:
242,223,4965,5,10,1:2:0:0:
205,350,5141,1,10,0:0:0:0:
22,227,5494,5,2,0:0:0:0:
63,311,5671,2,0,P|76:364|78:378,2,52.4999983978272,2|2|2,3:2|0:0|0:0,0:0:0:0:
89,110,6377,6,0,P|154:117|215:157,1,120,6|2,1:2|3:2,0:0:0:0:
288,120,6906,2,0,P|306:87|315:42,1,60,0|2,0:0|3:2,0:0:0:0:
397,34,7259,1,0,0:0:0:0:
397,34,7435,2,0,P|425:43|451:58,1,60,2|0,3:2|0:0,0:0:0:0:
481,158,7788,6,0,P|460:205|441:283,1,120,2|2,3:2|3:2,0:0:0:0:
365,321,8318,2,0,P|382:350|395:385,2,60,0|2|0,0:0|3:2|0:0,0:0:0:0:
274,294,8847,1,2,3:2:0:0:
30,206,9200,5,8,1:2:0:0:
56,313,9377,1,8,0:0:0:0:
202,78,9729,5,8,1:2:0:0:
95,104,9906,1,8,0:0:0:0:
325,260,10258,5,8,1:2:0:0:
299,153,10435,1,8,0:0:0:0:
158,378,10788,5,8,1:2:0:0:
265,352,10965,1,8,0:0:0:0:
30,206,11318,6,0,L|43:260,3,37.5,8|8|8|8,0:0|0:0|0:0|0:0,0:0:0:0:
46,276,11671,2,0,L|56:313,3,37.5,10|8|8|8,0:0|0:0|0:0|0:0,0:0:0:0:
107,345,12024,6,0,P|174:310|151:222,1,150,4|10,1:0|0:0,0:0:0:0:
112,174,12553,1,0,1:2:0:0:
112,174,12641,1,8,0:0:0:0:
112,174,12729,2,0,P|122:124|126:83,1,75,2|0,1:2|1:2,0:0:0:0:
209,60,13082,2,0,P|259:70|300:74,1,75,10|0,0:0|0:0,0:0:0:0:
365,34,13435,1,0,1:2:0:0:
480,193,13788,6,0,P|449:240|438:286,1,75,10|0,0:0|1:2,0:0:0:0:
455,356,14141,2,0,P|419:276|340:278,1,150,2|10,0:0|0:0,0:0:0:0:
269,239,14671,1,8,0:0:0:0:
269,239,14759,1,8,0:0:0:0:
269,239,14847,2,0,P|207:256|111:266,1,150,0|10,1:2|0:0,0:0:0:0:
39,212,15377,1,0,1:2:0:0:
39,212,15465,1,8,0:0:0:0:
39,212,15553,2,0,P|29:165|19:130,1,75,0|0,1:2|1:2,0:0:0:0:
81,57,15906,6,0,P|127:22|204:48,1,112.5,10|0,0:0|0:0,0:0:0:0:
192,42,16259,2,0,L|295:25,1,75,2|0,1:2|0:0,0:0:0:0:
283,113,16612,2,0,L|209:125,1,75,10|0,0:0|1:2,0:0:0:0:
195,215,16965,2,0,P|126:234|127:325,1,150,2|10,0:0|0:0,0:0:0:0:
207,377,17494,5,8,0:0:0:0:
207,377,17582,1,8,0:0:0:0:
207,377,17671,2,0,P|275:359|390:344,1,150,2|10,1:2|0:0,0:0:0:0:
415,281,18200,1,0,1:2:0:0:
415,281,18288,1,8,0:0:0:0:
415,281,18377,2,0,P|392:242|372:206,1,75,2|0,1:2|1:2,0:0:0:0:
420,129,18729,2,0,P|459:106|495:86,1,75,10|0,0:0|0:0,0:0:0:0:
467,2,19082,1,0,1:2:0:0:
271,88,19435,6,0,P|230:82|188:72,1,75,10|0,0:0|1:2,0:0:0:0:
248,180,19788,2,0,P|211:171|174:166,1,75,10|0,0:0|1:2,0:0:0:0:
106,235,20141,2,0,L|120:291,3,37.5,8|8|8|8,0:0|0:0|0:0|0:0,0:0:0:0:
89,317,20494,6,0,P|163:333|251:363,1,150,6|8,1:2|0:0,0:0:0:0:
330,322,21024,2,0,P|346:248|376:160,1,150,2|0,1:2|1:2,0:0:0:0:
448,238,21553,2,0,P|435:275|424:347,1,75,8|8,0:0|0:0,0:0:0:0:
428,310,21818,1,8,0:0:0:0:
428,310,21906,1,6,1:2:0:0:
254,242,22259,6,0,P|210:229|157:218,1,75,0|0,1:2|1:2,0:0:0:0:
96,165,22612,1,8,0:0:0:0:
14,232,22788,1,8,0:0:0:0:
53,327,22965,1,8,0:0:0:0:
156,322,23141,1,8,0:0:0:0:
181,222,23318,1,6,1:2:0:0:
256,192,23494,12,6,26141,1:2:0:0:
384,232,26494,6,0,P|363:247|339:257,1,52.4999983978272,2|0,0:0|0:0,0:0:0:0:
243,242,26847,1,2,0:0:0:0:
243,242,27024,2,0,P|269:303|286:358,1,104.999996795654,2|0,0:0|0:0,0:0:0:0:
438,366,27906,2,0,P|477:348|481:275,2,104.999996795654,2|0|0,0:0|0:0|0:0,0:0:0:0:
469,206,28965,2,0,P|451:155|429:87,1,104.999996795654,2|0,0:0|0:0,0:0:0:0:
361,64,29494,2,0,P|310:82|242:104,2,104.999996795654,2|0|2,0:0|0:0|0:0,0:0:0:0:
95,70,31082,6,0,P|60:56|24:50,2,52.4999983978272,2|2|2,0:0|0:0|0:0,0:0:0:0:
191,55,31612,1,2,0:0:0:0:
191,55,31788,2,0,P|169:103|152:168,1,104.999996795654,2|0,0:0|0:0,0:0:0:0:
206,224,32318,2,0,P|256:238|304:260,2,104.999996795654,2|0|2,0:0|0:0|0:0,0:0:0:0:
131,269,33200,1,2,0:0:0:0:
269,373,33553,2,0,P|319:360|372:355,2,104.999996795654,2|0|0,0:0|0:0|0:0,0:0:0:0:
58,342,34612,6,0,P|49:293|23:221,1,104.999996795654,2|0,0:0|0:0,0:0:0:0:
56,156,35141,1,2,0:0:0:0:
56,156,35318,2,0,P|105:147|177:121,1,104.999996795654,2|8,0:0|0:0,0:0:0:0:
202,55,35847,5,0,1:2:0:0:
202,55,35935,1,0,1:2:0:0:
202,55,36024,1,10,1:2:0:0:
308,60,36200,1,8,0:0:0:0:
419,295,36729,5,10,1:2:0:0:
424,189,36905,1,8,0:0:0:0:
231,240,37435,5,6,1:2:0:0:
67,214,37788,2,0,P|56:158|49:129,2,60,2|2|2,1:2|0:0|1:2,0:0:0:0:
3,285,38318,2,0,P|38:303|71:321,1,60,2|0,0:0|1:2,0:0:0:0:
134,376,38671,1,2,0:0:0:0:
134,376,38847,2,0,P|169:358|202:340,1,60,2|0,1:2|0:0,0:0:0:0:
281,316,39200,2,0,P|338:330|359:405,2,120,2|2|2,1:2|1:2|1:2,0:0:0:0:
152,178,40259,6,0,P|133:113|112:47,1,120,6|10,1:2|0:0,0:0:0:0:
214,38,40788,2,0,P|233:103|254:169,1,120,2|2,1:2|1:2,0:0:0:0:
464,215,41494,6,0,P|503:172|494:99,1,120,6|8,1:2|0:0,0:0:0:0:
460,31,42024,1,0,1:2:0:0:
406,102,42200,1,6,1:2:0:0:
406,102,42377,2,0,P|383:136|380:170,1,60,2|0,0:0|1:2,0:0:0:0:
313,225,42729,2,0,P|336:259|339:293,1,60,10|8,0:0|0:0,0:0:0:0:
339,277,42994,1,8,0:0:0:0:
339,277,43082,6,0,P|259:269|194:262,1,120,6|10,1:2|0:0,0:0:0:0:
150,209,43612,1,2,1:2:0:0:
150,209,43700,1,8,0:0:0:0:
150,209,43788,2,0,P|133:241|131:281,1,60,0|0,1:2|1:2,0:0:0:0:
101,355,44141,2,0,L|208:338,1,90,10|0,0:0|0:0,0:0:0:0:
208,349,44494,6,0,P|267:358|351:381,1,120,2|8,1:2|0:0,0:0:0:0:
417,347,45024,1,2,1:2:0:0:
417,347,45112,1,8,0:0:0:0:
417,347,45200,2,0,P|432:304|423:267,1,60,0|0,1:2|1:2,0:0:0:0:
485,223,45553,2,0,L|467:123,1,90,10|0,0:0|0:0,0:0:0:0:
462,103,45906,6,0,L|476:37,2,60,6|0|8,1:2|1:2|0:0,0:0:0:0:
374,134,46435,1,0,1:2:0:0:
374,134,46524,1,8,0:0:0:0:
374,134,46612,2,0,L|353:69,1,60,0|0,1:2|1:2,0:0:0:0:
268,37,46965,1,8,0:0:0:0:
123,137,47318,6,0,P|73:132|41:128,2,60,2|0|10,1:2|1:2|0:0,0:0:0:0:
195,210,47847,1,0,1:2:0:0:
195,210,47935,1,8,0:0:0:0:
195,210,48024,2,0,P|190:260|186:292,1,60,2|0,1:2|1:2,0:0:0:0:
121,331,48377,1,10,0:0:0:0:
32,284,48553,5,8,0:0:0:0:
32,284,48641,1,8,0:0:0:0:
32,284,48729,2,0,P|23:204|8:124,1,150,6|8,1:2|0:0,0:0:0:0:
77,59,49259,2,0,P|157:50|219:38,1,112.5,6|0,1:2|0:0,0:0:0:0:
210,57,49612,2,0,P|250:75|274:104,1,75,10|2,0:0|1:2,0:0:0:0:
365,77,49965,1,10,0:0:0:0:
365,77,50847,5,2,1:2:0:0:
446,136,51024,1,8,0:0:0:0:
446,136,51112,1,8,0:0:0:0:
446,136,51200,2,0,L|435:194,3,37.5,10|8|8|8,0:0|0:0|0:0|0:0,0:0:0:0:
505,213,51553,6,0,B|427:230|427:230|424:237|424:237|322:261,1,179.999994506836,4|10,1:0|0:0,0:0:0:0:
262,313,52082,1,0,1:2:0:0:
262,313,52171,1,8,0:0:0:0:
262,313,52259,2,0,P|242:262|260:213,1,89.9999972534181,2|0,1:2|1:2,0:0:0:0:
192,151,52612,2,0,P|212:100|130:35,1,134.999995880127,10|0,0:0|0:0,0:0:0:0:
160,26,52965,2,0,L|65:43,1,89.9999972534181,2|0,1:2|0:0,0:0:0:0:
0,123,53318,5,8,0:0:0:0:
60,197,53494,2,0,P|77:257|83:300,1,89.9999972534181,0|0,1:2|3:2,0:0:0:0:
85,384,53847,1,0,1:2:0:0:
159,324,54023,2,0,P|219:307|262:301,1,89.9999972534181,10|8,0:0|0:0,0:0:0:0:
255,307,54288,1,8,0:0:0:0:
262,310,54377,2,0,P|329:326|428:357,1,134.999995880127,2|0,1:2|0:0,0:0:0:0:
408,337,54729,5,8,0:0:0:0:
493,290,54906,1,0,1:2:0:0:
493,290,54994,1,8,0:0:0:0:
493,290,55082,2,0,P|513:241|499:193,1,89.9999972534181,0|0,1:2|1:2,0:0:0:0:
419,146,55435,2,0,L|319:175,1,89.9999972534181,8|0,0:0|0:0,0:0:0:0:
243,190,55788,6,0,L|214:90,1,89.9999972534181,2|0,1:2|3:2,0:0:0:0:
179,1,56141,2,0,L|78:29,1,89.9999972534181,10|0,0:0|1:2,0:0:0:0:
5,56,56494,2,0,L|33:156,1,89.9999972534181,2|0,3:2|1:2,0:0:0:0:
36,252,56847,2,0,L|136:223,1,89.9999972534181,10|8,0:0|0:0,0:0:0:0:
131,231,57112,1,8,0:0:0:0:
140,236,57200,6,0,B|241:240|188:334|308:327,1,179.999994506836,2|10,1:2|0:0,0:0:0:0:
385,346,57729,1,0,1:2:0:0:
385,346,57818,1,8,0:0:0:0:
385,346,57906,2,0,P|373:299|353:249,1,89.9999972534181,2|0,1:2|1:2,0:0:0:0:
402,176,58259,2,0,P|444:160|487:149,1,89.9999972534181,10|0,0:0|0:0,0:0:0:0:
507,50,58612,1,0,1:2:0:0:
318,109,58965,6,0,P|271:93|229:55,1,89.9999972534181,10|0,0:0|1:2,0:0:0:0:
142,14,59318,2,0,P|151:62|139:118,1,89.9999972534181,2|0,0:0|1:2,0:0:0:0:
148,214,59671,2,0,P|185:181|239:163,1,89.9999972534181,10|0,0:0|0:0,0:0:0:0:
228,278,60024,6,0,P|108:247|39:230,1,179.999994506836,6|8,1:2|0:0,0:0:0:0:
20,329,60553,1,2,1:2:0:0:
20,329,60729,2,0,P|107:350|194:373,1,179.999994506836,2|8,1:2|0:0,0:0:0:0:
310,358,61259,5,10,0:0:0:0:
310,358,61347,1,8,0:0:0:0:
310,358,61435,2,0,P|318:312|339:268,1,89.9999972534181,2|0,1:2|1:2,0:0:0:0:
396,198,61788,2,0,P|442:206|486:227,1,89.9999972534181,8|2,0:0|1:2,0:0:0:0:
471,116,62141,2,0,L|460:59,3,44.999998626709,10|8|8|8,1:2|0:0|0:0|0:0,0:0:0:0:
407,39,62494,2,0,L|350:49,3,44.999998626709,10|8|8|8,0:0|0:0|0:0|0:0,0:0:0:0:
310,107,62847,6,0,B|219:78|236:167|134:135,1,179.999994506836,4|10,1:1|0:0,0:0:0:0:
62,87,63377,1,0,1:2:0:0:
62,87,63465,1,8,0:0:0:0:
62,87,63553,2,0,P|45:137|58:190,1,89.9999972534181,2|0,1:2|1:2,0:0:0:0:
113,247,63906,2,0,P|155:296|128:376,1,134.999995880127,10|0,0:0|0:0,0:0:0:0:
158,374,64259,2,0,L|255:359,1,89.9999972534181,2|0,1:2|0:0,0:0:0:0:
351,371,64612,5,8,0:0:0:0:
392,289,64788,2,0,P|401:236|404:190,1,89.9999972534181,0|0,1:2|3:2,0:0:0:0:
478,126,65141,1,0,1:2:0:0:
396,85,65317,2,0,P|343:76|297:73,1,89.9999972534181,10|8,0:0|0:0,0:0:0:0:
299,68,65582,1,8,0:0:0:0:
291,63,65671,2,0,P|235:106|241:173,1,134.999995880127,0|0,1:2|0:0,0:0:0:0:
250,175,66024,5,10,0:0:0:0:
216,281,66200,1,0,1:2:0:0:
216,281,66288,1,8,0:0:0:0:
216,281,66377,2,0,P|164:294|102:317,1,89.9999972534181,0|0,1:2|1:2,0:0:0:0:
46,258,66729,2,0,P|29:179|4:116,1,134.999995880127,10|0,0:0|0:0,0:0:0:0:
31,92,67082,6,0,P|85:84|117:191,1,179.999994506836,2|10,1:2|0:0,0:0:0:0:
46,258,67612,2,0,P|-21:306|12:383,1,179.999994506836,6|0,1:2|1:2,0:0:0:0:
119,362,68141,2,0,P|161:347|205:337,1,89.9999972534181,8|8,0:0|0:0,0:0:0:0:
217,338,68406,1,8,0:0:0:0:
228,338,68494,6,0,B|274:312|307:302|307:302|295:257|289:190,1,179.999994506836,6|8,1:2|0:0,0:0:0:0:
195,162,69024,2,0,B|191:115|179:70|179:70|212:60|258:34,1,179.999994506836,6|0,1:2|1:2,0:0:0:0:
331,97,69553,1,8,0:0:0:0:
394,10,69729,2,0,P|416:63|466:180,1,179.999994506836,6|0,1:2|1:2,0:0:0:0:
398,249,70259,2,0,P|361:219|324:191,1,89.9999972534181,8|8,0:0|0:3,0:0:0:0:
271,257,70612,2,0,P|307:284|342:313,1,89.9999972534181,6|0,0:3|1:2,0:0:0:0:
286,377,70965,2,0,P|249:347|212:319,1,89.9999972534181,10|8,0:0|0:0,0:0:0:0:
203,320,71229,1,8,0:0:0:0:
191,319,71318,6,0,P|130:305|145:199,1,179.999994506836,4|8,1:1|0:0,0:0:0:0:
66,143,71847,2,0,P|77:85|75:36,1,89.9999972534181,2|8,1:2|0:0,0:0:0:0:
177,0,72200,1,0,1:2:0:0:
247,80,72377,2,0,P|305:91|354:89,1,89.9999972534181,10|0,0:0|1:2,0:0:0:0:
422,15,72729,2,0,P|392:93|361:194,2,179.999994506836,10|8|10,0:0|0:0|0:0,0:0:0:0:
496,97,73612,5,0,1:2:0:0:
496,97,73700,1,2,1:2:0:0:
496,97,73788,2,0,P|477:147|463:206,1,89.9999972534181,8|2,0:0|1:2,0:0:0:0:
471,191,74053,1,0,1:2:0:0:
475,200,74141,2,0,P|462:243|446:285,1,89.9999972534181,10|0,0:0|0:0,0:0:0:0:
356,336,74494,1,8,0:0:0:0:
280,276,74671,2,0,P|216:289|167:293,2,89.9999972534181,0|8|0,1:2|0:0|1:2,0:0:0:0:
321,183,75200,5,8,0:0:0:0:
321,183,75288,1,8,0:0:0:0:
321,183,75377,2,0,L|308:127,2,44.999998626709,10|8|6,0:0|0:0|1:2,0:0:0:0:
124,384,76082,5,8,0:0:0:0:
124,384,76171,1,8,0:0:0:0:
124,384,76259,2,0,P|108:326|77:229,1,134.999995880127,6|0,1:2|1:2,0:0:0:0:
138,40,76965,6,0,P|192:48|290:71,1,150,4|8,1:1|0:0,0:0:0:0:
366,137,77494,1,2,1:2:0:0:
258,166,77671,2,0,B|179:182|179:182|114:133|114:133|105:213|105:213|38:260|38:260|112:295|112:295|136:373|136:373|191:313|191:313|272:315|272:315|233:242|233:242|254:180,1,767.250023999978,2|0,1:2|0:0,0:0:0:0:
345,222,79788,1,0,1:2:0:0:
212,54,80141,5,10,0:0:0:0:
119,44,80318,1,0,1:2:0:0:
119,44,80406,1,8,0:0:0:0:
119,44,80494,2,0,P|132:92|147:150,1,75,0|0,1:2|1:2,0:0:0:0:
91,193,80847,2,0,P|53:208|54:292,1,112.5,10|0,0:0|0:0,0:0:0:0:
52,292,81200,6,0,L|141:277,1,75,2|0,1:2|3:0,0:0:0:0:
224,265,81553,2,0,L|239:354,1,75,10|0,0:0|1:2,0:0:0:0:
333,325,81906,2,0,P|380:302|381:201,1,150,2|10,3:2|0:0,0:0:0:0:
464,140,82435,5,8,0:0:0:0:
464,140,82524,1,8,0:0:0:0:
464,140,82612,2,0,P|396:128|289:104,1,150,2|10,1:2|0:0,0:0:0:0:
258,41,83141,1,0,1:2:0:0:
258,41,83229,1,8,0:0:0:0:
258,41,83318,2,0,P|224:81|222:130,1,75,2|0,1:2|1:2,0:0:0:0:
125,116,83671,2,0,P|85:82|36:80,1,75,10|0,0:0|0:0,0:0:0:0:
0,147,84024,1,0,1:2:0:0:
133,284,84377,6,0,P|184:261|221:235,1,75,10|0,0:0|1:2,0:0:0:0:
178,366,84729,2,0,P|210:347|245:332,1,75,10|0,0:0|1:2,0:0:0:0:
340,347,85082,2,0,L|332:407,3,37.5,10|8|8|8,0:0|0:0|0:0|0:0,0:0:0:0:
383,369,85435,6,0,P|431:344|433:239,1,150,6|8,1:2|0:0,0:0:0:0:
500,173,85965,2,0,P|475:125|370:123,1,150,2|0,1:2|1:2,0:0:0:0:
300,68,86494,2,0,P|290:104|298:140,1,75,8|8,0:0|0:0,0:0:0:0:
298,140,86759,1,8,0:0:0:0:
298,140,86847,1,6,1:2:0:0:
272,340,87200,6,0,P|316:327|369:316,1,75,0|0,1:2|1:2,0:0:0:0:
430,378,87553,1,8,0:0:0:0:
512,311,87729,1,8,0:0:0:0:
473,216,87906,1,8,0:0:0:0:
370,221,88082,1,8,0:0:0:0:
345,321,88259,1,6,1:2:0:0:
256,192,88435,12,0,90553,0:0:0:0:
256,192,90906,5,4,1:1:0:0:
256,192,91082,12,0,96729,0:0:0:0:
