osu file format v14

[General]
AudioFilename: audio.mp3
AudioLeadIn: 0
PreviewTime: 51200
Countdown: 0
SampleSet: Soft
StackLeniency: 0.7
Mode: 0
LetterboxInBreaks: 0
WidescreenStoryboard: 0

[Editor]
DistanceSpacing: 1
BeatDivisor: 4
GridSize: 32
TimelineZoom: 1.7

[Metadata]
Title:Kiseki Melody
TitleUnicode:奇跡メロディ
Artist:Rin'ca
ArtistUnicode:Rin'ca
Creator:Shunao
Version:Normal
Source:D.S.i.F. -Dal Segno- in Future
Tags:visual novel eroge yozuca* Nekusam opening circus shogunmoon agatsu curi [c_u_r_i]
BeatmapID:1652573
BeatmapSetID:787362

[Difficulty]
HPDrainRate:4
CircleSize:3.5
OverallDifficulty:4
ApproachRate:5
SliderMultiplier:1
SliderTickRate:1

[Events]
//Background and Video events
Video,0,"videoo.mp4"
0,0,"normal.jpg",0,0
//Break Periods
2,26502,34824
//Storyboard Layer 0 (Background)
//Storyboard Layer 1 (Fail)
//Storyboard Layer 2 (Pass)
//Storyboard Layer 3 (Foreground)
//Storyboard Sound Samples

[TimingPoints]
730,352.941176470588,4,2,2,40,1,0
6377,-100,4,2,2,45,0,0
9200,-100,4,2,2,50,0,0
12024,-100,4,2,2,60,0,0
26141,-100,4,2,2,35,0,0
36024,-100,4,2,2,50,0,0
37435,-100,4,2,2,60,0,0
45906,-100,4,2,2,50,0,0
48729,-100,4,2,2,60,0,0
51553,-100,4,2,2,70,0,1
68494,-100,4,2,2,60,0,0
71318,-100,4,2,2,70,0,1
75553,-100,4,2,2,60,0,0
93906,-100,4,2,2,50,0,0
95318,-100,4,2,2,30,0,0
96377,-100,4,2,2,10,0,0
96729,-100,4,2,2,5,0,0

[Colours]
Combo1 : 245,10,187
Combo2 : 58,51,147
Combo3 : 187,221,255
Combo4 : 242,24,57

[HitObjects]
294,66,730,6,0,P|226:52|169:120,1,150,2|2,0:0|0:0,0:0:0:0:
170,153,1435,2,0,P|176:202|179:261,1,100,0|0,1:0|0:0,0:0:0:0:
252,321,2141,2,0,P|327:303|387:349,1,150,2|2,0:0|0:0,0:0:0:0:
422,373,2847,2,0,L|433:265,1,100,0|0,1:0|0:0,0:0:0:0:
501,201,3553,6,0,L|485:43,1,150,2|2,0:0|0:0,0:0:0:0:
436,44,4259,2,0,P|385:63|326:40,1,100,0|0,1:0|0:0,0:0:0:0:
246,21,4965,5,4,3:0:0:0:
246,21,5141,1,4,3:0:0:0:
164,78,5494,2,0,P|133:72|110:70,2,50,2|0|2,0:0|1:0|0:0,0:0:0:0:
203,109,6024,1,2,0:0:0:0:
286,163,6377,6,0,L|273:271,1,100,14|8,0:0|0:0,0:0:0:0:
185,309,7082,2,0,L|172:201,1,100,8|8,0:0|0:0,0:0:0:0:
88,156,7788,2,0,P|36:154|-7:117,2,100,10|8|8,0:0|0:0|0:0,0:0:0:0:
178,112,8847,1,8,0:0:0:0:
276,128,9200,6,0,L|337:122,1,50,4|4,3:0|3:0,0:0:0:0:
390,46,9729,2,0,L|452:52,1,50,4|4,3:0|3:0,0:0:0:0:
511,120,10259,2,0,P|506:151|503:183,1,50,4|4,3:0|3:0,0:0:0:0:
405,187,10788,2,0,P|410:220|413:254,1,50,4|4,3:0|3:0,0:0:0:0:
392,335,11318,2,0,L|334:329,1,50,0|8,1:0|0:0,0:0:0:0:
310,290,11671,2,0,L|247:297,1,50,8|8,0:0|0:0,0:0:0:0:
221,327,12024,6,0,L|108:315,1,100,14|10,0:0|0:0,0:0:0:0:
52,244,12729,2,0,P|43:199|65:148,1,100,10|10,0:0|0:0,0:0:0:0:
156,112,13435,2,0,L|256:102,1,100,8|10,0:0|0:0,0:0:0:0:
336,42,14141,1,10,0:0:0:0:
421,93,14494,2,0,L|416:147,1,50,10|0,0:0|0:0,0:0:0:0:
379,176,14847,6,0,L|390:289,1,100,8|10,0:0|0:0,0:0:0:0:
483,309,15553,2,0,L|494:197,1,100,8|10,0:0|0:0,0:0:0:0:
509,110,16259,1,10,0:0:0:0:
451,28,16612,1,10,0:0:0:0:
351,34,16965,1,2,0:0:0:0:
305,123,17318,1,10,0:0:0:0:
234,194,17671,6,0,P|186:209|127:188,1,100,10|10,0:0|0:0,0:0:0:0:
44,162,18377,2,0,L|53:271,1,100,10|10,0:0|0:0,0:0:0:0:
103,347,19082,1,8,0:0:0:0:
201,327,19435,1,2,0:0:0:0:
298,349,19788,2,0,P|328:345|355:351,1,50,8|8,3:0|3:0,0:0:0:0:
396,356,20141,2,0,P|429:360|463:355,1,50,10|8,0:0|0:0,0:0:0:0:
490,336,20494,6,0,L|503:221,1,100,14|8,0:0|0:0,0:0:0:0:
486,188,21024,1,10,0:0:0:0:
438,100,21377,2,0,L|389:96,1,50,0|8,1:0|0:0,0:0:0:0:
350,73,21729,1,10,0:0:0:0:
350,73,21906,2,0,L|245:81,1,100,6|8,0:0|3:0,0:0:0:0:
211,111,22435,1,8,3:0:0:0:
211,111,22612,2,0,L|151:105,1,50,8|8,3:0|3:0,0:0:0:0:
130,66,22965,2,0,L|76:72,1,50,8|8,3:0|3:0,0:0:0:0:
32,85,23318,5,4,1:2:0:0:
256,192,23406,12,4,26141,0:0:0:0:
178,322,36024,6,0,L|171:257,1,50,4|4,3:0|3:0,0:0:0:0:
59,174,36729,2,0,L|66:109,1,50,4|4,3:0|3:0,0:0:0:0:
190,42,37435,6,0,P|237:24|297:44,1,100,4|0,0:0|1:0,0:0:0:0:
317,72,37965,1,2,0:0:0:0:
317,72,38141,2,0,L|428:66,1,100,0|0,1:0|1:0,0:0:0:0:
467,71,38671,2,0,P|496:135|458:219,1,150,2|0,0:0|1:0,0:0:0:0:
383,256,39553,1,0,1:0:0:0:
288,224,39906,1,0,1:0:0:0:
193,255,40259,6,0,L|200:367,1,100,6|8,0:0|0:0,0:0:0:0:
155,379,40788,2,0,P|104:365|56:376,1,100,2|2,0:0|0:0,0:0:0:0:
6,289,41494,2,0,L|13:176,1,100,6|8,0:0|0:0,0:0:0:0:
23,140,42024,1,8,0:0:0:0:
23,140,42200,2,0,P|68:155|126:137,1,100,6|0,0:0|1:0,0:0:0:0:
157,112,42729,1,8,0:0:0:0:
251,143,43082,6,0,L|245:245,1,100,12|8,0:0|0:0,0:0:0:0:
253,292,43612,2,0,P|289:318|359:312,1,100,0|0,0:0|1:0,0:0:0:0:
391,306,44141,1,8,0:0:0:0:
479,259,44494,2,0,L|473:153,1,100,8|8,0:0|0:0,0:0:0:0:
451,113,45024,2,0,P|401:119|347:88,1,100,8|0,0:0|1:0,0:0:0:0:
315,70,45553,1,8,0:0:0:0:
224,28,45906,6,0,B|121:-8|133:79|16:36,1,200,6|8,0:0|3:0,0:0:0:0:
7,138,46965,1,8,3:0:0:0:
40,232,47318,2,0,P|85:225|150:235,1,100,8|8,3:0|3:0,0:0:0:0:
230,271,48024,1,8,3:0:0:0:
324,237,48377,1,8,0:0:0:0:
392,164,48729,6,0,P|378:230|373:332,1,150,4|2,0:0|0:0,0:0:0:0:
466,346,49612,2,0,P|475:309|479:274,1,50,8|8,0:0|3:0,0:0:0:0:
483,247,49965,1,4,0:0:0:0:
327,51,50847,2,0,L|321:109,1,50,0|8,1:0|0:0,0:0:0:0:
277,125,51200,2,0,L|282:182,1,50,8|8,0:0|0:0,0:0:0:0:
277,224,51553,6,0,P|232:227|183:269,1,100,4|8,0:0|0:0,0:0:0:0:
123,335,52259,1,8,0:0:0:0:
29,299,52612,2,0,P|27:267|20:234,1,50,8|0,0:0|0:0,0:0:0:0:
4,204,52965,2,0,P|13:156|36:98,1,100,8|8,0:0|0:0,0:0:0:0:
96,31,53671,2,0,P|141:50|200:37,1,100,2|8,0:0|0:0,0:0:0:0:
287,17,54377,5,8,0:0:0:0:
374,64,54729,2,0,L|364:171,1,100,8|8,0:0|0:0,0:0:0:0:
438,231,55435,1,8,0:0:0:0:
415,328,55788,2,0,P|367:318|308:345,1,100,10|10,0:0|0:0,0:0:0:0:
229,378,56494,1,2,0:0:0:0:
129,370,56847,2,0,L|125:315,1,50,10|0,0:0|0:0,0:0:0:0:
118,270,57200,6,0,P|168:252|227:268,1,100,10|8,0:0|0:0,0:0:0:0:
309,233,57906,2,0,L|300:120,1,100,8|8,0:0|0:0,0:0:0:0:
200,131,58612,2,0,P|150:144|99:128,1,100,8|8,0:0|0:0,0:0:0:0:
152,43,59318,1,2,0:0:0:0:
252,28,59671,2,0,L|305:21,1,50,8|0,0:0|0:0,0:0:0:0:
331,61,60024,6,0,B|362:137|301:130|334:215,1,150,12|0,0:0|1:0,0:0:0:0:
337,255,60729,2,0,P|410:245|469:294,1,150,8|8,0:0|0:0,0:0:0:0:
492,333,61435,2,0,B|474:289|474:289|500:182,1,150,0|8,1:0|3:0,0:0:0:0:
512,142,62141,1,8,0:0:0:0:
422,98,62494,2,0,P|414:73|411:43,1,50,8|8,0:0|0:0,0:0:0:0:
364,30,62847,6,0,P|318:40|252:22,1,100,4|8,0:0|0:0,0:0:0:0:
167,13,63553,1,8,0:0:0:0:
119,101,63906,1,8,0:0:0:0:
186,174,64259,2,0,L|176:287,1,100,8|8,0:0|0:0,0:0:0:0:
137,365,64965,2,0,P|88:350|37:363,1,100,2|8,0:0|0:0,0:0:0:0:
8,266,65671,5,8,0:0:0:0:
64,183,66024,2,0,L|55:68,1,100,8|10,0:0|0:0,0:0:0:0:
133,19,66729,1,8,0:0:0:0:
215,75,67082,2,0,P|261:88|311:72,1,100,8|8,0:0|0:0,0:0:0:0:
350,43,67612,2,0,L|362:158,1,100,2|8,0:0|3:0,0:0:0:0:
397,176,68141,1,8,0:0:0:0:
360,268,68494,6,0,P|294:240|253:259,1,100,4|8,0:0|0:0,0:0:0:0:
234,283,69024,2,0,L|75:270,1,150,4|8,0:0|0:0,0:0:0:0:
48,236,69729,2,0,P|47:168|111:116,1,150,4|8,0:0|0:0,0:0:0:0:
201,89,70612,2,0,L|256:83,1,50,8|4,3:0|3:0,0:0:0:0:
291,54,70965,2,0,L|359:63,1,50,4|8,3:0|3:0,0:0:0:0:
378,93,71318,6,0,P|395:141|382:199,2,100,4|8|8,0:0|0:0|0:0,0:0:0:0:
296,150,72377,1,8,0:0:0:0:
205,192,72729,2,0,L|98:185,1,100,8|8,0:0|0:0,0:0:0:0:
13,226,73435,1,8,0:0:0:0:
27,324,73788,1,8,0:0:0:0:
119,360,74141,6,0,P|166:375|224:362,2,100,8|8|8,0:0|0:0|0:0,0:0:0:0:
173,275,75200,2,0,L|171:207,1,50,8|8,0:0|0:0,0:0:0:0:
194,180,75553,2,0,P|264:200|344:150,1,150,4|8,0:0|0:0,0:0:0:0:
368,134,76259,1,8,0:0:0:0:
466,119,76612,1,8,3:0:0:0:
502,211,76965,6,0,L|492:329,1,100,14|10,0:0|0:0,0:0:0:0:
411,368,77671,2,0,P|367:346|300:359,1,100,10|10,0:0|0:0,0:0:0:0:
231,298,78377,2,0,L|221:177,1,100,8|10,0:0|0:0,0:0:0:0:
157,122,79082,1,10,0:0:0:0:
194,29,79435,2,0,L|256:23,1,50,10|0,0:0|0:0,0:0:0:0:
288,47,79788,6,0,L|391:57,1,100,8|10,0:0|0:0,0:0:0:0:
366,154,80494,2,0,L|475:143,1,100,8|10,0:0|0:0,0:0:0:0:
505,237,81200,1,10,0:0:0:0:
463,328,81553,1,10,0:0:0:0:
366,353,81906,1,2,0:0:0:0:
275,310,82259,1,10,0:0:0:0:
252,212,82612,6,0,L|258:102,1,100,10|10,0:0|0:0,0:0:0:0:
166,69,83318,2,0,L|160:168,1,100,10|10,0:0|0:0,0:0:0:0:
71,214,84023,1,8,0:0:0:0:
81,313,84376,1,2,0:0:0:0:
179,331,84729,2,0,P|212:328|243:322,1,50,8|8,3:0|3:0,0:0:0:0:
273,303,85082,2,0,L|280:373,1,50,10|8,0:0|0:0,0:0:0:0:
321,377,85435,6,0,P|367:358|430:370,1,100,14|8,0:0|0:0,0:0:0:0:
464,375,85965,1,10,0:0:0:0:
495,280,86318,2,0,L|488:219,1,50,0|8,1:0|0:0,0:0:0:0:
452,196,86670,1,10,0:0:0:0:
452,196,86847,2,0,P|407:212|351:194,1,100,6|8,0:0|3:0,0:0:0:0:
317,169,87377,1,8,3:0:0:0:
317,169,87553,2,0,L|263:173,1,50,8|8,3:0|3:0,0:0:0:0:
231,207,87906,2,0,L|172:202,1,50,8|8,3:0|3:0,0:0:0:0:
132,190,88259,5,6,0:0:0:0:
256,192,88347,12,4,90906,0:0:0:0:
256,192,91082,12,0,96729,0:0:0:0:
