osu file format v14

[General]
AudioFilename: audio.mp3
AudioLeadIn: 0
PreviewTime: 51200
Countdown: 0
SampleSet: Soft
StackLeniency: 0.7
Mode: 0
LetterboxInBreaks: 0
WidescreenStoryboard: 0

[Editor]
DistanceSpacing: 1.8
BeatDivisor: 4
GridSize: 16
TimelineZoom: 1.7

[Metadata]
Title:Kiseki Melody
TitleUnicode:奇跡メロディ
Artist:Rin'ca
ArtistUnicode:Rin'ca
Creator:Shunao
Version:Hard
Source:D.S.i.F. -Dal Segno- in Future
Tags:visual novel eroge yozuca* Nekusam opening circus shogunmoon agatsu curi [c_u_r_i]
BeatmapID:1652572
BeatmapSetID:787362

[Difficulty]
HPDrainRate:5
CircleSize:3.7
OverallDifficulty:6
ApproachRate:7.7
SliderMultiplier:1.4
SliderTickRate:1

[Events]
//Background and Video events
Video,0,"videoo.mp4"
0,0,"hard.jpg",0,0
//Break Periods
//Storyboard Layer 0 (Background)
//Storyboard Layer 1 (Fail)
//Storyboard Layer 2 (Pass)
//Storyboard Layer 3 (Foreground)
//Storyboard Sound Samples

[TimingPoints]
730,352.941176470588,4,2,2,40,1,0
730,-142.857142857143,4,2,2,40,0,0
6377,-125,4,2,2,45,0,0
9200,-111.111111111111,4,2,2,50,0,0
12024,-100,4,2,2,50,0,0
26141,-133.333333333333,4,2,2,35,0,0
36024,-100,4,2,2,50,0,0
37435,-100,4,2,2,60,0,0
45906,-111.111111111111,4,2,2,50,0,0
48729,-100,4,2,2,60,0,0
51553,-83.3333333333333,4,2,2,70,0,1
68494,-100,4,2,2,60,0,0
71318,-83.3333333333333,4,2,2,70,0,1
75553,-100,4,2,2,60,0,0
93906,-100,4,2,2,50,0,0
95318,-100,4,2,2,30,0,0
96377,-100,4,2,2,10,0,0
96729,-100,4,2,2,5,0,0

[Colours]
Combo1 : 57,74,145
Combo2 : 255,236,168
Combo3 : 116,218,162
Combo4 : 163,107,254

[HitObjects]
90,206,730,6,0,L|96:273,1,48.9999985046387,2|0,0:0|0:0,0:0:0:0:
171,297,1082,2,0,L|166:353,1,48.9999985046387,0|2,0:0|0:0,0:0:0:0:
248,378,1435,1,0,1:0:0:0:
248,378,1612,2,0,P|276:371|304:370,1,48.9999985046387,2|0,0:0|0:0,0:0:0:0:
384,371,1965,1,0,1:0:0:0:
384,371,2141,6,0,L|389:316,1,48.9999985046387,2|0,0:0|1:0,0:0:0:0:
464,276,2494,2,0,L|459:227,1,48.9999985046387,0|2,0:0|0:0,0:0:0:0:
393,168,2847,1,0,1:0:0:0:
393,168,3024,2,0,P|361:173|331:169,1,48.9999985046387,2|0,0:0|0:0,0:0:0:0:
264,135,3377,1,2,0:0:0:0:
264,135,3553,6,0,L|258:75,1,48.9999985046387,2|0,0:0|0:0,0:0:0:0:
174,60,3906,2,0,L|168:120,1,48.9999985046387,0|2,0:0|0:0,0:0:0:0:
98,161,4259,1,0,1:0:0:0:
98,161,4435,2,0,P|65:155|38:158,2,48.9999985046387,2|0|0,0:0|0:0|1:0,0:0:0:0:
64,243,4965,5,4,3:0:0:0:
76,330,5141,1,4,3:0:0:0:
254,311,5494,1,2,0:0:0:0:
254,311,5671,2,0,L|258:262,1,48.9999985046387,0|2,1:0|0:0,0:0:0:0:
227,185,6024,1,2,0:0:0:0:
347,23,6377,6,0,P|399:9|461:47,1,112,14|8,0:0|0:0,0:0:0:0:
505,111,6906,2,0,P|495:165|487:239,1,112,2|2,0:0|0:0,0:0:0:0:
399,257,7435,2,0,P|395:221|386:180,1,56,8|2,0:0|0:0,0:0:0:0:
309,152,7788,6,0,P|261:169|195:149,1,112,10|8,0:0|0:0,0:0:0:0:
131,91,8318,2,0,P|83:74|17:94,1,112,2|2,0:0|0:0,0:0:0:0:
6,181,8847,2,0,P|11:218|13:256,1,56,8|2,0:0|0:0,0:0:0:0:
29,342,9200,5,4,3:0:0:0:
112,372,9377,1,4,3:0:0:0:
161,203,9729,1,4,3:0:0:0:
246,225,9905,1,4,3:0:0:0:
338,375,10259,5,4,3:0:0:0:
424,359,10435,1,4,3:0:0:0:
511,205,10788,1,4,3:0:0:0:
430,169,10965,1,4,3:0:0:0:
289,62,11318,6,0,L|252:64,3,31.4999990386963,0|0|8|8,1:0|1:0|0:0|0:0,0:0:0:0:
225,33,11671,2,0,L|193:31,3,31.4999990386963,8|8|8|8,0:0|0:0|0:0|0:0,0:0:0:0:
144,25,12024,6,0,P|115:80|146:153,1,140,14|10,0:0|0:0,0:0:0:0:
230,165,12553,2,0,L|286:160,1,35,0|8,0:0|0:0,0:0:0:0:
309,166,12729,2,0,P|316:205|305:244,1,70,10|0,0:0|1:0,0:0:0:0:
282,321,13082,2,0,P|231:302|176:317,1,105,10|8,0:0|0:0,0:0:0:0:
142,335,13435,6,0,L|124:184,1,140,8|10,0:0|0:0,0:0:0:0:
56,135,13965,1,0,1:0:0:0:
96,53,14141,2,0,P|134:38|181:42,1,70,10|0,0:0|1:0,0:0:0:0:
240,86,14494,2,0,P|291:98|357:83,1,105,10|8,0:0|0:0,0:0:0:0:
387,81,14847,6,0,B|370:126|370:126|388:220,1,140,8|10,0:0|0:0,0:0:0:0:
475,240,15377,2,0,L|485:178,1,35,0|8,0:0|0:0,0:0:0:0:
509,170,15553,2,0,L|497:83,1,70,8|0,0:0|1:0,0:0:0:0:
462,17,15906,1,10,0:0:0:0:
395,78,16082,1,0,0:0:0:0:
395,78,16171,1,8,0:0:0:0:
395,78,16259,6,0,B|319:58|329:114|242:84,1,140,10|10,0:0|0:0,0:0:0:0:
182,39,16788,1,0,1:0:0:0:
100,79,16965,2,0,L|106:171,1,70,2|0,0:0|1:0,0:0:0:0:
46,219,17318,1,10,0:0:0:0:
126,284,17494,1,0,0:0:0:0:
126,284,17582,1,8,0:0:0:0:
126,284,17671,6,0,P|163:276|210:281,1,70,10|0,0:0|0:0,0:0:0:0:
285,287,18024,2,0,L|298:169,1,105,10|8,0:0|0:0,0:0:0:0:
295,136,18377,2,0,P|367:153|431:102,1,140,10|10,0:0|0:0,0:0:0:0:
490,177,18906,2,0,L|483:233,1,35,0|8,0:0|0:0,0:0:0:0:
450,240,19082,6,0,L|460:335,1,70,8|0,0:0|0:0,0:0:0:0:
380,358,19435,2,0,P|342:353|296:363,1,70,2|8,0:0|3:0,0:0:0:0:
220,371,19788,1,8,3:0:0:0:
133,343,19965,1,8,3:0:0:0:
81,268,20141,2,0,P|80:237|77:221,3,35,10|8|8|8,0:0|0:0|0:0|0:0,0:0:0:0:
79,187,20494,6,0,B|151:158|145:229|223:191,1,140,14|8,0:0|0:0,0:0:0:0:
289,145,21024,2,0,P|287:73|230:38,1,140,10|0,0:0|1:0,0:0:0:0:
144,27,21553,1,8,0:0:0:0:
63,68,21729,1,10,0:0:0:0:
63,68,21818,1,10,0:0:0:0:
63,68,21906,6,0,L|70:147,1,70,6|0,0:0|0:0,0:0:0:0:
22,215,22259,1,8,3:0:0:0:
46,302,22435,1,8,3:0:0:0:
128,341,22612,2,0,L|220:333,1,70,8|8,3:0|3:0,0:0:0:0:
286,355,22965,1,8,3:0:0:0:
356,297,23141,1,8,3:0:0:0:
317,214,23318,5,4,1:2:0:0:
256,192,23406,12,4,26141,0:0:0:0:
505,249,26494,6,0,L|510:196,1,52.5000020027161,0|2,0:0|0:0,0:0:0:0:
425,169,26847,2,0,L|431:235,1,52.5000020027161,0|0,0:0|0:0,0:0:0:0:
252,247,27377,6,0,L|264:128,1,105.000004005432,0|0,0:0|0:0,0:0:0:0:
218,64,27906,2,0,P|175:40|111:51,2,105.000004005432,0|0|0,0:0|0:0|0:0,0:0:0:0:
396,73,28965,6,0,P|399:36|406:5,2,52.5000020027161,2|2|2,0:0|0:0|0:0,0:0:0:0:
407,161,29494,2,0,P|455:141|524:160,2,105.000004005432,2|0|0,0:0|0:0|0:0,0:0:0:0:
14,373,31082,6,0,L|10:316,1,52.5000020027161,0|0,0:0|0:0,0:0:0:0:
79,264,31435,2,0,L|84:201,1,52.5000020027161,0|0,0:0|0:0,0:0:0:0:
144,146,31788,6,0,B|198:127|193:171|252:153,1,105.000004005432,2|2,0:0|0:0,0:0:0:0:
330,126,32318,2,0,P|301:162|315:229,1,105.000004005432,2|0,0:0|0:0,0:0:0:0:
188,352,33024,1,0,0:0:0:0:
188,352,33200,6,0,L|178:234,1,105.000004005432,2|2,0:0|0:0,0:0:0:0:
117,182,33729,1,2,0:0:0:0:
117,182,33906,2,0,P|68:163|12:183,1,105.000004005432,2|0,0:0|0:0,0:0:0:0:
54,352,34612,6,0,P|85:348|125:349,1,52.5000020027161,2|2,0:0|0:0,0:0:0:0:
189,314,34965,1,2,0:0:0:0:
189,314,35141,2,0,P|220:318|260:317,2,52.5000020027161,0|0|0,1:0|1:0|0:0,0:0:0:0:
142,237,35671,1,8,0:0:0:0:
174,150,35847,1,8,3:0:0:0:
174,150,35935,1,8,3:0:0:0:
174,150,36024,5,4,3:0:0:0:
263,110,36200,1,4,3:0:0:0:
405,366,36729,1,4,3:0:0:0:
497,331,36906,1,4,3:0:0:0:
418,47,37435,6,0,L|407:136,1,70,4|0,0:0|0:0,0:0:0:0:
325,167,37788,2,0,L|334:253,1,70,0|2,1:0|0:0,0:0:0:0:
422,275,38141,1,0,1:0:0:0:
422,275,38318,2,0,L|414:360,1,70,2|0,0:0|1:0,0:0:0:0:
318,359,38671,6,0,P|281:354|240:368,2,70,2|0|2,0:0|1:0|0:0,0:0:0:0:
415,344,39200,2,0,P|452:352|506:341,1,70,0|2,1:0|0:0,0:0:0:0:
498,251,39553,2,0,P|461:243|407:254,1,70,0|2,1:0|0:0,0:0:0:0:
334,273,39906,1,0,1:0:0:0:
244,232,40082,1,2,0:0:0:0:
277,139,40259,6,0,B|351:114|342:179|426:151,1,140,6|8,0:0|0:0,0:0:0:0:
483,88,40788,2,0,P|446:29|369:20,1,140,2|2,0:0|0:0,0:0:0:0:
186,45,41494,6,0,L|177:184,1,140,6|8,0:0|0:0,0:0:0:0:
93,236,42024,1,8,0:0:0:0:
93,236,42200,2,0,P|161:229|216:286,1,140,6|0,0:0|1:0,0:0:0:0:
259,359,42729,1,8,0:0:0:0:
346,315,42906,1,8,0:0:0:0:
346,315,42994,1,8,0:0:0:0:
346,315,43082,6,0,P|354:246|372:170,1,140,12|8,0:0|0:0,0:0:0:0:
419,91,43612,2,0,P|441:87|463:86,2,35,0|8|0,0:0|0:0|1:0,0:0:0:0:
329,49,43965,1,0,1:0:0:0:
234,75,44141,2,0,P|196:68|159:65,1,70,8|8,0:0|0:0,0:0:0:0:
115,67,44406,1,8,0:0:0:0:
115,67,44494,6,0,B|84:99|84:99|92:201,1,140,8|8,0:0|0:0,0:0:0:0:
159,265,45024,2,0,L|211:261,2,35,8|8|8,0:0|0:0|0:0,0:0:0:0:
63,290,45377,1,0,1:0:0:0:
21,201,45553,2,0,L|98:193,1,70,8|2,0:0|0:0,0:0:0:0:
127,160,45818,1,2,0:0:0:0:
127,160,45906,6,0,L|264:172,1,125.999996154785,6|8,0:0|3:0,0:0:0:0:
332,132,46435,1,0,1:0:0:0:
406,84,46612,2,0,L|399:11,1,62.9999980773926,8|0,3:0|1:0,0:0:0:0:
487,11,46965,2,0,L|494:82,1,62.9999980773926,8|0,3:0|1:0,0:0:0:0:
466,158,47318,6,0,L|459:235,1,62.9999980773926,8|8,3:0|3:0,0:0:0:0:
486,305,47671,1,8,3:0:0:0:
406,343,47847,2,0,L|408:388,2,31.4999990386963,8|8|8,3:0|3:0|3:0,0:0:0:0:
347,277,48200,1,8,3:0:0:0:
267,315,48377,2,0,P|233:318|200:311,1,62.9999980773926,8|8,0:0|3:0,0:0:0:0:
168,298,48641,1,8,3:0:0:0:
168,298,48729,6,0,B|88:269|99:336|16:304,1,140,4|8,0:0|0:0,0:0:0:0:
3,215,49259,2,0,L|-2:123,1,70,2|0,0:0|0:0,0:0:0:0:
10,47,49612,1,8,0:0:0:0:
99,8,49788,1,8,3:0:0:0:
180,64,49965,1,4,0:0:0:0:
180,64,50847,6,0,L|236:59,3,35,0|8|8|8,1:0|0:0|0:0|0:0,0:0:0:0:
257,36,51200,2,0,L|307:40,3,35,8|8|8|8,0:0|0:0|0:0|0:0,0:0:0:0:
348,55,51553,6,0,B|373:90|373:90|359:229,1,167.999994873047,4|8,0:0|0:0,0:0:0:0:
357,315,52082,1,0,0:0:0:0:
357,315,52171,1,8,0:0:0:0:
357,315,52259,2,0,P|314:308|268:317,1,83.9999974365235,8|0,0:0|1:0,0:0:0:0:
175,337,52612,2,0,P|118:355|54:331,1,125.999996154785,8|8,0:0|0:0,0:0:0:0:
35,287,52965,6,0,P|32:211|16:105,1,167.999994873047,8|8,0:0|0:0,0:0:0:0:
73,34,53494,1,0,1:0:0:0:
166,71,53671,2,0,P|207:82|250:69,1,83.9999974365235,2|0,0:0|1:0,0:0:0:0:
340,33,54024,2,0,P|384:25|431:37,1,83.9999974365235,8|0,0:0|0:0,0:0:0:0:
469,50,54288,1,8,0:0:0:0:
469,50,54377,6,0,B|498:89|498:89|480:247,1,167.999994873047,8|8,0:0|0:0,0:0:0:0:
393,252,54906,1,0,0:0:0:0:
393,252,54994,1,8,0:0:0:0:
393,252,55082,2,0,L|399:350,1,83.9999974365235,8|0,0:0|1:0,0:0:0:0:
303,370,55435,2,0,L|297:280,1,83.9999974365235,8|0,0:0|0:0,0:0:0:0:
260,250,55700,1,8,0:0:0:0:
260,250,55788,6,0,B|171:214|181:286|94:254,1,167.999994873047,10|10,0:0|0:0,0:0:0:0:
35,175,56318,1,0,1:0:0:0:
87,89,56494,2,0,P|130:78|179:96,1,83.9999974365235,2|0,0:0|1:0,0:0:0:0:
266,109,56847,1,10,0:0:0:0:
341,41,57024,1,0,0:0:0:0:
341,41,57112,1,8,0:0:0:0:
341,41,57200,6,0,P|325:99|311:211,1,167.999994873047,10|8,0:0|0:0,0:0:0:0:
403,268,57729,1,0,0:0:0:0:
403,268,57818,1,8,0:0:0:0:
403,268,57906,2,0,P|446:255|488:271,1,83.9999974365235,8|0,0:0|1:0,0:0:0:0:
484,367,58259,2,0,P|443:377|393:365,1,83.9999974365235,8|0,0:0|0:0,0:0:0:0:
354,353,58524,1,8,0:0:0:0:
354,353,58612,6,0,B|366:166,1,167.999994873047,8|8,0:0|0:0,0:0:0:0:
421,101,59141,1,0,1:0:0:0:
346,32,59318,2,0,P|303:22|257:33,1,83.9999974365235,2|0,0:0|1:0,0:0:0:0:
175,77,59671,1,8,0:0:0:0:
83,36,59847,1,0,0:0:0:0:
83,36,59935,1,8,0:0:0:0:
83,36,60024,6,0,B|51:123|115:115|76:210,1,167.999994873047,12|8,0:0|0:0,0:0:0:0:
13,275,60553,1,0,1:0:0:0:
81,348,60729,2,0,P|159:333|253:327,1,167.999994873047,8|8,0:0|0:0,0:0:0:0:
348,322,61259,1,8,0:0:0:0:
348,322,61347,1,8,0:0:0:0:
348,322,61435,6,0,P|339:241|393:180,1,167.999994873047,0|8,1:0|0:0,0:0:0:0:
440,274,61965,1,8,3:0:0:0:
493,188,62141,2,0,L|486:136,3,41.9999987182618,8|8|8|8,0:0|0:0|0:0|0:0,0:0:0:0:
447,114,62494,2,0,L|452:72,3,41.9999987182618,8|8|8|8,0:0|0:0|0:0|0:0,0:0:0:0:
423,30,62847,6,0,B|332:-2|345:61|252:32,1,167.999994873047,4|8,0:0|0:0,0:0:0:0:
158,44,63377,1,0,0:0:0:0:
158,44,63466,1,8,0:0:0:0:
158,44,63554,2,0,L|166:129,1,83.9999974365235,8|0,0:0|0:0,0:0:0:0:
188,226,63907,2,0,P|253:237|308:205,1,125.999996154785,8|8,0:0|0:0,0:0:0:0:
345,180,64260,6,0,L|337:350,1,167.999994873047,8|8,0:0|0:0,0:0:0:0:
240,376,64789,1,0,1:0:0:0:
143,345,64966,2,0,P|101:337|61:346,1,83.9999974365235,2|0,0:0|0:0,0:0:0:0:
8,259,65319,2,0,L|1:172,1,83.9999974365235,8|0,0:0|0:0,0:0:0:0:
23,129,65583,1,8,0:0:0:0:
23,129,65672,6,0,B|83:122|83:122|126:142|126:142|206:132,1,167.999994873047,8|8,0:0|0:0,0:0:0:0:
251,58,66201,1,0,0:0:0:0:
251,58,66289,1,8,0:0:0:0:
251,58,66377,2,0,L|349:65,1,83.9999974365235,10|0,0:0|1:0,0:0:0:0:
435,66,66729,2,0,P|424:109|442:161,1,83.9999974365235,8|0,0:0|0:0,0:0:0:0:
466,184,66994,1,8,0:0:0:0:
466,184,67083,6,0,P|385:177|316:243,1,167.999994873047,8|8,0:0|0:0,0:0:0:0:
284,323,67612,2,0,L|267:156,1,167.999994873047,2|8,0:0|3:0,0:0:0:0:
206,74,68142,1,8,0:0:0:0:
146,155,68319,1,8,0:0:0:0:
146,155,68407,1,8,0:0:0:0:
146,155,68495,6,0,P|75:161|11:117,1,140,4|8,0:0|0:0,0:0:0:0:
36,36,69024,2,0,P|104:29|163:64,1,140,4|0,0:0|1:0,0:0:0:0:
233,123,69553,1,8,0:0:0:0:
297,187,69729,6,0,B|285:337,1,140,4|0,0:0|1:0,0:0:0:0:
366,369,70259,2,0,P|402:358|452:367,1,70,8|8,0:0|3:0,0:0:0:0:
496,294,70612,2,0,L|489:212,1,70,8|4,3:0|3:0,0:0:0:0:
486,133,70965,1,4,3:0:0:0:
435,56,71142,1,8,3:0:0:0:
435,56,71230,1,8,3:0:0:0:
435,56,71318,6,0,P|350:42|288:106,1,167.999994873047,4|8,0:0|0:0,0:0:0:0:
252,176,71847,1,0,1:0:0:0:
252,176,72024,2,0,L|154:168,1,83.9999974365235,8|0,0:0|1:0,0:0:0:0:
111,95,72377,2,0,L|17:102,1,83.9999974365235,8|0,0:0|1:0,0:0:0:0:
9,191,72729,6,0,B|-13:239|-13:239|16:360,1,167.999994873047,8|8,0:0|0:0,0:0:0:0:
105,365,73259,1,0,1:0:0:0:
105,365,73435,2,0,P|157:356|216:361,1,83.9999974365235,8|0,0:0|1:0,0:0:0:0:
280,356,73788,1,8,0:0:0:0:
372,349,73965,1,0,1:0:0:0:
372,349,74053,1,0,1:0:0:0:
372,349,74141,6,0,L|386:176,1,167.999994873047,8|8,0:0|0:0,0:0:0:0:
305,133,74671,1,0,1:0:0:0:
305,133,74847,2,0,L|297:37,1,83.9999974365235,8|0,0:0|1:0,0:0:0:0:
208,26,75200,2,0,L|163:23,3,41.9999987182618,8|8|8|8,0:0|0:0|0:0|0:0,0:0:0:0:
130,38,75553,6,0,P|90:82|104:163,1,140,4|0,0:0|0:0,0:0:0:0:
155,229,76082,1,8,0:0:0:0:
155,229,76171,1,8,0:0:0:0:
155,229,76259,2,0,P|217:218|295:217,1,140,8|8,0:0|3:0,0:0:0:0:
383,234,76788,1,0,0:0:0:0:
474,179,76965,6,0,P|445:234|476:307,1,140,14|10,0:0|0:0,0:0:0:0:
399,358,77494,2,0,L|353:354,1,35,0|8,0:0|0:0,0:0:0:0:
326,329,77670,2,0,L|239:335,1,70,10|0,0:0|1:0,0:0:0:0:
170,365,78023,2,0,L|64:356,1,105,10|8,0:0|0:0,0:0:0:0:
26,331,78376,6,0,P|3:270|31:199,1,140,8|10,0:0|0:0,0:0:0:0:
102,149,78906,1,0,1:0:0:0:
181,105,79082,2,0,L|176:26,1,70,10|0,0:0|1:0,0:0:0:0:
266,16,79435,2,0,L|273:127,1,105,10|8,0:0|0:0,0:0:0:0:
295,161,79788,6,0,B|367:139|360:196|449:171,1,140,8|10,0:0|0:0,0:0:0:0:
509,127,80318,2,0,L|504:65,1,35,0|8,0:0|0:0,0:0:0:0:
509,46,80494,2,0,P|474:37|424:42,1,70,8|0,0:0|1:0,0:0:0:0:
349,33,80847,1,10,0:0:0:0:
273,82,81023,1,0,0:0:0:0:
273,82,81112,1,8,0:0:0:0:
273,82,81200,6,0,B|126:73,1,140,10|10,0:0|0:0,0:0:0:0:
45,48,81729,1,0,1:0:0:0:
5,130,81906,2,0,P|10:163|16:217,1,70,2|0,0:0|1:0,0:0:0:0:
4,290,82259,1,10,0:0:0:0:
65,370,82435,1,0,0:0:0:0:
65,370,82523,1,8,0:0:0:0:
65,370,82612,6,0,P|102:362|149:367,1,70,10|0,0:0|0:0,0:0:0:0:
223,353,82965,2,0,L|234:237,1,105,10|8,0:0|0:0,0:0:0:0:
241,203,83318,2,0,P|306:187|383:222,1,140,10|10,0:0|0:0,0:0:0:0:
457,245,83847,2,0,L|452:293,1,35,0|8,0:0|0:0,0:0:0:0:
448,324,84023,6,0,P|411:316|374:316,1,70,8|0,0:0|0:0,0:0:0:0:
292,344,84377,2,0,P|257:351|222:352,1,70,2|8,0:0|3:0,0:0:0:0:
132,341,84729,1,8,3:0:0:0:
60,283,84906,1,8,3:0:0:0:
49,192,85082,2,0,L|44:144,3,35,10|8|8|8,0:0|0:0|0:0|0:0,0:0:0:0:
48,111,85435,6,0,B|94:105|94:105|141:121|141:121|192:115,1,140,14|8,0:0|0:0,0:0:0:0:
254,56,85965,2,0,P|316:22|391:47,1,140,10|0,0:0|1:0,0:0:0:0:
462,78,86494,1,8,0:0:0:0:
490,174,86670,1,10,0:0:0:0:
490,174,86759,1,10,0:0:0:0:
490,174,86847,6,0,L|483:251,1,70,6|0,0:0|0:0,0:0:0:0:
487,334,87200,1,8,3:0:0:0:
402,369,87377,1,8,3:0:0:0:
315,340,87553,2,0,P|275:330|232:331,1,70,8|8,3:0|3:0,0:0:0:0:
163,291,87906,1,8,3:0:0:0:
130,206,88082,1,8,3:0:0:0:
186,134,88259,5,6,0:0:0:0:
256,192,88347,12,4,90906,0:0:0:0:
256,192,91082,12,0,96729,0:0:0:0:
