osu file format v14

[General]
AudioFilename: audio.mp3
AudioLeadIn: 0
PreviewTime: 51200
Countdown: 0
SampleSet: Soft
StackLeniency: 0.7
Mode: 0
LetterboxInBreaks: 0
WidescreenStoryboard: 1

[Editor]
DistanceSpacing: 0.6
BeatDivisor: 4
GridSize: 32
TimelineZoom: 1.7

[Metadata]
Title:Kiseki Melody
TitleUnicode:奇跡メロディ
Artist:Rin'ca
ArtistUnicode:Rin'ca
Creator:Shunao
Version:Agatsu's Insane
Source:D.S.i.F. -Dal Segno- in Future
Tags:visual novel eroge yozuca* Nekusam opening circus shogunmoon agatsu curi [c_u_r_i]
BeatmapID:1652569
BeatmapSetID:787362

[Difficulty]
HPDrainRate:6.2
CircleSize:4
OverallDifficulty:7
ApproachRate:9
SliderMultiplier:1.7
SliderTickRate:1

[Events]
//Background and Video events
Video,0,"videoo.mp4"
0,0,"insane.jpg",0,0
//Break Periods
//Storyboard Layer 0 (Background)
//Storyboard Layer 1 (Fail)
//Storyboard Layer 2 (Pass)
//Storyboard Layer 3 (Foreground)
//Storyboard Sound Samples

[TimingPoints]
730,352.941176470588,4,2,2,40,1,0
730,-125,4,2,2,40,0,0
6288,-125,4,2,2,5,0,0
6377,-111.111111111111,4,2,2,45,0,0
9200,-111.111111111111,4,2,2,55,0,0
12024,-100,4,2,2,60,0,0
26141,-100,4,2,2,40,0,0
26494,-125,4,2,2,40,0,0
35671,-125,4,2,2,45,0,0
37435,-111.111111111111,4,2,2,45,0,0
40524,-111.111111111111,4,2,2,5,0,0
40612,-111.111111111111,4,2,2,45,0,0
41759,-111.111111111111,4,2,2,5,0,0
41847,-111.111111111111,4,2,2,45,0,0
43082,-100,4,2,2,50,0,0
48200,-100,4,2,2,55,0,0
48729,-100,4,2,2,60,0,0
50847,-100,4,2,2,65,0,0
51553,-83.3333333333333,4,2,2,70,0,1
67347,-83.3333333333333,4,2,2,5,0,1
67435,-83.3333333333333,4,2,2,70,0,1
68494,-83.3333333333333,4,2,2,70,0,0
71318,-83.3333333333333,4,2,2,70,0,1
75553,-125,4,2,2,70,0,1
76877,-125,4,2,2,5,0,1
76965,-100,4,2,2,60,0,0
93906,-100,4,2,2,50,0,0
95318,-100,4,2,2,30,0,0
96377,-100,4,2,2,10,0,0
96729,-100,4,2,2,5,0,0

[Colours]
Combo1 : 84,153,158
Combo2 : 255,128,128
Combo3 : 0,128,255
Combo4 : 254,244,129

[HitObjects]
144,88,730,6,0,L|214:81,2,68,2|2|2,0:0|0:0|0:0,0:0:0:0:
78,147,1259,1,2,0:0:0:0:
152,241,1435,2,0,P|163:202|160:164,1,68,0|2,1:0|0:0,0:0:0:0:
73,287,1788,1,2,0:0:0:0:
153,333,1965,1,0,1:0:0:0:
228,283,2141,6,0,L|295:287,2,68,2|0|0,0:0|1:0|1:0,0:0:0:0:
153,333,2671,1,2,0:0:0:0:
145,173,2847,2,0,L|151:240,1,68,0|2,1:0|0:0,0:0:0:0:
211,109,3200,1,2,0:0:0:0:
123,84,3377,1,2,0:0:0:0:
255,31,3553,6,0,P|280:54|297:89,2,68,2|2|2,0:0|0:0|0:0,0:0:0:0:
211,109,4082,1,2,0:0:0:0:
362,92,4259,2,0,L|285:82,1,68,0|2,1:0|0:0,0:0:0:0:
389,179,4612,1,2,0:0:0:0:
451,113,4788,1,0,1:0:0:0:
294,83,4965,5,4,3:0:0:0:
477,199,5141,1,4,3:0:0:0:
254,343,5494,5,2,0:0:0:0:
254,343,5671,2,0,L|257:276,1,68,0|2,1:0|0:0,0:0:0:0:
195,192,6024,2,0,P|145:180|98:196,1,102,2|0,0:0|0:0,0:0:0:0:
75,218,6377,6,0,L|70:140,1,76.4999976654053,14|2,0:0|0:0,0:0:0:0:
186,48,6729,2,0,P|148:46|113:60,1,76.4999976654053,10|2,0:0|0:0,0:0:0:0:
261,101,7082,2,0,P|298:103|334:89,1,76.4999976654053,8|2,0:0|0:0,0:0:0:0:
420,207,7435,2,0,L|416:131,1,76.4999976654053,10|2,0:0|0:0,0:0:0:0:
271,272,7788,5,10,0:0:0:0:
320,198,7965,1,2,0:0:0:0:
308,351,8141,2,0,P|271:360|231:352,1,76.4999976654053,10|2,0:0|0:0,0:0:0:0:
215,201,8494,2,0,P|190:230|181:267,1,76.4999976654053,8|2,0:0|0:0,0:0:0:0:
358,261,8847,2,0,P|346:225|320:198,1,76.4999976654053,10|2,0:0|0:0,0:0:0:0:
233,353,9200,5,4,3:0:0:0:
266,118,9377,1,4,3:0:0:0:
266,118,9729,5,4,3:0:0:0:
453,264,9906,1,4,3:0:0:0:
453,264,10259,5,4,3:0:0:0:
233,352,10436,1,4,3:0:0:0:
233,353,10788,5,4,3:0:0:0:
266,118,10965,1,4,3:0:0:0:
453,264,11318,5,8,0:0:0:0:
432,253,11406,1,8,0:0:0:0:
409,247,11494,1,8,0:0:0:0:
386,246,11582,1,8,0:0:0:0:
364,253,11671,6,0,L|361:293,1,38.2499988327027,8|8,0:0|0:0,0:0:0:0:
272,317,11847,2,0,L|274:278,1,38.2499988327027,8|8,0:0|0:0,0:0:0:0:
325,171,12024,6,0,P|363:164|416:179,1,85,14|0,0:0|0:0,0:0:0:0:
273,278,12377,1,10,0:0:0:0:
228,165,12553,1,0,0:0:0:0:
228,165,12641,1,8,0:0:0:0:
228,165,12729,2,0,L|143:157,1,85,10|0,0:0|1:0,0:0:0:0:
0,278,13082,2,0,L|85:270,1,85,10|0,0:0|0:0,0:0:0:0:
84,270,13347,1,8,0:0:0:0:
84,270,13435,6,0,P|66:306|72:354,1,85,8|0,0:0|0:0,0:0:0:0:
214,225,13788,1,10,0:0:0:0:
122,144,13965,1,0,1:0:0:0:
247,46,14141,2,0,L|236:144,1,85,10|0,0:0|1:0,0:0:0:0:
333,282,14494,2,0,L|323:197,1,85,10|0,0:0|0:0,0:0:0:0:
323,197,14759,1,8,0:0:0:0:
323,197,14847,6,0,P|366:186|406:196,1,85,8|0,0:0|0:0,0:0:0:0:
398,2,15200,1,10,0:0:0:0:
491,108,15377,1,0,0:0:0:0:
491,108,15465,1,8,0:0:0:0:
491,108,15553,2,0,L|406:97,1,85,8|0,0:0|1:0,0:0:0:0:
238,53,15906,2,0,L|323:42,1,85,10|0,0:0|0:0,0:0:0:0:
322,42,16171,1,8,0:0:0:0:
322,42,16259,6,0,P|304:79|309:129,1,85,10|0,0:0|0:0,0:0:0:0:
454,181,16612,1,10,0:0:0:0:
406,97,16788,1,0,1:0:0:0:
395,268,16965,2,0,L|490:282,1,85,2|0,0:0|1:0,0:0:0:0:
392,83,17318,2,0,L|297:97,1,85,10|0,0:0|0:0,0:0:0:0:
308,96,17582,1,8,0:0:0:0:
308,96,17671,6,0,P|327:51|323:14,1,85,10|0,0:0|0:0,0:0:0:0:
209,124,18024,1,10,0:0:0:0:
293,194,18200,1,0,0:0:0:0:
293,194,18288,1,8,0:0:0:0:
293,194,18377,2,0,L|301:282,1,85,10|0,0:0|1:0,0:0:0:0:
118,364,18729,2,0,L|125:279,1,85,10|0,0:0|0:0,0:0:0:0:
125,279,18994,1,8,0:0:0:0:
125,279,19082,6,0,L|35:267,1,85,8|0,0:0|0:0,0:0:0:0:
202,178,19435,1,2,0:0:0:0:
216,349,19612,1,8,3:0:0:0:
229,153,19788,1,8,3:0:0:0:
349,287,19965,1,8,3:0:0:0:
435,127,20141,5,10,0:0:0:0:
410,121,20229,1,8,0:0:0:0:
384,120,20318,1,8,0:0:0:0:
359,126,20406,1,8,0:0:0:0:
336,138,20494,6,0,B|380:173|380:173|499:153,1,170,14|8,0:0|0:0,0:0:0:0:
277,53,21024,2,0,B|174:43|174:43|138:69|145:102,1,170,10|0,0:0|1:0,0:0:0:0:
252,195,21553,1,8,0:0:0:0:
358,65,21729,1,10,0:0:0:0:
358,65,21818,1,10,0:0:0:0:
358,65,21906,6,0,P|319:50|270:54,1,85,6|0,0:0|0:0,0:0:0:0:
139,167,22259,1,8,3:0:0:0:
174,70,22435,1,8,3:0:0:0:
240,149,22612,1,8,3:0:0:0:
73,88,22788,1,8,3:0:0:0:
204,245,22965,1,8,3:0:0:0:
276,52,23141,1,8,3:0:0:0:
199,276,23318,5,6,0:0:0:0:
256,192,23406,12,4,26141,0:0:0:0:
142,88,26494,6,0,L|213:81,2,68,0|2|0,0:0|0:0|0:0,0:0:0:0:
76,148,27024,1,0,0:0:0:0:
76,148,27377,6,0,L|63:289,1,136,0|0,0:0|0:0,0:0:0:0:
127,344,27906,2,0,B|197:326|194:380|268:348,2,136,0|0|0,0:0|0:0|0:0,0:0:0:0:
328,288,28965,6,0,L|344:151,1,136,2|2,0:0|0:0,0:0:0:0:
433,135,29494,2,0,L|417:270,1,136,2|2,0:0|0:0,0:0:0:0:
262,198,30200,6,0,P|227:241|233:324,1,136,0|0,0:0|0:0,0:0:0:0:
296,376,30729,1,0,0:0:0:0:
296,376,31082,2,0,L|366:366,2,68,0|0|0,0:0|0:0|0:0,0:0:0:0:
230,318,31612,1,0,0:0:0:0:
168,254,31788,6,0,B|208:274|208:274|312:261,1,136,2|2,0:0|0:0,0:0:0:0:
358,193,32318,2,0,L|493:205,1,136,2|0,0:0|0:0,0:0:0:0:
283,133,33024,1,0,0:0:0:0:
213,188,33200,6,0,L|198:330,2,136,2|2|2,0:0|0:0|0:0,0:0:0:0:
359,88,34259,2,0,L|434:96,1,68,0|0,0:0|0:0,0:0:0:0:
448,183,34612,6,0,L|300:168,1,136,2|2,0:0|0:0,0:0:0:0:
140,154,35141,1,0,1:0:0:0:
220,123,35318,2,0,P|226:156|218:193,1,68,0|0,1:0|0:0,0:0:0:0:
89,70,35671,6,0,L|128:66,1,34,8|0,0:0|0:0,0:0:0:0:
140,154,35847,2,0,L|106:157,1,34,8|8,3:0|3:0,0:0:0:0:
20,131,36024,5,4,3:0:0:0:
169,0,36200,1,4,3:0:0:0:
169,0,36729,5,4,3:0:0:0:
207,194,36905,1,4,3:0:0:0:
207,194,37435,6,0,L|49:213,1,152.999995330811,4|0,0:0|1:0,0:0:0:0:
205,281,37965,1,2,0:0:0:0:
286,243,38141,2,0,P|296:205|288:156,1,76.4999976654053,0|2,1:0|0:0,0:0:0:0:
213,119,38494,2,0,P|203:157|211:206,1,76.4999976654053,0|2,1:0|0:0,0:0:0:0:
257,46,38847,6,0,P|219:36|170:44,1,76.4999976654053,0|2,1:0|0:0,0:0:0:0:
138,112,39200,2,0,P|176:122|225:114,1,76.4999976654053,0|2,1:0|0:0,0:0:0:0:
99,37,39553,1,0,1:0:0:0:
54,109,39729,1,2,0:0:0:0:
130,188,39906,2,0,L|138:106,1,76.4999976654053,0|2,1:0|0:0,0:0:0:0:
72,259,40259,6,0,P|125:281|181:266,1,114.749996498108,4|0,0:0|0:0,0:0:0:0:
198,255,40612,1,8,0:0:0:0:
137,111,40788,2,0,L|56:119,1,76.4999976654053,2|0,0:0|0:0,0:0:0:0:
228,39,41141,2,0,L|309:47,1,76.4999976654053,2|0,0:0|0:0,0:0:0:0:
455,144,41494,6,0,B|406:152|406:152|397:161|397:161|330:170,1,114.749996498108,6|0,0:0|0:0,0:0:0:0:
314,173,41847,1,8,0:0:0:0:
225,288,42024,2,0,L|216:206,1,76.4999976654053,8|6,0:0|0:0,0:0:0:0:
295,349,42377,1,0,0:0:0:0:
209,378,42553,1,0,1:0:0:0:
312,224,42729,6,0,L|359:220,1,38.2499988327027,8|0,0:0|0:0,0:0:0:0:
357,305,42906,2,0,L|318:308,1,38.2499988327027,8|8,0:0|0:0,0:0:0:0:
420,168,43082,6,0,P|436:202|430:257,1,85,12|0,0:0|0:0,0:0:0:0:
312,224,43435,1,8,0:0:0:0:
372,79,43612,1,2,0:0:0:0:
372,79,43700,1,8,0:0:0:0:
372,79,43788,2,0,L|462:71,1,85,0|0,1:0|1:0,0:0:0:0:
508,247,44141,2,0,L|412:234,1,85,8|8,0:0|0:0,0:0:0:0:
423,236,44406,1,8,0:0:0:0:
423,236,44494,6,0,L|408:328,1,85,8|2,0:0|0:0,0:0:0:0:
338,188,44847,1,8,0:0:0:0:
257,240,45024,1,8,0:0:0:0:
257,240,45112,1,8,0:0:0:0:
257,240,45200,2,0,P|211:244|174:229,1,85,8|0,0:0|1:0,0:0:0:0:
64,122,45553,2,0,P|110:118|147:133,1,85,8|2,0:0|0:0,0:0:0:0:
145,132,45818,1,2,0:0:0:0:
145,132,45906,6,0,L|157:45,1,85,6|0,0:0|1:0,0:0:0:0:
252,101,46259,2,0,L|339:95,1,85,8|0,3:0|1:0,0:0:0:0:
336,95,46524,1,0,0:0:0:0:
336,95,46612,1,8,3:0:0:0:
429,138,46788,1,0,0:0:0:0:
333,233,46965,2,0,L|245:228,1,85,8|0,3:0|0:0,0:0:0:0:
429,138,47318,5,8,3:0:0:0:
437,238,47494,1,8,3:0:0:0:
376,64,47671,2,0,P|425:50|468:59,1,85,8|8,3:0|3:0,0:0:0:0:
457,55,47935,1,8,3:0:0:0:
457,55,48024,1,8,3:0:0:0:
312,134,48200,1,8,3:0:0:0:
299,9,48377,1,8,0:0:0:0:
409,175,48553,1,8,3:0:0:0:
409,175,48641,1,8,3:0:0:0:
409,175,48729,6,0,B|330:180|330:180|317:186|317:186|238:191,1,170,4|8,0:0|0:0,0:0:0:0:
79,303,49259,2,0,B|155:298|155:298|168:292|168:292|247:287,1,170,4|8,0:0|0:0,0:0:0:0:
226,98,49788,1,8,3:0:0:0:
80,199,49965,1,4,0:0:0:0:
240,190,50847,5,0,1:0:0:0:
401,65,51024,1,8,0:0:0:0:
401,65,51112,1,8,0:0:0:0:
401,65,51200,6,0,L|397:117,1,42.5,8|8,0:0|0:0,0:0:0:0:
299,112,51377,2,0,L|302:69,1,42.5,8|8,0:0|0:0,0:0:0:0:
338,201,51553,6,0,P|288:208|240:190,1,101.999996887207,4|0,0:0|0:0,0:0:0:0:
397,107,51906,1,8,0:0:0:0:
448,212,52082,1,0,0:0:0:0:
448,212,52171,1,8,0:0:0:0:
448,212,52259,2,0,L|436:314,1,101.999996887207,8|0,0:0|1:0,0:0:0:0:
222,285,52612,1,8,0:0:0:0:
323,189,52788,1,0,0:0:0:0:
323,189,52877,1,8,0:0:0:0:
323,189,52965,6,0,L|311:87,1,101.999996887207,8|0,0:0|0:0,0:0:0:0:
122,217,53318,1,8,0:0:0:0:
222,285,53494,1,0,1:0:0:0:
177,111,53671,1,2,0:0:0:0:
230,314,53847,1,0,1:0:0:0:
346,89,54024,2,0,P|368:128|363:186,1,101.999996887207,8|0,0:0|0:0,0:0:0:0:
348,209,54288,1,8,0:0:0:0:
348,209,54377,6,0,L|241:191,1,101.999996887207,8|0,0:0|0:0,0:0:0:0:
453,144,54729,1,8,0:0:0:0:
385,319,54906,1,0,0:0:0:0:
385,319,54994,1,8,0:0:0:0:
385,319,55082,2,0,P|332:326|278:301,1,101.999996887207,8|0,0:0|1:0,0:0:0:0:
171,203,55435,1,8,0:0:0:0:
281,87,55612,1,0,0:0:0:0:
281,87,55700,1,8,0:0:0:0:
281,87,55788,6,0,L|288:196,1,101.999996887207,10|0,0:0|0:0,0:0:0:0:
105,219,56141,1,10,0:0:0:0:
187,146,56318,1,0,1:0:0:0:
201,251,56494,1,2,0:0:0:0:
94,114,56671,1,0,1:0:0:0:
292,149,56847,2,0,L|306:36,1,101.999996887207,10|0,0:0|0:0,0:0:0:0:
326,26,57112,1,8,0:0:0:0:
326,26,57200,6,0,P|378:21|426:42,1,101.999996887207,10|0,0:0|0:0,0:0:0:0:
415,218,57553,1,8,0:0:0:0:
292,149,57729,1,0,0:0:0:0:
292,149,57818,1,8,0:0:0:0:
292,149,57906,2,0,L|185:158,1,101.999996887207,8|0,0:0|1:0,0:0:0:0:
298,289,58259,1,8,0:0:0:0:
415,218,58435,1,0,0:0:0:0:
415,218,58524,1,8,0:0:0:0:
415,218,58612,6,0,B|431:165|431:165|415:121,1,101.999996887207,8|0,0:0|0:0,0:0:0:0:
237,35,58965,1,8,0:0:0:0:
292,149,59141,1,0,1:0:0:0:
453,18,59318,2,0,L|342:8,1,101.999996887207,2|0,0:0|1:0,0:0:0:0:
163,146,59671,2,0,L|274:136,1,101.999996887207,8|0,0:0|0:0,0:0:0:0:
288,145,59935,1,8,0:0:0:0:
292,149,60024,6,0,P|316:192|309:249,1,101.999996887207,12|0,0:0|0:0,0:0:0:0:
166,365,60377,2,0,P|142:322|149:265,1,101.999996887207,8|0,0:0|0:0,0:0:0:0:
161,244,60641,1,8,0:0:0:0:
161,244,60729,1,8,0:0:0:0:
292,149,60906,1,0,1:0:0:0:
272,336,61082,1,8,0:0:0:0:
395,203,61259,1,8,0:0:0:0:
395,203,61347,1,8,0:0:0:0:
395,203,61435,6,0,B|302:191|302:191|284:198|284:198|185:185,1,203.999993774414,0|8,1:0|0:0,0:0:0:0:
137,18,61965,1,8,3:0:0:0:
291,57,62141,1,8,0:0:0:0:
321,51,62229,1,8,0:0:0:0:
351,46,62318,1,8,0:0:0:0:
381,42,62406,1,8,0:0:0:0:
411,37,62494,6,0,L|419:89,1,50.9999984436036,8|8,0:0|0:0,0:0:0:0:
331,123,62671,2,0,L|323:72,1,50.9999984436036,8|8,0:0|0:0,0:0:0:0:
390,198,62847,6,0,P|345:216|289:207,1,101.999996887207,4|0,0:0|0:0,0:0:0:0:
418,87,63200,1,8,0:0:0:0:
481,167,63377,1,0,0:0:0:0:
481,167,63465,1,8,0:0:0:0:
481,167,63553,2,0,P|489:216|471:264,1,101.999996887207,8|0,0:0|1:0,0:0:0:0:
293,208,63906,2,0,P|271:251|281:316,1,101.999996887207,8|0,0:0|0:0,0:0:0:0:
284,332,64171,1,8,0:0:0:0:
284,332,64259,6,0,B|234:340|234:340|187:315,1,101.999996887207,8|0,0:0|0:0,0:0:0:0:
184,128,64612,1,8,0:0:0:0:
293,208,64788,1,0,1:0:0:0:
105,228,64965,1,2,0:0:0:0:
325,206,65141,1,0,1:0:0:0:
198,0,65318,2,0,L|187:107,1,101.999996887207,8|8,0:0|0:0,0:0:0:0:
184,131,65582,1,8,0:0:0:0:
184,131,65671,6,0,P|234:108|280:114,1,101.999996887207,8|0,0:0|0:0,0:0:0:0:
406,207,66024,1,8,0:0:0:0:
255,294,66200,1,0,0:0:0:0:
255,294,66288,1,8,0:0:0:0:
255,294,66377,2,0,L|245:174,1,101.999996887207,10|0,0:0|1:0,0:0:0:0:
275,25,66729,1,8,0:0:0:0:
58,89,66906,1,0,0:0:0:0:
58,89,66994,1,8,0:0:0:0:
58,89,67082,6,0,B|115:64|115:64|205:94,1,152.999995330811,8|0,0:0|0:0,0:0:0:0:
229,105,67435,1,8,0:0:0:0:
54,272,67612,1,2,0:0:0:0:
118,172,67788,1,0,0:0:0:0:
157,333,67965,1,8,3:0:0:0:
259,193,68141,6,0,L|310:199,1,50.9999984436036,8|0,0:0|0:0,0:0:0:0:
300,293,68318,2,0,L|250:288,1,50.9999984436036,8|8,0:0|0:0,0:0:0:0:
390,143,68494,6,0,P|405:183|394:248,1,101.999996887207,4|0,0:0|0:0,0:0:0:0:
302,82,68847,1,8,0:0:0:0:
397,41,69024,2,0,B|304:33|304:33|287:41|287:41|175:31,1,203.999993774414,4|0,0:0|1:0,0:0:0:0:
54,158,69553,1,8,0:0:0:0:
130,215,69729,6,0,P|145:168|136:117,1,101.999996887207,4|0,0:0|0:0,0:0:0:0:
54,158,70082,1,0,1:0:0:0:
122,316,70259,2,0,L|130:211,1,101.999996887207,8|8,0:0|3:0,0:0:0:0:
295,240,70612,1,8,3:0:0:0:
230,331,70788,1,8,3:0:0:0:
394,290,70965,2,0,B|415:241|415:241|392:191,1,101.999996887207,8|8,0:0|3:0,0:0:0:0:
379,170,71229,1,8,3:0:0:0:
379,170,71318,6,0,L|388:69,1,101.999996887207,4|0,0:0|0:0,0:0:0:0:
271,214,71671,2,0,L|280:315,1,101.999996887207,8|0,0:0|0:0,0:0:0:0:
151,209,72024,1,8,0:0:0:0:
248,88,72200,1,0,1:0:0:0:
133,231,72377,1,8,0:0:0:0:
160,28,72553,1,0,1:0:0:0:
0,134,72729,6,0,L|114:121,1,101.999996887207,8|0,0:0|0:0,0:0:0:0:
234,242,73082,2,0,L|132:230,1,101.999996887207,8|0,0:0|1:0,0:0:0:0:
304,178,73435,2,0,P|328:224|320:288,1,101.999996887207,8|0,0:0|1:0,0:0:0:0:
183,341,73788,1,8,0:0:0:0:
234,114,73965,1,0,1:0:0:0:
234,114,74053,1,0,1:0:0:0:
234,114,74141,6,0,P|280:90|344:98,1,101.999996887207,8|0,0:0|0:0,0:0:0:0:
455,271,74494,1,8,0:0:0:0:
454,84,74671,1,0,0:0:0:0:
348,265,74847,1,8,0:0:0:0:
512,176,75024,1,0,1:0:0:0:
357,47,75200,6,0,L|364:112,1,50.9999984436036,8|8,0:0|0:0,0:0:0:0:
454,84,75377,2,0,L|448:33,1,50.9999984436036,8|8,0:0|0:0,0:0:0:0:
380,186,75553,6,0,B|261:193|313:100|202:104,1,204,4|8,0:0|0:0,0:0:0:0:
188,114,76171,1,8,0:0:0:0:
188,114,76259,1,8,0:0:0:0:
122,346,76612,6,0,L|110:243,1,102,8|0,3:0|0:0,0:0:0:0:
112,219,76965,6,0,P|155:206|199:215,1,85,14|0,0:0|0:0,0:0:0:0:
243,341,77318,1,10,0:0:0:0:
385,242,77494,1,0,0:0:0:0:
385,242,77582,1,8,0:0:0:0:
385,242,77671,2,0,L|298:232,1,85,10|0,0:0|1:0,0:0:0:0:
411,131,78024,2,0,L|498:121,1,85,10|0,0:0|0:0,0:0:0:0:
495,121,78288,1,8,0:0:0:0:
495,121,78377,6,0,B|509:75|509:75|495:34,1,85,8|0,0:0|0:0,0:0:0:0:
328,47,78729,1,10,0:0:0:0:
403,123,78906,1,0,1:0:0:0:
300,232,79082,2,0,B|286:186|286:186|300:145,1,85,10|0,0:0|1:0,0:0:0:0:
373,330,79435,2,0,L|272:342,1,85,10|0,0:0|0:0,0:0:0:0:
288,340,79700,1,8,0:0:0:0:
288,340,79788,6,0,P|246:361|200:356,1,85,8|0,0:0|0:0,0:0:0:0:
133,183,80141,1,10,0:0:0:0:
70,258,80318,1,0,0:0:0:0:
70,258,80406,1,8,0:0:0:0:
70,258,80494,2,0,P|112:278|158:273,1,85,8|0,0:0|1:0,0:0:0:0:
201,114,80847,2,0,P|158:93|112:98,1,85,10|0,0:0|0:0,0:0:0:0:
121,94,81112,1,8,0:0:0:0:
121,94,81200,6,0,L|29:81,1,85,10|0,0:0|0:0,0:0:0:0:
205,18,81553,1,10,0:0:0:0:
235,122,81729,1,0,1:0:0:0:
384,61,81906,2,0,P|341:40|295:45,1,85,2|0,0:0|1:0,0:0:0:0:
275,236,82259,2,0,P|318:257|364:252,1,85,10|0,0:0|0:0,0:0:0:0:
354,255,82524,1,8,0:0:0:0:
354,255,82612,6,0,L|362:346,1,85,10|0,0:0|0:0,0:0:0:0:
453,192,82965,2,0,L|461:107,1,85,10|0,0:0|0:0,0:0:0:0:
461,107,83229,1,8,0:0:0:0:
461,107,83318,1,10,0:0:0:0:
366,39,83494,1,0,1:0:0:0:
250,139,83671,2,0,L|258:223,1,85,10|0,0:0|0:0,0:0:0:0:
258,223,83935,1,8,0:0:0:0:
258,223,84024,6,0,B|218:240|218:240|170:224,1,85,8|0,0:0|0:0,0:0:0:0:
101,63,84377,1,2,0:0:0:0:
8,187,84553,1,8,3:0:0:0:
113,33,84729,1,8,3:0:0:0:
178,226,84906,1,8,3:0:0:0:
283,78,85082,5,10,0:0:0:0:
308,73,85171,1,8,0:0:0:0:
332,78,85259,1,8,0:0:0:0:
351,94,85347,1,8,0:0:0:0:
363,115,85435,6,0,B|344:226|344:226|321:244|282:233,1,170,14|8,0:0|0:0,0:0:0:0:
70,158,85965,2,0,B|119:127|119:127|232:153,1,170,10|0,0:0|1:0,0:0:0:0:
208,307,86494,1,8,0:0:0:0:
83,239,86671,1,10,0:0:0:0:
83,239,86759,1,10,0:0:0:0:
83,239,86847,6,0,P|67:191|72:150,1,85,6|0,0:0|0:0,0:0:0:0:
262,163,87200,1,8,3:0:0:0:
230,259,87377,1,8,3:0:0:0:
161,183,87553,1,8,3:0:0:0:
331,240,87729,1,8,3:0:0:0:
294,67,87906,1,8,3:0:0:0:
230,259,88083,1,8,3:0:0:0:
301,41,88259,5,6,0:0:0:0:
256,192,88347,12,4,90906,0:0:0:0:
256,192,91082,12,0,96729,0:0:0:0:
