osu file format v14

[General]
AudioFilename: audio.ogg
AudioLeadIn: 0
PreviewTime:42085
Countdown: 0
SampleSet: Soft
StackLeniency: 0.3
Mode: 0
LetterboxInBreaks: 0
WidescreenStoryboard: 1

[Editor]
Bookmarks: 21959,43209,60709,83209
DistanceSpacing: 0.9
BeatDivisor: 2
GridSize: 16
TimelineZoom: 1

[Metadata]
Title:Futari Sketch (Short Ver.)
TitleUnicode:二人スケッチ (Short Ver.)
Artist:Rin'ca
ArtistUnicode:Rin'ca
Creator:KennethBBG
Version:lushiferBBG's Insane
Source:アマエミ-longing for you-
Tags:Aurorance Surac lushifer eroge visual novel Opening OP j-pop pop j-rock rock japanese female vocal vocalist azarashi soft yozuca* nekusam rinca amaemi video game
BeatmapID:3952152
BeatmapSetID:1912655

[Difficulty]
HPDrainRate:5
CircleSize:3.8
OverallDifficulty:8
ApproachRate:9
SliderMultiplier:1.58
SliderTickRate:1

[Events]
//Background and Video events
0,0,"background6.jpg",0,0
//Break Periods
//Storyboard Layer 0 (Background)
//Storyboard Layer 1 (Fail)
//Storyboard Layer 2 (Pass)
//Storyboard Layer 3 (Foreground)
//Storyboard Layer 4 (Overlay)
//Storyboard Sound Samples

[TimingPoints]
1851,312.5,4,2,1,65,1,0
1851,-111.111111111111,4,2,1,65,0,0
3335,-111.111111111111,4,2,1,5,0,0
3413,-111.111111111111,4,2,1,65,0,0
6460,-111.111111111111,4,2,1,5,0,0
6538,-111.111111111111,4,2,1,65,0,0
9351,-111.111111111111,4,2,1,70,0,0
9585,-111.111111111111,4,2,1,5,0,0
9663,-111.111111111111,4,2,1,70,0,0
10601,-125,4,2,1,65,0,0
11851,-133.333333333333,4,2,1,55,0,0
21851,-125,4,2,1,65,0,0
22085,-125,4,2,1,5,0,0
22163,-125,4,2,1,65,0,0
31851,-142.857142857143,4,2,1,45,0,0
36851,-90.9090909090909,4,2,1,65,0,0
39351,-90.9090909090909,4,2,1,65,0,0
40601,-90.9090909090909,4,2,1,65,0,0
41851,-500,4,2,1,65,0,0
42163,-500,4,2,1,35,0,0
42476,-250,4,2,1,35,0,0
42788,-250,4,2,1,45,0,0
43101,-100,4,2,1,70,0,1
54272,-100,4,2,1,5,0,1
54351,-100,4,2,1,70,0,1
56772,-100,4,2,1,5,0,1
56851,-100,4,2,1,70,0,1
57944,-100,4,2,1,75,0,1
58960,-100,4,2,1,5,0,1
59038,-100,4,2,1,75,0,1
59585,-100,4,2,1,5,0,1
59663,-100,4,2,1,75,0,1
60053,-100,4,2,1,5,0,1
60132,-100,4,2,1,75,0,1
63101,-100,4,2,1,70,0,1
77944,-100,4,2,1,75,0,1
78101,-100,4,2,1,75,0,1
80601,-86.9565217391304,4,2,1,75,0,0
83101,-86.9565217391304,4,2,1,55,0,0
84351,-125,4,2,1,55,0,0
86226,-100,4,2,1,55,0,0
87476,-100,4,2,1,60,0,0
88101,-142.857142857143,4,2,1,60,0,0
88257,-142.857142857143,4,2,1,40,0,0
89038,-142.857142857143,4,2,1,60,0,0
89272,-142.857142857143,4,2,1,5,0,0
89351,-142.857142857143,4,2,1,70,0,0
89819,-142.857142857143,4,2,1,40,0,0
90288,-142.857142857143,4,2,1,65,0,0
90601,-111.111111111111,4,2,1,65,0,0
92085,-111.111111111111,4,2,1,5,0,0
92163,-111.111111111111,4,2,1,65,0,0
95210,-111.111111111111,4,2,1,5,0,0
95288,-111.111111111111,4,2,1,65,0,0
98101,-111.111111111111,4,2,1,70,0,0
98335,-111.111111111111,4,2,1,5,0,0
98413,-111.111111111111,4,2,1,70,0,0
99351,-111.111111111111,4,2,1,55,0,0
100601,-111.111111111111,4,2,1,60,0,0
100913,-111.111111111111,4,2,1,55,0,0
101226,-111.111111111111,4,2,1,50,0,0
101538,-111.111111111111,4,2,1,45,0,0
101851,-111.111111111111,4,2,1,40,0,0
102163,-111.111111111111,4,2,1,35,0,0
102476,-111.111111111111,4,2,1,30,0,0
102788,-111.111111111111,4,2,1,25,0,0
103101,-111.111111111111,4,2,1,20,0,0
103413,-111.111111111111,4,2,1,15,0,0
103726,-111.111111111111,4,2,1,10,0,0
104038,-111.111111111111,4,2,1,5,0,0

[Colours]
Combo1 : 244,149,138
Combo2 : 18,188,237
Combo3 : 223,201,77

[HitObjects]
75,14,1538,5,10,0:0:0:0:
100,16,1616,1,10,0:0:0:0:
126,20,1694,1,10,0:0:0:0:
152,24,1772,1,10,0:0:0:0:
174,31,1851,6,0,P|122:82|142:154,1,142.199995660401,6|0,3:2|3:2,0:0:0:0:
19,201,2319,2,0,B|86:189|77:241|156:228,1,142.199995660401,8|0,0:0|3:2,0:0:0:0:
281,125,2788,2,0,P|238:118|183:102,1,71.0999978302003,8|0,0:0|3:2,0:0:0:0:
222,341,3101,2,0,P|229:288|237:235,1,106.6499967453,10|0,3:2|0:0,0:0:0:0:
244,209,3413,1,0,3:2:0:0:
400,139,3569,2,0,P|345:182|348:251,1,142.199995660401,8|0,0:0|3:2,0:0:0:0:
499,213,4038,2,0,P|456:219|401:235,1,71.0999978302003,8|0,0:0|3:2,0:0:0:0:
327,37,4351,6,0,P|394:52|494:70,1,142.199995660401,14|0,0:0|3:2,0:0:0:0:
257,192,4819,2,0,B|221:164|221:164|215:107|244:72,1,142.199995660401,10|0,0:0|3:2,0:0:0:0:
354,182,5288,2,0,P|346:217|340:251,1,71.0999978302003,10|0,0:0|3:2,0:0:0:0:
115,300,5601,2,0,P|188:290|271:275,1,142.199995660401,14|0,0:0|3:2,0:0:0:0:
201,384,6069,1,8,0:0:0:0:
65,225,6226,2,0,P|30:262|31:317,1,106.6499967453,2|0,0:0|0:0,0:0:0:0:
48,338,6538,1,8,0:0:0:0:
159,208,6694,1,0,1:2:0:0:
159,208,6772,1,0,1:2:0:0:
159,208,6851,6,0,L|137:62,1,142.199995660401,6|0,3:2|3:2,0:0:0:0:
343,0,7319,2,0,P|285:33|281:105,1,142.199995660401,8|0,0:0|3:2,0:0:0:0:
429,96,7788,2,0,P|393:87|358:82,1,71.0999978302003,8|0,0:0|3:2,0:0:0:0:
159,159,8101,6,0,B|229:146|220:202|292:189,1,142.199995660401,14|0,0:0|3:2,0:0:0:0:
197,360,8569,2,0,P|116:359|78:308,1,142.199995660401,10|0,0:0|3:2,0:0:0:0:
252,287,9038,2,0,P|286:277|321:271,1,71.0999978302003,10|0,0:0|3:2,0:0:0:0:
502,202,9351,6,0,P|449:191|397:180,1,106.6499967453,14|0,0:0|0:0,0:0:0:0:
357,173,9663,1,8,0:0:0:0:
471,105,9819,1,8,0:0:0:0:
321,270,9976,1,8,0:0:0:0:
498,360,10132,1,10,0:0:0:0:
449,195,10288,1,8,0:0:0:0:
245,317,10444,5,8,0:0:0:0:
245,317,10522,1,8,0:0:0:0:
245,317,10601,2,0,P|287:357|365:354,1,126.4,2|0,3:2|3:2,0:0:0:0:
217,215,11069,1,8,0:0:0:0:
145,296,11226,2,0,L|155:358,1,63.2,2|0,0:0|1:2,0:0:0:0:
58,243,11538,1,0,1:2:0:0:
325,177,11851,5,6,3:2:0:0:
273,12,12163,2,0,P|229:29|222:98,1,118.500004520416,2|2,3:2|3:2,0:0:0:0:
324,175,12788,1,2,3:2:0:0:
467,141,13101,6,0,P|456:202|451:264,1,118.500004520416,2|2,3:2|3:2,0:0:0:0:
404,350,13569,2,0,P|373:341|341:337,1,59.2500022602082,2|0,0:0|3:2,0:0:0:0:
294,261,13882,2,0,P|263:270|231:274,1,59.2500022602082,2|0,0:0|3:2,0:0:0:0:
160,347,14194,1,2,0:0:0:0:
114,227,14351,6,0,B|78:214|78:214|54:259|79:300,1,118.500004520416,2|2,3:2|3:2,0:0:0:0:
199,205,14976,2,0,P|209:147|226:80,1,118.500004520416,2|2,3:2|3:2,0:0:0:0:
17,27,15601,2,0,B|84:25|64:62|136:57,1,118.500004520416,2|2,3:2|3:2,0:0:0:0:
223,89,16069,2,0,P|254:83|293:80,1,59.2500022602082,2|0,0:0|3:2,0:0:0:0:
352,14,16382,2,0,P|383:19|422:22,1,59.2500022602082,2|0,0:0|3:2,0:0:0:0:
512,104,16851,5,0,3:2:0:0:
422,203,17163,2,0,B|408:275|408:275|390:249|368:244,1,118.500004520416,2|2,3:2|3:2,0:0:0:0:
310,142,17788,1,2,3:2:0:0:
173,243,18101,6,0,P|230:235|290:227,1,118.500004520416,2|2,3:2|3:2,0:0:0:0:
272,324,18569,2,0,L|206:334,1,59.2500022602082,2|0,0:0|3:2,0:0:0:0:
84,267,18882,2,0,P|86:237|91:208,1,59.2500022602082,2|0,0:0|3:2,0:0:0:0:
158,110,19194,1,2,0:0:0:0:
63,71,19351,6,0,P|93:109|167:105,1,118.500004520416,0|0,3:2|3:2,0:0:0:0:
214,27,19819,1,2,0:0:0:0:
313,134,19976,2,0,P|355:95|352:37,1,118.500004520416,2|0,3:2|3:2,0:0:0:0:
512,259,20601,6,0,L|499:334,1,59.2500022602082,2|0,3:2|0:0,0:0:0:0:
365,360,20913,1,8,0:0:0:0:
314,249,21069,1,2,0:0:0:0:
314,249,21147,1,2,0:0:0:0:
314,249,21226,2,0,P|356:241|392:239,1,59.2500022602082,0|0,1:2|3:2,0:0:0:0:
512,175,21538,2,0,P|470:167|434:165,1,59.2500022602082,10|0,0:0|1:2,0:0:0:0:
259,3,21851,6,0,P|245:46|278:105,1,94.8,6|0,3:2|0:0,0:0:0:0:
261,90,22163,2,0,P|290:93|328:103,1,63.2,10|0,0:0|0:0,0:0:0:0:
478,73,22476,1,2,3:2:0:0:
392,23,22632,1,0,3:2:0:0:
453,165,22788,2,0,P|446:193|439:239,1,63.2,10|0,0:0|0:0,0:0:0:0:
229,290,23101,6,0,B|301:289|268:322|358:327,1,126.4,2|10,3:2|0:0,0:0:0:0:
451,357,23569,2,0,P|479:350|512:345,1,63.2,2|0,3:2|0:0,0:0:0:0:
443,223,23882,1,2,3:2:0:0:
347,325,24038,2,0,P|340:294|336:262,1,63.2,8|2,0:0|0:0,0:0:0:0:
208,176,24351,5,2,3:2:0:0:
208,176,24663,2,0,P|203:207|197:238,1,63.2,10|0,0:0|3:2,0:0:0:0:
2,318,24976,1,2,0:0:0:0:
47,235,25132,1,0,3:2:0:0:
101,372,25288,2,0,P|105:340|111:309,1,63.2,10|0,0:0|0:0,0:0:0:0:
197,238,25601,6,0,P|235:283|304:288,1,126.4,2|10,3:2|0:0,0:0:0:0:
389,157,26069,2,0,P|357:161|326:167,1,63.2,2|0,3:2|0:0,0:0:0:0:
394,253,26382,1,2,3:2:0:0:
234,159,26538,2,0,P|239:127|244:96,1,63.2,8|0,0:0|0:0,0:0:0:0:
419,0,26851,6,0,P|405:63|397:126,1,126.4,0|10,3:2|0:0,0:0:0:0:
283,192,27319,2,0,P|248:180|232:146,1,63.2,0|2,3:2|0:0,0:0:0:0:
312,104,27632,5,0,3:2:0:0:
451,204,27788,2,0,P|490:195|531:190,1,63.2,10|0,0:0|0:0,0:0:0:0:
344,273,28101,2,0,B|264:282|302:310|207:319,1,126.4,2|8,3:2|0:0,0:0:0:0:
62,313,28569,6,0,P|30:308|0:302,1,63.2,2|0,3:2|0:0,0:0:0:0:
142,375,28882,1,0,3:2:0:0:
221,233,29038,2,0,P|214:202|209:170,1,63.2,10|0,0:0|0:0,0:0:0:0:
9,135,29351,6,0,P|36:171|120:168,1,126.4,6|8,3:2|0:0,0:0:0:0:
208,51,29819,1,0,3:2:0:0:
89,92,29976,2,0,P|82:61|77:29,1,63.2,0|0,0:0|3:2,0:0:0:0:
203,142,30288,1,8,0:0:0:0:
323,21,30444,5,8,0:0:0:0:
323,21,30522,1,8,0:0:0:0:
323,21,30601,2,0,P|317:52|311:83,1,63.2,0|0,3:2|1:2,0:0:0:0:
411,258,30913,1,8,0:0:0:0:
452,167,31069,2,0,P|397:159|329:200,1,126.4,0|10,3:2|0:0,0:0:0:0:
323,218,31538,1,2,1:2:0:0:
492,359,31694,5,0,1:2:0:0:
492,359,31772,1,0,3:2:0:0:
492,359,31851,2,0,P|440:341|376:335,1,110.599996624756,6|0,3:2|3:2,0:0:0:0:
223,297,32319,2,0,P|210:267|207:235,1,55.299998312378,2|0,0:0|3:2,0:0:0:0:
301,330,32632,2,0,P|296:357|284:382,1,55.299998312378,10|0,0:0|1:2,0:0:0:0:
139,345,32944,5,2,1:2:0:0:
139,345,33022,1,2,0:0:0:0:
139,345,33101,2,0,L|11:374,1,110.599996624756,0|0,3:2|3:2,0:0:0:0:
50,222,33569,5,10,0:0:0:0:
50,222,33726,2,0,L|34:291,1,55.299998312378,2|0,0:0|1:2,0:0:0:0:
3,375,34038,1,0,3:2:0:0:
183,310,34194,5,2,0:0:0:0:
183,310,34272,1,2,0:0:0:0:
183,310,34351,2,0,P|211:354|271:371,1,110.599996624756,2|2,3:2|3:2,0:0:0:0:
390,262,34819,2,0,P|395:234|403:208,1,55.299998312378,10|0,0:0|0:0,0:0:0:0:
308,267,35132,2,0,P|280:272|254:280,1,55.299998312378,10|0,0:0|1:2,0:0:0:0:
75,229,35444,5,2,0:0:0:0:
75,229,35522,1,2,0:0:0:0:
75,229,35601,2,0,P|48:236|21:242,1,55.299998312378,0|2,3:2|0:0,0:0:0:0:
160,318,35913,1,0,3:2:0:0:
160,318,36069,2,0,P|152:291|146:264,1,55.299998312378,10|0,0:0|1:2,0:0:0:0:
276,144,36382,1,0,1:2:0:0:
276,144,36538,2,0,P|270:171|262:197,1,55.299998312378,0|2,3:2|0:0,0:0:0:0:
175,175,36851,6,0,P|105:151|93:46,1,173.800005303955,6|0,3:2|3:2,0:0:0:0:
226,0,37319,2,0,P|213:59|196:117,1,86.9000026519776,10|0,0:0|0:0,0:0:0:0:
19,236,37632,1,2,3:2:0:0:
19,236,37788,2,0,P|8:193|0:151,1,86.9000026519776,8|2,0:0|3:2,0:0:0:0:
10,132,38022,1,8,0:0:0:0:
11,130,38101,2,0,B|108:130|69:177|194:176,1,173.800005303955,8|0,0:0|3:2,0:0:0:0:
352,256,38569,5,10,0:0:0:0:
352,256,38726,2,0,P|393:244|436:234,1,86.9000026519776,2|2,0:0|3:2,0:0:0:0:
235,120,39038,2,0,B|218:137|218:137|217:173|261:189,1,86.9000026519776,10|2,0:0|0:0,0:0:0:0:
275,198,39272,1,2,0:0:0:0:
275,198,39351,2,0,P|338:157|448:160,1,173.800005303955,10|0,0:0|3:2,0:0:0:0:
512,328,39819,6,0,P|458:328|412:301,1,86.9000026519776,10|8,0:0|0:0,0:0:0:0:
428,315,40132,1,0,1:2:0:0:
217,384,40288,2,0,P|257:368|300:371,1,86.9000026519776,2|2,3:2|0:0,0:0:0:0:
351,311,40601,1,0,3:2:0:0:
351,311,40913,6,0,P|354:287|361:262,3,43.4500013259888,8|2|2|2,0:0|0:0|0:0|0:0,0:0:0:0:
203,173,41226,2,0,P|199:147|194:119,3,43.4500013259888,8|2|2|2,0:0|0:0|0:0|0:0,0:0:0:0:
202,112,41538,5,8,0:0:0:0:
242,95,41616,1,8,0:0:0:0:
280,114,41694,1,8,0:0:0:0:
309,146,41772,1,8,0:0:0:0:
353,150,41851,1,10,0:0:0:0:
353,150,42632,5,0,3:2:0:0:
474,247,42788,1,10,0:0:0:0:
478,221,42866,1,8,0:0:0:0:
483,195,42944,1,8,0:0:0:0:
487,169,43022,1,8,0:0:0:0:
492,143,43101,6,0,P|419:179|340:133,1,158,6|10,3:2|0:0,0:0:0:0:
407,0,43569,2,0,P|415:48|423:98,1,79,2|0,0:0|3:2,0:0:0:0:
281,213,43882,2,0,P|255:155|261:135,1,79,2|8,3:2|0:0,0:0:0:0:
417,270,44194,1,2,0:0:0:0:
347,335,44351,6,0,P|251:321|161:308,1,158,0|10,3:2|0:0,0:0:0:0:
38,224,44819,1,0,3:2:0:0:
79,375,44976,2,0,P|86:336|98:298,1,79,2|0,0:0|3:2,0:0:0:0:
160,153,45288,2,0,P|172:189|179:228,1,79,10|0,0:0|0:0,0:0:0:0:
75,104,45601,6,0,P|138:43|215:72,1,158,2|10,3:2|0:0,0:0:0:0:
354,123,46069,2,0,P|315:134|277:142,1,79,2|0,0:0|3:2,0:0:0:0:
431,208,46382,1,2,3:2:0:0:
450,102,46538,2,0,P|443:62|436:24,1,79,8|2,0:0|3:2,0:0:0:0:
277,142,46851,6,0,P|291:229|304:305,1,158,0|8,3:2|0:0,0:0:0:0:
431,208,47319,1,2,3:2:0:0:
512,333,47476,2,0,P|473:324|434:319,1,79,2|0,0:0|3:2,0:0:0:0:
302,297,47788,2,0,P|293:334|288:373,1,79,8|2,0:0|0:0,0:0:0:0:
99,384,48101,6,0,P|84:296|71:220,1,158,2|10,3:2|0:0,0:0:0:0:
214,137,48569,2,0,P|196:173|156:195,1,79,2|0,0:0|3:2,0:0:0:0:
30,123,48882,2,0,P|66:115|106:109,1,79,2|8,3:2|0:0,0:0:0:0:
201,29,49194,1,2,0:0:0:0:
314,194,49351,6,0,P|307:154|300:116,1,79,0|0,3:2|0:0,0:0:0:0:
471,114,49663,2,0,P|428:111|395:131,1,79,10|0,0:0|3:2,0:0:0:0:
435,293,49976,2,0,P|441:249|447:215,1,79,2|0,0:0|3:2,0:0:0:0:
264,274,50288,2,0,P|297:292|336:288,1,79,10|0,0:0|0:0,0:0:0:0:
126,369,50601,6,0,P|121:300|51:252,1,158,6|10,3:2|0:0,0:0:0:0:
155,122,51069,2,0,P|162:158|170:227,1,79,2|0,0:0|3:2,0:0:0:0:
236,336,51382,2,0,P|241:296|248:258,1,79,2|8,3:2|0:0,0:0:0:0:
375,64,51694,6,0,P|401:157|350:214,1,158,6|0,3:2|3:2,0:0:0:0:
240,142,52163,2,0,P|278:135|316:128,1,79,8|0,0:0|3:2,0:0:0:0:
200,36,52476,1,10,0:0:0:0:
155,122,52632,1,2,1:2:0:0:
285,42,52788,1,2,1:2:0:0:
172,215,52944,5,2,3:2:0:0:
172,215,53022,1,2,0:0:0:0:
172,215,53101,2,0,P|132:208|94:201,1,79,4|2,3:2|0:0,0:0:0:0:
211,322,53413,1,10,0:0:0:0:
255,216,53569,1,2,0:0:0:0:
136,374,53726,2,0,P|129:334|122:296,1,79,2|0,3:2|3:2,0:0:0:0:
351,174,54038,2,0,P|339:240|330:293,1,118.5,10|0,0:0|0:0,0:0:0:0:
328,327,54351,6,0,P|382:273|464:293,1,158,2|10,3:2|0:0,0:0:0:0:
491,154,54819,2,0,P|482:115|477:76,1,79,2|0,3:2|0:0,0:0:0:0:
314,135,55132,2,0,P|357:143|410:151,1,79,2|8,3:2|0:0,0:0:0:0:
214,216,55444,1,2,0:0:0:0:
144,113,55601,6,0,P|150:73|157:35,1,79,0|2,3:2|0:0,0:0:0:0:
236,126,55913,1,10,0:0:0:0:
119,201,56069,1,2,0:0:0:0:
251,277,56226,2,0,P|289:268|328:263,1,79,2|0,3:2|3:2,0:0:0:0:
352,41,56538,2,0,P|340:84|315:186,1,118.5,10|0,0:0|0:0,0:0:0:0:
340,178,56851,6,0,B|427:181|390:230|499:238,1,158,6|10,3:2|0:0,0:0:0:0:
315,369,57319,2,0,P|274:313|180:345,1,158,2|0,3:2|3:2,0:0:0:0:
45,229,57788,1,8,0:0:0:0:
45,229,57866,1,8,0:0:0:0:
45,229,57944,1,10,0:0:0:0:
107,369,58101,6,0,P|120:300|135:194,1,158,8|0,0:0|3:2,0:0:0:0:
195,32,58569,1,8,0:0:0:0:
19,69,58726,2,0,P|56:113|115:120,1,118.5,2|0,0:0|0:0,0:0:0:0:
145,113,59038,1,10,0:0:0:0:
287,25,59194,1,0,3:2:0:0:
297,263,59351,6,0,L|267:117,1,118.5,14|0,0:0|0:0,0:0:0:0:
267,117,59663,1,2,3:2:0:0:
403,13,59819,2,0,P|417:79|373:131,1,118.5,10|0,0:0|0:0,0:0:0:0:
373,145,60132,1,2,3:2:0:0:
470,273,60288,2,0,P|476:234|484:195,1,79,8|2,0:0|0:0,0:0:0:0:
342,61,60601,6,0,B|304:34|263:57|263:57|244:96|197:98,1,158,12|0,0:0|3:2,0:0:0:0:
0,36,61069,2,0,P|46:52|81:77,1,79,8|2,0:0|3:2,0:0:0:0:
75,219,61382,1,0,3:2:0:0:
75,219,61538,2,0,P|54:178|61:141,1,79,8|0,0:0|3:2,0:0:0:0:
71,68,61851,5,10,0:0:0:0:
71,68,62163,1,8,0:0:0:0:
229,126,62319,1,2,3:2:0:0:
129,168,62476,1,10,0:0:0:0:
217,0,62632,1,0,3:2:0:0:
352,144,62788,5,8,0:0:0:0:
341,173,62866,1,2,0:0:0:0:
332,203,62944,1,2,0:0:0:0:
325,233,63022,1,2,0:0:0:0:
321,264,63101,2,0,B|224:277|270:311|178:326,1,158,6|10,3:2|0:0,0:0:0:0:
0,227,63569,2,0,P|16:268|23:313,1,79,2|0,0:0|3:2,0:0:0:0:
169,212,63882,2,0,P|176:173|191:136,1,79,2|8,3:2|0:0,0:0:0:0:
117,50,64194,5,2,0:0:0:0:
191,136,64351,2,0,P|249:144|322:66,1,158,0|10,3:2|0:0,0:0:0:0:
490,57,64819,2,0,P|504:93|512:132,1,79,0|2,3:2|0:0,0:0:0:0:
401,51,65132,1,0,3:2:0:0:
345,204,65288,2,0,P|306:211|269:226,1,79,10|0,0:0|0:0,0:0:0:0:
423,316,65601,6,0,P|482:293|507:188,1,158,2|10,3:2|0:0,0:0:0:0:
326,309,66069,2,0,P|333:347|348:384,1,79,2|0,0:0|3:2,0:0:0:0:
512,308,66382,1,2,3:2:0:0:
421,227,66538,2,0,P|382:219|345:204,1,79,8|2,0:0|3:2,0:0:0:0:
160,32,66851,6,0,P|193:114|210:201,1,158,0|8,3:2|0:0,0:0:0:0:
4,236,67319,1,2,3:2:0:0:
31,310,67476,2,0,P|69:319|105:334,1,79,2|0,0:0|3:2,0:0:0:0:
122,148,67788,2,0,P|85:163|47:172,1,79,8|2,0:0|0:0,0:0:0:0:
208,272,68101,6,0,P|277:240|297:166,1,158,2|10,3:2|0:0,0:0:0:0:
122,148,68569,2,0,P|160:157|196:171,1,79,2|0,0:0|3:2,0:0:0:0:
362,32,68882,2,0,P|325:46|287:55,1,79,2|8,3:2|0:0,0:0:0:0:
210,36,69194,1,2,0:0:0:0:
296,165,69351,6,0,B|390:156|346:119|457:108,1,158,0|10,3:2|0:0,0:0:0:0:
441,109,69819,1,0,3:2:0:0:
364,286,69976,2,0,P|378:322|387:360,1,79,2|0,0:0|3:2,0:0:0:0:
502,264,70288,2,0,P|487:227|478:189,1,79,10|0,0:0|0:0,0:0:0:0:
296,165,70601,6,0,P|250:128|139:142,1,158,6|10,3:2|0:0,0:0:0:0:
10,258,71069,2,0,P|24:294|33:332,1,79,2|0,0:0|3:2,0:0:0:0:
112,245,71382,1,2,3:2:0:0:
0,181,71538,1,8,0:0:0:0:
119,336,71694,2,0,P|196:353|270:380,1,158,6|0,3:2|3:2,0:0:0:0:
437,335,72163,6,0,P|475:325|511:311,1,79,8|0,0:0|3:2,0:0:0:0:
382,236,72476,1,10,0:0:0:0:
350,384,72632,2,0,P|340:345|326:309,1,79,2|2,1:2|1:2,0:0:0:0:
186,221,72944,5,2,3:2:0:0:
186,221,73022,1,2,0:0:0:0:
186,221,73101,2,0,P|147:230|111:244,1,79,4|2,3:2|0:0,0:0:0:0:
272,80,73413,2,0,P|262:118|248:154,1,79,10|2,0:0|0:0,0:0:0:0:
382,236,73726,1,2,3:2:0:0:
250,304,73882,1,0,3:2:0:0:
382,236,74038,2,0,P|367:199|358:161,1,79,10|0,0:0|0:0,0:0:0:0:
496,57,74351,6,0,P|448:89|335:70,1,158,2|10,3:2|0:0,0:0:0:0:
272,80,74819,2,0,P|235:65|197:56,1,79,2|0,3:2|0:0,0:0:0:0:
34,134,75132,2,0,P|72:124|108:110,1,79,2|8,3:2|0:0,0:0:0:0:
229,231,75444,5,2,0:0:0:0:
229,231,75601,2,0,P|214:267|205:305,1,79,0|2,3:2|0:0,0:0:0:0:
51,383,75913,2,0,P|41:344|27:308,1,79,10|2,0:0|0:0,0:0:0:0:
130,281,76226,5,2,3:2:0:0:
234,383,76382,1,0,3:2:0:0:
130,281,76538,2,0,P|168:290|204:304,1,79,10|0,0:0|0:0,0:0:0:0:
421,213,76851,6,0,P|350:242|334:317,1,158,6|10,3:2|0:0,0:0:0:0:
480,384,77319,2,0,P|470:345|456:309,1,79,6|0,3:2|0:0,0:0:0:0:
512,192,77632,1,10,0:2:0:0:
340,238,77788,5,8,0:0:0:0:
340,238,77866,1,8,0:0:0:0:
340,238,77944,1,10,0:0:0:0:
340,238,78022,1,8,0:0:0:0:
340,238,78101,2,0,P|320:157|289:81,1,158,12|0,0:0|3:2,0:0:0:0:
400,48,78569,6,0,P|436:62|474:71,1,79,8|2,0:0|3:2,0:0:0:0:
356,171,78882,1,0,3:2:0:0:
356,171,79038,2,0,P|317:180|281:194,1,79,10|0,0:0|3:2,0:0:0:0:
108,95,79351,6,0,P|43:100|3:191,1,158,10|2,0:0|3:2,0:0:0:0:
122,252,79819,2,0,P|160:261|202:277,1,79,10|0,0:0|0:0,0:0:0:0:
23,305,80132,1,2,3:2:0:0:
23,305,80288,2,0,P|13:343|0:379,1,79,0|2,0:0|3:2,0:0:0:0:
178,373,80601,6,0,B|297:363|237:323|355:317,1,181.700003465653,8|0,0:0|3:2,0:0:0:0:
512,365,81069,2,0,P|475:350|423:337,1,90.8500017328263,8|2,0:0|0:0,0:0:0:0:
317,233,81382,1,0,3:2:0:0:
317,233,81538,2,0,P|355:223|407:204,1,90.8500017328263,8|0,0:0|3:2,0:0:0:0:
208,47,81851,6,0,P|120:137|134:173,1,181.700003465653,10|8,0:0|0:0,0:0:0:0:
133,172,82319,1,2,3:2:0:0:
328,97,82476,1,10,0:0:0:0:
207,135,82633,1,0,1:2:0:0:
317,233,82788,2,0,P|355:242|407:262,1,90.8500017328263,0|0,3:2|3:2,0:0:0:0:
229,301,83101,5,6,3:2:0:0:
222,274,83413,1,0,3:2:0:0:
219,246,83726,1,0,3:2:0:0:
214,219,84038,1,0,3:2:0:0:
103,163,84351,6,0,L|114:316,1,126.4,2|0,3:2|3:2,0:0:0:0:
193,341,84819,2,0,B|272:331|246:381|322:367,1,126.4,2|0,0:0|0:0,0:0:0:0:
387,269,85288,2,0,L|310:285,1,63.2,2|0,3:2|0:0,0:0:0:0:
201,166,85601,6,0,B|227:156|254:124|254:124|242:186|231:270,1,189.6,2|0,3:2|0:0,0:0:0:0:
169,371,86226,2,0,L|153:280,1,79,2|0,3:2|0:0,0:0:0:0:
92,226,86538,1,8,0:0:0:0:
201,166,86694,6,0,B|299:172|247:219|358:227,1,158,6|0,3:2|1:2,0:0:0:0:
434,121,87163,2,0,P|390:132|336:145,1,79,8|0,0:0|0:0,0:0:0:0:
237,59,87476,1,10,0:0:0:0:
365,0,87632,1,2,3:2:0:0:
241,172,87788,1,10,0:0:0:0:
241,172,87866,1,8,0:0:0:0:
241,172,87944,2,0,L|194:166,1,38.5000011749268,10|8,0:0|0:0,0:0:0:0:
13,246,88101,6,0,B|12:271|20:298|57:318|85:320|126:286|136:247|110:203|79:184|79:184|83:133|83:133|118:161|118:161|109:203|152:235,1,414.749987342835,2|0,3:2|0:0,0:0:0:0:
220,307,89351,5,10,0:0:0:0:
473,367,90288,5,2,0:0:0:0:
475,342,90366,1,10,0:0:0:0:
479,315,90444,1,10,0:0:0:0:
483,290,90522,1,10,0:0:0:0:
485,264,90601,6,0,B|407:251|416:303|349:291,1,142.199995660401,6|0,3:2|3:2,0:0:0:0:
238,143,91069,2,0,P|307:137|353:188,1,142.199995660401,8|0,0:0|3:2,0:0:0:0:
255,314,91538,2,0,P|263:279|268:244,1,71.0999978302003,8|0,0:0|3:2,0:0:0:0:
138,123,91851,2,0,P|145:176|153:229,1,106.6499967453,10|0,3:2|0:0,0:0:0:0:
158,270,92163,1,0,3:2:0:0:
0,384,92319,2,0,P|55:341|52:272,1,142.199995660401,8|0,0:0|3:2,0:0:0:0:
0,146,92788,2,0,P|43:152|98:168,1,71.0999978302003,8|0,0:0|3:2,0:0:0:0:
273,15,93101,6,0,P|206:30|121:41,1,142.199995660401,14|0,0:0|3:2,0:0:0:0:
143,250,93569,2,0,P|176:211|284:231,1,142.199995660401,10|0,0:0|3:2,0:0:0:0:
388,95,94038,2,0,P|379:129|374:164,1,71.0999978302003,10|0,0:0|3:2,0:0:0:0:
476,384,94351,2,0,P|466:311|451:228,1,142.199995660401,14|0,0:0|3:2,0:0:0:0:
473,106,94819,1,8,0:0:0:0:
291,121,94976,6,0,B|229:114|249:87|194:80,1,106.6499967453,2|0,0:0|0:0,0:0:0:0:
150,76,95288,1,8,0:0:0:0:
21,177,95444,1,0,1:2:0:0:
21,177,95522,1,0,1:2:0:0:
21,177,95601,6,0,L|-1:31,1,142.199995660401,6|0,3:2|3:2,0:0:0:0:
164,174,96069,2,0,P|198:115|278:107,1,142.199995660401,8|0,0:0|3:2,0:0:0:0:
331,213,96538,2,0,P|295:207|261:199,1,71.0999978302003,8|0,0:0|3:2,0:0:0:0:
42,296,96851,6,0,P|110:281|195:267,1,142.199995660401,14|0,0:0|3:2,0:0:0:0:
378,384,97319,2,0,P|329:334|261:339,1,142.199995660401,10|0,0:0|3:2,0:0:0:0:
421,175,97788,2,0,P|410:209|404:244,1,71.0999978302003,10|0,0:0|3:2,0:0:0:0:
140,164,98101,6,0,P|193:175|245:186,1,106.6499967453,14|0,0:0|0:0,0:0:0:0:
285,193,98413,1,8,0:0:0:0:
181,268,98569,1,8,0:0:0:0:
327,120,98726,1,8,0:0:0:0:
136,29,98882,1,10,0:0:0:0:
206,163,99038,1,8,0:0:0:0:
412,64,99194,5,8,0:0:0:0:
412,64,99272,1,8,0:0:0:0:
412,64,99351,2,0,P|368:15|285:34,1,142.199995660401,2|0,3:2|3:2,0:0:0:0:
378,157,99819,1,8,0:0:0:0:
496,9,99976,2,0,L|503:79,1,71.0999978302003,2|0,0:0|1:2,0:0:0:0:
512,221,100288,1,0,1:2:0:0:
256,192,100601,5,14,0:0:0:0:
256,192,100679,12,0,105288,0:0:0:0:
