osu file format v14

[General]
AudioFilename: audio.ogg
AudioLeadIn: 0
PreviewTime: 42085
Countdown: 0
SampleSet: Soft
StackLeniency: 0.3
Mode: 0
LetterboxInBreaks: 0
WidescreenStoryboard: 0

[Editor]
Bookmarks: 83209
DistanceSpacing: 0.9
BeatDivisor: 4
GridSize: 16
TimelineZoom: 1.9

[Metadata]
Title:Futari Sketch (Short Ver.)
TitleUnicode:二人スケッチ (Short Ver.)
Artist:Rin'ca
ArtistUnicode:Rin'ca
Creator:KennethBBG
Version:Extra
Source:アマエミ-longing for you-
Tags:Aurorance Surac lushifer eroge visual novel Opening OP j-pop pop j-rock rock japanese female vocal vocalist azarashi soft yozuca* nekusam rinca amaemi video game
BeatmapID:3945415
BeatmapSetID:1912655

[Difficulty]
HPDrainRate:5
CircleSize:4
OverallDifficulty:9
ApproachRate:9.4
SliderMultiplier:1.7
SliderTickRate:1

[Events]
//Background and Video events
0,0,"Background2.jpg",0,0
//Break Periods
//Storyboard Layer 0 (Background)
//Storyboard Layer 1 (Fail)
//Storyboard Layer 2 (Pass)
//Storyboard Layer 3 (Foreground)
//Storyboard Layer 4 (Overlay)
//Storyboard Sound Samples

[TimingPoints]
1851,312.5,4,2,1,65,1,0
1851,-83.3333333333333,4,2,1,65,0,0
3335,-83.3333333333333,4,2,1,5,0,0
3413,-83.3333333333333,4,2,1,65,0,0
4585,-83.3333333333333,4,2,1,5,0,0
4663,-83.3333333333333,4,2,1,65,0,0
5835,-83.3333333333333,4,2,1,5,0,0
5913,-83.3333333333333,4,2,1,65,0,0
8335,-83.3333333333333,4,2,1,5,0,0
8413,-83.3333333333333,4,2,1,65,0,0
9351,-83.3333333333333,4,2,1,70,0,0
10601,-100,4,2,1,65,0,0
11851,-133.333333333333,4,2,1,55,0,0
21851,-111.111111111111,4,2,1,65,0,0
22085,-111.111111111111,4,2,1,5,0,0
22163,-111.111111111111,4,2,1,65,0,0
24585,-111.111111111111,4,2,1,5,0,0
24663,-111.111111111111,4,2,1,65,0,0
27085,-111.111111111111,4,2,1,5,0,0
27163,-111.111111111111,4,2,1,65,0,0
29351,-83.3333333333333,4,2,1,65,0,0
29585,-83.3333333333333,4,2,1,5,0,0
29663,-83.3333333333333,4,2,1,65,0,0
30601,-83.3333333333333,4,2,1,65,0,0
31851,-142.857142857143,4,2,1,45,0,0
36851,-90.9090909090909,4,2,1,65,0,0
37085,-90.9090909090909,4,2,1,5,0,0
37163,-90.9090909090909,4,2,1,65,0,0
37553,-90.9090909090909,4,2,1,5,0,0
37632,-90.9090909090909,4,2,1,65,0,0
39351,-83.3333333333333,4,2,1,65,0,0
40601,-83.3333333333333,4,2,1,65,0,0
40835,-83.3333333333333,4,2,1,5,0,0
40850,-83.3333333333333,4,2,1,65,0,0
40913,-83.3333333333333,4,2,1,65,0,0
41851,-500,4,2,1,65,0,0
42163,-500,4,2,1,35,0,0
42476,-250,4,2,1,35,0,0
42788,-250,4,2,1,45,0,0
43101,-83.3333333333333,4,2,1,70,0,1
50835,-83.3333333333333,4,2,1,5,0,1
50913,-83.3333333333333,4,2,1,70,0,1
54585,-83.3333333333333,4,2,1,5,0,1
54663,-83.3333333333333,4,2,1,70,0,1
57085,-83.3333333333333,4,2,1,5,0,1
57163,-83.3333333333333,4,2,1,70,0,1
57553,-83.3333333333333,4,2,1,5,0,1
57632,-83.3333333333333,4,2,1,70,0,1
57944,-83.3333333333333,4,2,1,75,0,1
58335,-83.3333333333333,4,2,1,5,0,1
58413,-83.3333333333333,4,2,1,75,0,1
58960,-83.3333333333333,4,2,1,5,0,1
59038,-83.3333333333333,4,2,1,75,0,1
59585,-83.3333333333333,4,2,1,5,0,1
59663,-83.3333333333333,4,2,1,75,0,1
60053,-83.3333333333333,4,2,1,5,0,1
60132,-83.3333333333333,4,2,1,75,0,1
63101,-83.3333333333333,4,2,1,70,0,1
70835,-83.3333333333333,4,2,1,5,0,1
70913,-83.3333333333333,4,2,1,70,0,1
74585,-83.3333333333333,4,2,1,5,0,1
74663,-83.3333333333333,4,2,1,70,0,1
77085,-83.3333333333333,4,2,1,5,0,1
77163,-83.3333333333333,4,2,1,70,0,1
77553,-83.3333333333333,4,2,1,5,0,1
77632,-83.3333333333333,4,2,1,70,0,1
77944,-83.3333333333333,4,2,1,75,0,1
78101,-71.4285714285714,4,2,1,75,0,1
78335,-71.4285714285714,4,2,1,5,0,1
78413,-71.4285714285714,4,2,1,75,0,1
79585,-71.4285714285714,4,2,1,5,0,1
79663,-71.4285714285714,4,2,1,75,0,1
80601,-83.3333333333333,4,2,1,75,0,0
83101,-83.3333333333333,4,2,1,55,0,0
84351,-125,4,2,1,55,0,0
86226,-100,4,2,1,55,0,0
86928,-100,4,2,1,5,0,0
87007,-100,4,2,1,55,0,0
87476,-100,4,2,1,60,0,0
88101,-133.333333333333,4,2,1,60,0,0
88257,-133.333333333333,4,2,1,40,0,0
89038,-133.333333333333,4,2,1,60,0,0
89351,-133.333333333333,4,2,1,70,0,0
89819,-133.333333333333,4,2,1,40,0,0
90288,-133.333333333333,4,2,1,65,0,0
90601,-83.3333333333333,4,2,1,65,0,0
92085,-83.3333333333333,4,2,1,5,0,0
92163,-83.3333333333333,4,2,1,65,0,0
93335,-83.3333333333333,4,2,1,5,0,0
93413,-83.3333333333333,4,2,1,65,0,0
94585,-83.3333333333333,4,2,1,5,0,0
94663,-83.3333333333333,4,2,1,65,0,0
97085,-83.3333333333333,4,2,1,5,0,0
97163,-83.3333333333333,4,2,1,65,0,0
98101,-83.3333333333333,4,2,1,70,0,0
99351,-100,4,2,1,55,0,0
100601,-100,4,2,1,60,0,0
100913,-100,4,2,1,55,0,0
101226,-100,4,2,1,50,0,0
101538,-100,4,2,1,45,0,0
101851,-100,4,2,1,40,0,0
102163,-100,4,2,1,35,0,0
102476,-100,4,2,1,30,0,0
102788,-100,4,2,1,25,0,0
103101,-100,4,2,1,20,0,0
103413,-100,4,2,1,15,0,0
103726,-100,4,2,1,10,0,0
104038,-100,4,2,1,5,0,0
118101,-83.3333333333333,4,2,1,5,0,0
120601,-100,4,2,1,5,0,0
125601,-83.3333333333333,4,2,1,5,0,0
128101,-76.9230769230769,4,2,1,5,0,0
129351,-71.4285714285714,4,2,1,5,0,0

[Colours]
Combo1 : 84,73,177
Combo2 : 55,198,223
Combo3 : 0,128,128

[HitObjects]
470,145,1538,5,10,0:0:0:0:
502,171,1616,1,10,0:0:0:0:
512,211,1694,1,10,0:0:0:0:
495,249,1772,1,10,0:0:0:0:
471,283,1851,6,0,B|384:271|240:244,1,203.999993774414,6|0,3:2|3:2,0:0:0:0:
11,321,2319,2,0,P|94:357|191:290,1,203.999993774414,8|0,0:0|3:2,0:0:0:0:
287,103,2788,1,8,0:0:0:0:
119,222,2944,1,0,3:2:0:0:
152,19,3101,6,0,B|153:99|205:81|198:169,1,152.999995330811,10|0,3:2|0:0,0:0:0:0:
202,197,3413,1,0,3:2:0:0:
362,25,3569,2,0,P|312:14|261:5,1,101.999996887207,8|0,0:0|0:0,0:0:0:0:
358,169,3882,1,0,3:2:0:0:
499,56,4038,2,0,P|488:105|479:156,1,101.999996887207,8|0,0:0|3:2,0:0:0:0:
398,363,4351,6,0,P|384:286|368:210,1,152.999995330811,14|0,0:0|0:0,0:0:0:0:
358,169,4663,1,0,3:2:0:0:
167,313,4819,2,0,P|116:304|66:293,1,101.999996887207,10|0,0:0|0:0,0:0:0:0:
237,188,5132,1,0,3:2:0:0:
48,78,5288,1,10,0:0:0:0:
66,293,5444,5,0,3:2:0:0:
66,293,5522,1,2,0:0:0:0:
66,293,5601,2,0,B|82:220|134:238|132:156,1,152.999995330811,14|0,0:0|0:0,0:0:0:0:
140,125,5913,1,0,3:2:0:0:
248,298,6069,1,8,0:0:0:0:
394,118,6226,2,0,P|343:109|294:96,1,101.999996887207,2|0,0:0|3:2,0:0:0:0:
356,307,6538,1,8,0:0:0:0:
402,327,6616,1,8,0:0:0:0:
452,319,6694,1,0,1:2:0:0:
489,285,6772,1,0,1:2:0:0:
511,242,6851,6,0,P|490:106|480:27,1,203.999993774414,6|0,3:2|3:2,0:0:0:0:
305,232,7319,2,0,P|354:219|404:210,1,101.999996887207,8|0,0:0|0:0,0:0:0:0:
482,41,7632,1,0,3:2:0:0:
293,98,7788,2,0,P|242:89|193:76,1,101.999996887207,8|0,0:0|3:2,0:0:0:0:
80,298,8101,6,0,B|111:302|148:336|148:336|167:292|193:274,1,152.999995330811,14|0,0:0|0:0,0:0:0:0:
219,263,8413,1,0,3:2:0:0:
75,22,8569,2,0,P|87:71|96:121,1,101.999996887207,10|0,0:0|0:0,0:0:0:0:
254,53,8882,1,0,3:2:0:0:
117,214,9038,2,0,P|67:201|17:192,1,101.999996887207,10|0,0:0|3:2,0:0:0:0:
282,362,9351,6,0,B|399:352|357:295|469:283,1,203.999993774414,14|8,0:0|0:0,0:0:0:0:
275,184,9819,1,8,0:0:0:0:
456,381,9976,1,8,0:0:0:0:
512,144,10132,1,10,0:0:0:0:
420,256,10288,1,8,0:0:0:0:
201,84,10444,5,8,0:0:0:0:
201,84,10522,1,8,0:0:0:0:
201,84,10601,2,0,P|285:68|375:50,1,170,2|0,3:2|3:2,0:0:0:0:
301,186,11069,1,8,0:0:0:0:
135,0,11226,5,2,0:0:0:0:
101,89,11382,1,0,1:2:0:0:
133,175,11538,1,0,1:2:0:0:
359,192,11851,5,6,3:2:0:0:
359,192,12163,2,0,B|384:144|384:144|355:38,1,127.500004863739,2|2,3:2|3:2,0:0:0:0:
437,0,12788,1,2,3:2:0:0:
286,137,13101,2,0,P|229:123|156:101,1,127.500004863739,2|2,3:2|3:2,0:0:0:0:
64,90,13569,2,0,P|76:135|81:166,1,63.7500024318696,2|0,0:0|3:2,0:0:0:0:
149,224,13882,2,0,P|137:269|132:300,1,63.7500024318696,2|0,0:0|3:2,0:0:0:0:
42,278,14194,1,2,0:0:0:0:
189,368,14351,6,0,P|258:343|314:327,1,127.500004863739,2|2,3:2|3:2,0:0:0:0:
474,230,14976,1,2,3:2:0:0:
294,157,15288,1,2,3:2:0:0:
421,59,15601,2,0,P|396:128|380:184,1,127.500004863739,2|2,3:2|3:2,0:0:0:0:
465,233,16069,2,0,P|473:202|465:172,1,63.7500024318696,2|0,0:0|3:2,0:0:0:0:
299,157,16382,2,0,P|292:195|305:226,1,63.7500024318696,2|0,0:0|3:2,0:0:0:0:
0,91,16851,5,0,3:2:0:0:
0,91,17163,2,0,B|80:86|45:126|134:130,1,127.500004863739,2|2,3:2|3:2,0:0:0:0:
213,0,17788,1,2,3:2:0:0:
318,71,18101,2,0,P|306:131|292:219,1,127.500004863739,2|2,3:2|3:2,0:0:0:0:
215,266,18569,2,0,P|183:257|148:253,1,63.7500024318696,2|0,0:0|3:2,0:0:0:0:
64,169,18882,2,0,P|32:178|-3:182,1,63.7500024318696,2|0,0:0|3:2,0:0:0:0:
36,384,19194,1,2,0:0:0:0:
36,384,19351,6,0,P|47:322|80:244,1,127.500004863739,0|0,3:2|3:2,0:0:0:0:
159,346,19819,1,2,0:0:0:0:
236,276,19976,2,0,B|303:262|285:314|357:301,1,127.500004863739,2|0,3:2|3:2,0:0:0:0:
342,86,20601,6,0,L|331:175,1,63.7500024318696,2|0,3:2|0:0,0:0:0:0:
415,24,20913,1,8,0:0:0:0:
240,94,21069,1,2,0:0:0:0:
240,94,21147,1,2,0:0:0:0:
240,94,21226,2,0,P|201:88|177:84,1,63.7500024318696,0|0,1:2|3:2,0:0:0:0:
273,0,21538,1,10,0:0:0:0:
343,90,21694,1,0,1:2:0:0:
221,313,21851,6,0,B|161:304|178:271|112:267,1,114.749996498108,6|0,3:2|0:0,0:0:0:0:
95,250,22163,2,0,P|104:210|116:173,1,76.4999976654053,10|0,0:0|0:0,0:0:0:0:
181,90,22476,1,2,3:2:0:0:
48,135,22632,1,0,3:2:0:0:
195,202,22788,2,0,P|235:193|273:181,1,76.4999976654053,10|0,0:0|0:0,0:0:0:0:
442,313,23101,6,0,P|358:285|272:265,1,152.999995330811,2|10,3:2|0:0,0:0:0:0:
349,119,23569,2,0,P|362:157|370:196,1,76.4999976654053,2|0,3:2|0:0,0:0:0:0:
442,313,23882,2,0,P|451:273|463:235,1,76.4999976654053,2|8,3:2|0:0,0:0:0:0:
494,119,24194,1,2,0:0:0:0:
345,23,24351,6,0,B|274:30|295:63|230:70,1,114.749996498108,2|0,3:2|0:0,0:0:0:0:
202,84,24663,2,0,P|218:130|232:178,1,76.4999976654053,10|0,0:0|3:2,0:0:0:0:
349,119,24976,1,2,0:0:0:0:
269,282,25132,1,0,3:2:0:0:
461,249,25288,2,0,P|422:238|384:223,1,76.4999976654053,10|0,0:0|0:0,0:0:0:0:
179,320,25601,6,0,P|220:365|330:355,1,152.999995330811,2|10,3:2|0:0,0:0:0:0:
293,209,26069,2,0,P|279:246|268:285,1,76.4999976654053,2|0,3:2|0:0,0:0:0:0:
198,148,26382,1,2,3:2:0:0:
349,123,26538,1,8,0:0:0:0:
349,123,26851,6,0,P|413:146|467:159,1,114.749996498108,0|0,3:2|0:0,0:0:0:0:
498,162,27163,2,0,P|484:124|473:85,1,76.4999976654053,10|0,0:0|3:2,0:0:0:0:
392,227,27476,1,2,0:0:0:0:
493,291,27632,1,0,3:2:0:0:
352,384,27788,2,0,P|314:369|275:358,1,76.4999976654053,10|0,0:0|0:0,0:0:0:0:
13,258,28101,6,0,P|69:205|144:224,1,152.999995330811,2|8,3:2|0:0,0:0:0:0:
185,374,28569,2,0,P|205:292|234:214,1,152.999995330811,2|0,3:2|3:2,0:0:0:0:
374,203,29038,2,0,P|345:241|311:250,1,76.4999976654053,10|0,0:0|0:0,0:0:0:0:
234,0,29351,6,0,B|250:70|301:53|298:133,1,152.999995330811,6|0,3:2|0:0,0:0:0:0:
303,162,29663,1,8,0:0:0:0:
372,326,29819,2,0,P|297:378|198:320,1,203.999993774414,0|0,3:2|3:2,0:0:0:0:
100,170,30288,2,0,B|137:176|162:218|162:218|164:171|191:146,1,152.999995330811,8|8,0:0|0:0,0:0:0:0:
205,139,30601,5,0,3:2:0:0:
285,284,30757,1,0,1:2:0:0:
119,357,30913,5,8,0:0:0:0:
161,217,31069,1,0,3:2:0:0:
212,370,31226,5,10,0:0:0:0:
78,268,31382,1,10,0:0:0:0:
157,98,31538,1,2,1:2:0:0:
157,98,31851,6,0,P|200:108|283:121,1,118.999996368408,6|0,3:2|3:2,0:0:0:0:
368,9,32319,2,0,P|338:16|313:35,1,59.4999981842042,2|0,0:0|3:2,0:0:0:0:
365,161,32632,2,0,P|375:105|385:76,1,59.4999981842042,10|0,0:0|1:2,0:0:0:0:
476,233,32944,1,2,1:2:0:0:
476,233,33101,6,0,B|401:224|424:260|353:256,1,118.999996368408,0|0,3:2|3:2,0:0:0:0:
210,182,33569,1,10,0:0:0:0:
258,309,33726,1,2,0:0:0:0:
258,309,33882,2,0,P|265:278|275:248,1,59.4999981842042,0|0,1:2|3:2,0:0:0:0:
157,98,34194,1,2,0:0:0:0:
94,207,34351,6,0,P|137:195|220:182,1,118.999996368408,2|2,3:2|3:2,0:0:0:0:
173,41,34819,2,0,P|162:70|156:100,1,59.4999981842042,10|0,0:0|0:0,0:0:0:0:
301,121,35132,2,0,P|270:110|240:104,1,59.4999981842042,10|0,0:0|1:2,0:0:0:0:
296,208,35444,1,2,0:0:0:0:
400,117,35601,5,0,3:2:0:0:
407,270,35757,2,0,P|398:241|391:211,1,59.4999981842042,2|0,0:0|3:2,0:0:0:0:
502,157,36069,2,0,P|493:185|486:214,1,59.4999981842042,10|0,0:0|1:2,0:0:0:0:
512,328,36382,1,0,1:2:0:0:
401,356,36538,1,0,3:2:0:0:
401,356,36851,6,0,B|329:349|349:398|265:384,1,140.25000428009,6|0,3:2|0:0,0:0:0:0:
233,380,37163,1,0,3:2:0:0:
18,284,37319,2,0,B|50:260|58:220|58:220|83:252|115:257,1,140.25000428009,10|0,0:0|0:0,0:0:0:0:
150,253,37632,1,2,3:2:0:0:
91,112,37788,2,0,P|46:125|1:131,1,93.5000028533936,8|2,0:0|3:2,0:0:0:0:
0,384,38101,6,0,P|79:359|182:339,1,187.000005706787,8|0,0:0|3:2,0:0:0:0:
334,164,38569,1,10,0:0:0:0:
150,253,38726,1,2,0:0:0:0:
358,322,38882,1,2,3:2:0:0:
217,114,39038,2,0,P|228:163|236:204,1,93.5000028533936,10|2,0:0|0:0,0:0:0:0:
457,382,39351,6,0,P|512:321|475:215,1,203.999993774414,10|0,0:0|3:2,0:0:0:0:
231,313,39819,1,10,0:0:0:0:
341,87,39976,1,8,0:0:0:0:
341,87,40054,1,8,0:0:0:0:
341,87,40132,1,0,1:2:0:0:
420,292,40288,1,2,3:2:0:0:
217,114,40444,1,2,0:0:0:0:
30,233,40601,6,0,P|104:208|172:281,1,152.999995330811,0|0,3:2|0:0,0:0:0:0:
178,280,40913,1,8,0:0:0:0:
355,376,41069,1,2,0:0:0:0:
328,333,41147,1,2,0:0:0:0:
330,283,41226,1,8,0:0:0:0:
359,242,41304,1,2,0:0:0:0:
403,218,41381,1,2,0:0:0:0:
451,198,41460,1,2,0:0:0:0:
485,161,41538,1,8,0:0:0:0:
491,111,41616,1,8,0:0:0:0:
486,64,41694,2,0,P|473:35|467:5,1,50.9999984436036,8|8,0:0|0:0,0:0:0:0:
256,192,41851,5,10,0:0:0:0:
300,296,42632,5,0,3:2:0:0:
430,129,42788,1,10,0:0:0:0:
512,307,42944,5,8,0:0:0:0:
506,322,43022,1,8,0:0:0:0:
501,334,43101,2,0,P|413:317|277:292,1,203.999993774414,6|10,3:2|0:0,0:0:0:0:
430,129,43569,2,0,P|439:180|454:247,1,101.999996887207,2|0,0:0|3:2,0:0:0:0:
249,372,43882,2,0,P|213:292|222:264,1,101.999996887207,2|8,3:2|0:0,0:0:0:0:
445,30,44194,5,2,0:0:0:0:
445,30,44272,1,2,0:0:0:0:
445,30,44351,2,0,B|338:35|372:97|256:101,1,203.999993774414,0|10,3:2|0:0,0:0:0:0:
9,59,44819,1,0,3:2:0:0:
153,0,44976,2,0,P|138:48|130:98,1,101.999996887207,2|0,0:0|3:2,0:0:0:0:
232,285,45288,2,0,P|222:238|204:182,1,101.999996887207,10|0,0:0|0:0,0:0:0:0:
111,384,45601,6,0,P|149:349|295:365,1,203.999993774414,2|10,3:2|0:0,0:0:0:0:
486,261,46069,2,0,P|436:251|386:240,1,101.999996887207,2|0,0:0|3:2,0:0:0:0:
301,37,46382,1,2,3:2:0:0:
194,152,46538,2,0,P|243:140|293:131,1,101.999996887207,8|2,0:0|3:2,0:0:0:0:
127,384,46851,6,0,P|110:283|95:183,1,203.999993774414,0|8,3:2|0:0,0:0:0:0:
0,26,47319,1,2,3:2:0:0:
115,182,47476,1,2,0:0:0:0:
192,6,47632,1,0,3:2:0:0:
0,190,47788,1,8,0:0:0:0:
204,309,47944,5,2,0:0:0:0:
204,309,48022,1,2,0:0:0:0:
204,309,48101,2,0,B|330:294|266:238|392:219,1,203.999993774414,2|10,3:2|0:0,0:0:0:0:
512,60,48569,2,0,P|461:51|402:33,1,101.999996887207,2|0,0:0|3:2,0:0:0:0:
414,312,48882,2,0,P|464:290|481:246,1,101.999996887207,2|8,3:2|0:0,0:0:0:0:
220,87,49194,5,2,0:0:0:0:
220,87,49272,1,2,0:0:0:0:
220,87,49351,2,0,P|310:108|419:132,1,203.999993774414,0|10,3:2|0:0,0:0:0:0:
290,6,49819,1,0,3:2:0:0:
98,208,49976,2,0,P|52:221|-17:230,1,101.999996887207,2|0,0:0|3:2,0:0:0:0:
97,11,50288,2,0,P|109:56|121:115,1,101.999996887207,10|0,0:0|0:0,0:0:0:0:
346,382,50601,6,0,P|382:310|348:235,1,152.999995330811,6|0,3:2|0:0,0:0:0:0:
338,218,50913,1,10,0:0:0:0:
174,284,51069,2,0,P|224:300|272:307,1,101.999996887207,2|0,0:0|3:2,0:0:0:0:
394,125,51382,1,2,3:2:0:0:
223,38,51538,1,8,0:0:0:0:
227,203,51694,6,0,B|249:107|318:130|315:22,1,203.999993774414,6|0,3:2|3:2,0:0:0:0:
414,217,52163,2,0,P|460:208|516:193,1,101.999996887207,8|0,0:0|3:2,0:0:0:0:
224,39,52476,1,10,0:0:0:0:
320,224,52632,1,2,1:2:0:0:
454,75,52788,1,2,1:2:0:0:
340,349,52944,1,2,3:2:0:0:
340,349,53022,1,2,0:0:0:0:
340,349,53101,6,0,P|293:336|234:317,1,101.999996887207,4|2,3:2|0:0,0:0:0:0:
280,143,53413,1,10,0:0:0:0:
119,237,53569,1,2,0:0:0:0:
151,38,53726,2,0,P|164:84|179:149,1,101.999996887207,2|0,3:2|3:2,0:0:0:0:
0,384,54038,2,0,P|11:334|25:285,1,101.999996887207,10|0,0:0|0:0,0:0:0:0:
227,347,54351,6,0,P|291:371|364:323,1,152.999995330811,2|0,3:2|0:0,0:0:0:0:
386,303,54663,1,10,0:0:0:0:
250,128,54819,2,0,P|262:173|278:237,1,101.999996887207,2|0,3:2|0:0,0:0:0:0:
504,201,55132,2,0,P|458:188|396:172,1,101.999996887207,2|8,3:2|0:0,0:0:0:0:
128,371,55444,1,2,0:0:0:0:
128,371,55522,1,2,0:0:0:0:
128,371,55601,6,0,P|174:358|232:346,1,101.999996887207,0|2,3:2|0:0,0:0:0:0:
74,199,55913,1,10,0:0:0:0:
0,374,56069,1,2,0:0:0:0:
205,239,56226,2,0,P|192:193|183:129,1,101.999996887207,2|0,3:2|3:2,0:0:0:0:
21,0,56538,2,0,P|8:46|-1:110,1,101.999996887207,10|0,0:0|0:0,0:0:0:0:
325,164,56851,6,0,B|412:156|381:114|464:105,1,152.999995330811,6|0,3:2|0:0,0:0:0:0:
490,95,57163,1,10,0:0:0:0:
512,358,57319,2,0,P|461:311|383:333,1,152.999995330811,2|0,3:2|0:0,0:0:0:0:
363,361,57632,1,0,3:2:0:0:
161,174,57788,1,8,0:0:0:0:
161,174,57866,1,8,0:0:0:0:
161,174,57944,1,10,0:0:0:0:
207,384,58101,6,0,P|221:309|234:234,1,152.999995330811,8|0,0:0|0:0,0:0:0:0:
251,206,58413,1,0,3:2:0:0:
361,280,58569,1,8,0:0:0:0:
91,376,58726,2,0,P|20:358|-4:284,1,152.999995330811,2|0,0:0|0:0,0:0:0:0:
6,256,59038,1,10,0:0:0:0:
165,106,59194,1,0,3:2:0:0:
8,147,59351,6,0,B|90:159|57:193|150:206,1,152.999995330811,14|0,0:0|0:0,0:0:0:0:
183,201,59663,1,2,3:2:0:0:
411,27,59819,2,0,P|343:11|281:62,1,152.999995330811,10|0,0:0|0:0,0:0:0:0:
263,89,60132,1,2,3:2:0:0:
351,238,60288,2,0,P|359:191|375:115,1,101.999996887207,8|2,0:0|0:0,0:0:0:0:
183,201,60601,5,12,0:0:0:0:
358,378,60757,2,0,P|403:364|458:354,1,101.999996887207,0|0,3:2|3:2,0:0:0:0:
371,145,61069,1,8,0:0:0:0:
219,308,61226,2,0,P|173:294|113:281,1,101.999996887207,2|0,3:2|3:2,0:0:0:0:
51,65,61538,1,8,0:0:0:0:
183,201,61694,1,0,3:2:0:0:
338,0,61851,6,0,P|315:96|291:208,1,203.999993774414,10|8,0:0|0:0,0:0:0:0:
380,380,62319,1,2,3:2:0:0:
465,112,62476,1,10,0:0:0:0:
183,201,62632,1,0,3:2:0:0:
499,384,62788,1,8,0:0:0:0:
512,351,62866,1,2,0:0:0:0:
510,315,62944,1,2,0:0:0:0:
492,284,63022,1,2,0:0:0:0:
463,264,63101,6,0,P|368:279|253:302,1,203.999993774414,6|10,3:2|0:0,0:0:0:0:
321,107,63569,2,0,P|352:141|356:201,1,101.999996887207,2|0,0:0|3:2,0:0:0:0:
266,384,63882,2,0,P|219:374|145:362,1,101.999996887207,2|8,3:2|0:0,0:0:0:0:
63,134,64194,5,2,0:0:0:0:
63,134,64272,1,2,0:0:0:0:
63,134,64351,2,0,B|170:129|136:67|252:63,1,203.999993774414,0|10,3:2|0:0,0:0:0:0:
354,185,64819,1,0,3:2:0:0:
292,268,64976,2,0,P|261:234|255:167,1,101.999996887207,2|0,0:0|3:2,0:0:0:0:
417,99,65288,2,0,P|448:133|454:200,1,101.999996887207,10|0,0:0|0:0,0:0:0:0:
250,356,65601,6,0,B|204:345|173:292|173:292|167:352|127:388,1,203.999993774414,2|10,3:2|0:0,0:0:0:0:
0,224,66069,2,0,P|48:213|101:207,1,101.999996887207,2|0,0:0|3:2,0:0:0:0:
205,24,66382,1,2,3:2:0:0:
291,145,66538,2,0,P|243:134|190:128,1,101.999996887207,8|2,0:0|3:2,0:0:0:0:
357,384,66851,6,0,P|370:292|401:179,1,203.999993774414,0|8,3:2|0:0,0:0:0:0:
475,27,67319,1,2,3:2:0:0:
370,189,67476,1,2,0:0:0:0:
293,16,67632,1,0,3:2:0:0:
501,217,67788,1,8,0:0:0:0:
271,356,67944,5,2,0:0:0:0:
271,356,68022,1,2,0:0:0:0:
271,356,68101,2,0,B|235:315|183:333|183:333|148:380|91:384,1,203.999993774414,2|10,3:2|0:0,0:0:0:0:
20,63,68569,2,0,P|68:77|121:83,1,101.999996887207,2|0,0:0|3:2,0:0:0:0:
82,276,68882,2,0,P|68:230|59:168,1,101.999996887207,2|8,3:2|0:0,0:0:0:0:
276,356,69194,5,2,0:0:0:0:
276,356,69272,1,2,0:0:0:0:
276,356,69351,2,0,P|307:265|329:142,1,203.999993774414,0|10,3:2|0:0,0:0:0:0:
189,237,69819,1,0,3:2:0:0:
406,361,69976,2,0,P|452:348|516:335,1,101.999996887207,2|0,0:0|3:2,0:0:0:0:
470,130,70288,2,0,P|457:176|445:236,1,101.999996887207,10|0,0:0|0:0,0:0:0:0:
155,371,70601,6,0,P|93:318|21:343,1,152.999995330811,6|0,3:2|0:0,0:0:0:0:
0,354,70913,1,10,0:0:0:0:
0,132,71069,2,0,P|46:151|96:162,1,101.999996887207,2|0,0:0|3:2,0:0:0:0:
353,115,71382,1,2,3:2:0:0:
180,3,71538,1,8,0:0:0:0:
188,234,71694,6,0,B|190:134|268:167|257:43,1,203.999993774414,6|0,3:2|3:2,0:0:0:0:
391,206,72163,2,0,P|345:215|276:247,1,101.999996887207,8|0,0:0|3:2,0:0:0:0:
180,3,72476,1,10,0:0:0:0:
353,115,72632,1,2,1:2:0:0:
468,0,72788,1,2,1:2:0:0:
391,206,72944,1,2,3:2:0:0:
391,206,73022,1,2,0:0:0:0:
391,206,73101,6,0,P|404:252|420:325,1,101.999996887207,4|2,3:2|0:0,0:0:0:0:
287,225,73413,1,10,0:0:0:0:
490,147,73569,1,2,0:0:0:0:
302,359,73726,2,0,P|256:345|194:335,1,101.999996887207,2|0,3:2|3:2,0:0:0:0:
0,224,74038,2,0,P|46:210|108:200,1,101.999996887207,10|0,0:0|0:0,0:0:0:0:
228,53,74351,6,0,P|214:135|201:212,1,152.999995330811,2|0,3:2|0:0,0:0:0:0:
198,237,74663,1,10,0:0:0:0:
394,203,74819,2,0,P|370:162|311:146,1,101.999996887207,2|0,3:2|0:0,0:0:0:0:
106,315,75132,2,0,P|152:324|210:340,1,101.999996887207,2|8,3:2|0:0,0:0:0:0:
92,117,75444,1,2,0:0:0:0:
92,117,75522,1,2,0:0:0:0:
92,117,75601,6,0,P|79:164|68:225,1,101.999996887207,0|2,3:2|0:0,0:0:0:0:
193,119,75913,1,10,0:0:0:0:
0,66,76069,1,2,0:0:0:0:
192,259,76226,2,0,P|238:245|300:235,1,101.999996887207,2|0,3:2|3:2,0:0:0:0:
216,21,76538,2,0,P|202:67|192:129,1,101.999996887207,10|0,0:0|0:0,0:0:0:0:
310,350,76851,6,0,B|405:341|367:297|449:291,1,152.999995330811,6|0,3:2|0:0,0:0:0:0:
481,286,77163,1,10,0:0:0:0:
512,60,77319,2,0,P|460:104|366:85,1,152.999995330811,6|0,3:2|0:0,0:0:0:0:
346,85,77632,1,10,0:2:0:0:
299,75,77710,1,8,0:0:0:0:
260,48,77788,1,8,0:0:0:0:
224,18,77866,1,8,0:0:0:0:
178,3,77944,2,0,L|117:16,1,50.9999984436036,10|8,0:0|0:0,0:0:0:0:
202,173,78101,6,0,P|228:314|240:399,1,178.499994552612,12|0,0:0|0:0,0:0:0:0:
239,380,78413,1,0,3:2:0:0:
439,178,78569,1,8,0:0:0:0:
434,384,78726,2,0,P|398:339|336:326,1,118.999996368408,2|0,3:2|3:2,0:0:0:0:
3,312,79038,2,0,P|72:313|121:263,1,118.999996368408,10|0,0:0|3:2,0:0:0:0:
465,180,79351,6,0,B|353:179|395:128|298:118,1,178.499994552612,10|0,0:0|0:0,0:0:0:0:
268,114,79663,1,2,3:2:0:0:
145,380,79819,2,0,P|213:358|283:343,1,118.999996368408,10|0,0:0|0:0,0:0:0:0:
117,129,80132,1,2,3:2:0:0:
8,315,80288,1,0,0:0:0:0:
198,187,80444,1,2,3:2:0:0:
352,384,80601,6,0,P|369:284|397:162,1,203.999993774414,8|0,0:0|3:2,0:0:0:0:
303,11,81069,1,8,0:0:0:0:
429,176,81226,1,2,0:0:0:0:
512,20,81382,1,0,3:2:0:0:
288,188,81538,2,0,P|234:170|178:158,1,101.999996887207,8|0,0:0|3:2,0:0:0:0:
0,384,81851,6,0,P|70:314|179:358,1,203.999993774414,10|8,0:0|0:0,0:0:0:0:
437,240,82319,1,2,3:2:0:0:
288,188,82476,2,0,P|309:279|316:313,1,101.999996887207,10|0,0:0|1:2,0:0:0:0:
402,113,82788,1,0,3:2:0:0:
253,73,82944,1,0,3:2:0:0:
437,240,83101,5,6,3:2:0:0:
440,260,83413,1,0,3:2:0:0:
443,280,83726,1,0,3:2:0:0:
445,301,84038,1,0,3:2:0:0:
237,305,84351,6,0,B|159:316|187:348|110:360,1,136,2|0,3:2|3:2,0:0:0:0:
43,260,84819,1,2,0:0:0:0:
43,260,84976,2,0,P|72:266|115:275,1,68,0|0,3:2|0:0,0:0:0:0:
210,185,85288,1,2,3:2:0:0:
210,185,85601,6,0,P|143:170|126:106,1,136,2|0,3:2|3:2,0:0:0:0:
231,36,86069,1,0,0:0:0:0:
431,114,86226,6,0,P|493:97|543:88,1,85,2|0,3:2|0:0,0:0:0:0:
365,36,86538,1,8,0:0:0:0:
444,204,86694,2,0,B|397:226|397:226|357:207|319:194,1,127.5,6|0,3:2|0:0,0:0:0:0:
295,181,87007,1,0,1:2:0:0:
349,298,87163,1,8,0:0:0:0:
431,114,87319,1,0,0:0:0:0:
248,272,87476,5,10,0:0:0:0:
190,74,87632,1,2,3:2:0:0:
0,267,87788,1,10,0:0:0:0:
33,280,87866,1,8,0:0:0:0:
69,278,87944,1,10,0:0:0:0:
100,260,88022,1,8,0:0:0:0:
121,231,88101,6,0,P|106:136|87:28,2,191.250007295609,2|2|2,3:2|0:0|0:0,0:0:0:0:
170,321,89116,1,0,0:0:0:0:
170,321,89194,2,0,L|182:268,1,31.8750012159348,0|0,3:2|0:0,0:0:0:0:
255,190,89351,5,10,0:0:0:0:
189,0,90288,5,2,0:0:0:0:
215,31,90366,1,10,0:0:0:0:
217,72,90444,1,10,0:0:0:0:
193,106,90522,1,10,0:0:0:0:
154,126,90601,6,0,B|54:112|54:112|-3:140|29:201,1,203.999993774414,6|0,3:2|3:2,0:0:0:0:
182,384,91069,2,0,P|253:309|342:349,1,203.999993774414,8|0,0:0|3:2,0:0:0:0:
477,189,91538,1,8,0:0:0:0:
295,150,91694,1,0,3:2:0:0:
449,327,91851,6,0,B|436:242|389:276|383:191,1,152.999995330811,10|0,3:2|0:0,0:0:0:0:
382,160,92163,1,0,3:2:0:0:
512,2,92319,2,0,P|501:52|492:103,1,101.999996887207,8|0,0:0|0:0,0:0:0:0:
364,13,92632,1,0,3:2:0:0:
193,158,92788,2,0,P|143:146|93:138,1,101.999996887207,8|0,0:0|3:2,0:0:0:0:
265,0,93101,6,0,P|280:74|294:150,1,152.999995330811,14|0,0:0|0:0,0:0:0:0:
300,183,93413,1,0,3:2:0:0:
173,359,93569,2,0,P|181:308|192:258,1,101.999996887207,10|0,0:0|0:0,0:0:0:0:
328,384,93882,1,0,3:2:0:0:
189,177,94038,1,10,0:0:0:0:
435,235,94194,5,0,3:2:0:0:
435,235,94272,1,2,0:0:0:0:
435,235,94351,2,0,B|346:243|386:280|281:295,1,152.999995330811,14|0,0:0|0:0,0:0:0:0:
254,302,94663,1,0,3:2:0:0:
383,111,94819,1,8,0:0:0:0:
189,177,94976,2,0,P|238:189|288:198,1,101.999996887207,2|0,0:0|3:2,0:0:0:0:
156,350,95288,1,8,0:0:0:0:
110,370,95366,1,8,0:0:0:0:
60,362,95444,1,0,1:2:0:0:
23,328,95522,1,0,1:2:0:0:
1,282,95601,6,0,P|22:146|32:67,1,203.999993774414,6|0,3:2|3:2,0:0:0:0:
235,134,96069,2,0,P|184:142|135:155,1,101.999996887207,8|0,0:0|0:0,0:0:0:0:
294,32,96382,1,0,3:2:0:0:
354,224,96538,2,0,P|409:234|453:245,1,101.999996887207,8|0,0:0|3:2,0:0:0:0:
184,384,96851,6,0,P|199:312|139:272,1,152.999995330811,14|0,0:0|0:0,0:0:0:0:
104,272,97163,1,0,3:2:0:0:
30,83,97319,2,0,P|43:132|54:181,1,101.999996887207,10|0,0:0|0:0,0:0:0:0:
161,52,97632,1,0,3:2:0:0:
290,127,97788,2,0,P|276:176|265:225,1,101.999996887207,10|0,0:0|3:2,0:0:0:0:
494,358,98101,6,0,B|484:241|427:283|415:171,1,203.999993774414,14|8,0:0|0:0,0:0:0:0:
466,34,98569,1,8,0:0:0:0:
266,228,98726,1,8,0:0:0:0:
500,119,98882,1,10,0:0:0:0:
267,0,99038,1,8,0:0:0:0:
172,278,99193,5,8,0:0:0:0:
172,278,99272,1,8,0:0:0:0:
172,278,99351,2,0,P|88:262|-2:244,1,170,2|0,3:2|3:2,0:0:0:0:
184,174,99819,1,8,0:0:0:0:
190,379,99976,5,2,0:0:0:0:
269,325,100132,1,0,1:2:0:0:
266,228,100288,1,0,1:2:0:0:
266,228,100601,5,14,0:0:0:0:
256,192,100757,12,0,105288,0:0:0:0:
