osu file format v14

[General]
AudioFilename: audio.mp3
AudioLeadIn: 0
PreviewTime: 52255
Countdown: 0
SampleSet: Soft
StackLeniency: 0.6
Mode: 0
LetterboxInBreaks: 0
WidescreenStoryboard: 1

[Editor]
DistanceSpacing: 0.6
BeatDivisor: 4
GridSize: 4
TimelineZoom: 1.9

[Metadata]
Title:Darling-go-round
TitleUnicode:Darling-go-round
Artist:Rin'ca
ArtistUnicode:Rin'ca
Creator:Bellicose
Version:Promise
Source:D.C.4 Fortunate Departures ~ダ・カーポ4~ フォーチュネイトデパーチャーズ
Tags:da capo 4 j-pop yozuca* CIRCUS Shizuku- Kazato Asa Shikibe Mayu visual novel vn video game japanese pop jpop short version
BeatmapID:3077032
BeatmapSetID:1501758

[Difficulty]
HPDrainRate:6
CircleSize:4
OverallDifficulty:8
ApproachRate:8
SliderMultiplier:1.7
SliderTickRate:1

[Events]
//Background and Video events
0,0,"ev_4fd_asu03e.png",0,0
//Break Periods
//Storyboard Layer 0 (Background)
//Storyboard Layer 1 (Fail)
//Storyboard Layer 2 (Pass)
//Storyboard Layer 3 (Foreground)
//Storyboard Layer 4 (Overlay)
//Storyboard Sound Samples

[TimingPoints]
820,384.615384615385,4,2,1,30,1,0
820,-111.111111111111,4,2,1,30,0,0
25435,-111.111111111111,4,2,1,35,0,0
27935,-111.111111111111,4,2,2,40,0,0
28512,-100,4,2,2,40,0,0
37743,-100,4,2,2,45,0,0
38320,-90.9090909090909,4,2,2,45,0,0
38704,-100,4,2,2,45,0,0
40820,-100,4,2,2,45,0,0
50050,-100,4,2,2,50,0,0
51396,-83.3333333333333,4,2,3,55,0,0
52743,-83.3333333333333,4,2,2,55,0,0
53127,-90.9090909090909,4,2,2,60,0,0
59281,-200,4,2,2,60,0,0
59666,-71.4285714285714,4,2,2,60,0,0
60050,-90.9090909090909,4,2,2,60,0,0
62358,-200,4,2,2,60,0,0
62743,-71.4285714285714,4,2,2,60,0,0
63127,-90.9090909090909,4,2,2,60,0,0
63704,-71.4285714285714,4,2,2,60,0,0
65243,-90.9090909090909,4,2,2,60,0,0
71973,-71.4285714285714,4,2,2,60,0,0
72358,-90.9090909090909,4,2,2,60,0,0
73127,-200,4,2,2,60,0,0
73512,-71.4285714285714,4,2,2,60,0,0
73896,-90.9090909090909,4,2,2,60,0,0
76012,-71.4285714285714,4,2,2,60,0,0
77550,-83.3333333333333,4,2,2,65,0,0
78704,-71.4285714285714,4,2,3,65,0,0
79281,-83.3333333333333,4,2,2,65,0,0
81204,-66.6666666666667,4,2,2,65,0,0
81589,-83.3333333333333,4,2,2,65,0,0
83127,-66.6666666666667,4,2,2,65,0,0
83704,-76.9230769230769,4,2,2,65,0,0
84089,-83.3333333333333,4,2,2,65,0,0
85820,-71.4285714285714,4,2,2,65,0,0
87358,-66.6666666666667,4,2,2,65,0,0
89281,-83.3333333333333,4,2,2,65,0,0
90050,-83.3333333333333,4,2,2,60,0,0
90627,-76.9230769230769,4,2,2,60,0,0
93512,-192.307692307692,4,2,2,60,0,0
93608,-192.307692307692,4,2,2,5,0,0
97743,-192.307692307692,4,2,2,25,0,0

[Colours]
Combo1 : 226,143,243
Combo2 : 139,222,254
Combo3 : 253,206,240
Combo4 : 150,166,254

[HitObjects]
304,315,820,6,0,P|204:325|134:338,1,152.999995330811,6|0,1:2|3:0,0:0:0:0:
92,274,1396,1,0,0:0:0:0:
183,137,1589,2,0,P|174:185|168:244,1,76.4999976654053,2|0,3:2|0:0,0:0:0:0:
250,237,1973,1,0,3:0:0:0:
317,185,2166,1,2,3:2:0:0:
317,185,2262,1,0,3:0:0:0:
317,185,2358,1,0,3:0:0:0:
391,223,2550,1,2,1:2:0:0:
449,162,2743,2,0,P|481:108|429:23,1,152.999995330811,2|0,3:2|1:0,0:0:0:0:
369,67,3320,1,0,3:0:0:0:
224,18,3512,2,0,P|173:25|136:36,1,76.4999976654053,2|0,3:2|1:0,0:0:0:0:
280,86,3896,6,0,P|269:143|259:252,1,152.999995330811,2|0,1:2|3:0,0:0:0:0:
209,305,4473,1,0,0:0:0:0:
354,366,4666,2,0,P|405:373|442:384,1,76.4999976654053,2|0,3:2|0:0,0:0:0:0:
497,330,5050,1,0,3:0:0:0:
450,261,5243,1,2,3:2:0:0:
450,261,5339,1,0,3:0:0:0:
450,261,5435,1,0,3:0:0:0:
506,198,5627,2,0,P|496:160|492:122,1,76.4999976654053,0|2,1:0|3:2,0:0:0:0:
474,104,5916,2,0,P|436:99|333:79,1,114.749996498108,0|0,1:0|1:0,0:0:0:0:
297,140,6396,1,2,3:2:0:0:
214,83,6589,2,0,P|202:46|222:8,1,76.4999976654053,2|0,3:2|1:0,0:0:0:0:
297,140,6973,6,0,P|248:182|147:161,1,152.999995330811,6|0,1:2|3:0,0:0:0:0:
103,116,7550,1,0,0:0:0:0:
14,251,7743,1,2,3:2:0:0:
85,353,7935,1,2,0:0:0:0:
2,335,8127,1,0,3:0:0:0:
104,271,8320,1,2,3:2:0:0:
104,271,8416,1,0,3:0:0:0:
104,271,8512,2,0,P|166:281|204:289,1,76.4999976654053,0|0,3:0|1:0,0:0:0:0:
252,343,8896,2,0,P|315:288|397:313,1,152.999995330811,2|0,3:2|1:0,0:0:0:0:
336,371,9473,1,0,3:0:0:0:
248,220,9666,2,0,P|255:182|260:144,1,76.4999976654053,2|0,3:2|1:0,0:0:0:0:
391,281,10050,6,0,P|384:243|368:118,1,152.999995330811,2|0,1:2|3:0,0:0:0:0:
306,72,10627,1,0,0:0:0:0:
148,172,10820,2,0,P|110:177|72:183,1,76.4999976654053,2|0,3:2|0:0,0:0:0:0:
3,136,11204,1,0,3:0:0:0:
23,54,11396,1,2,3:2:0:0:
23,54,11493,1,0,3:0:0:0:
23,54,11589,1,0,3:0:0:0:
95,11,11781,2,0,P|132:5|170:0,1,76.4999976654053,0|0,1:0|3:0,0:0:0:0:
198,5,12070,2,0,P|226:48|203:114,1,114.749996498108,0|0,1:0|1:0,0:0:0:0:
264,171,12550,1,0,3:0:0:0:
329,310,12743,2,0,P|323:272|318:235,1,76.4999976654053,2|0,3:2|1:0,0:0:0:0:
157,170,13127,6,0,P|151:207|127:325,1,152.999995330811,2|0,1:2|3:0,0:0:0:0:
194,372,13704,1,0,0:0:0:0:
329,310,13896,2,0,P|369:331|422:307,1,76.4999976654053,2|0,3:2|0:0,0:0:0:0:
473,364,14281,1,0,3:0:0:0:
512,294,14473,1,0,3:0:0:0:
512,294,14570,1,0,3:0:0:0:
512,294,14666,2,0,P|505:256|500:218,1,76.4999976654053,0|0,3:0|0:0,0:0:0:0:
448,152,15050,1,0,3:0:0:0:
333,226,15243,1,0,3:0:0:0:
333,226,15339,1,0,3:0:0:0:
333,226,15435,2,0,P|339:188|344:150,1,76.4999976654053,0|0,3:0|3:0,0:0:0:0:
198,288,15820,1,2,0:0:0:0:
191,246,15916,1,2,0:0:0:0:
184,204,16012,1,2,0:0:0:0:
177,162,16108,1,2,0:0:0:0:
170,120,16204,1,4,1:2:0:0:
7,283,16589,5,2,3:2:0:0:
63,358,16781,1,2,0:0:0:0:
63,358,16877,1,2,0:0:0:0:
63,358,16973,1,0,3:2:0:0:
90,278,17166,2,0,P|142:284|200:295,1,76.4999976654053,2|0,0:0|3:0,0:0:0:0:
92,145,17550,2,0,P|60:187|22:231,1,76.4999976654053,2|0,0:0|3:0,0:0:0:0:
213,216,17935,2,0,P|192:167|172:112,1,76.4999976654053,2|0,0:0|3:0,0:0:0:0:
49,296,18320,2,0,P|124:301|224:317,1,152.999995330811,2|2,0:0|0:0,0:0:0:0:
377,359,18896,1,0,3:0:0:0:
305,305,19089,2,0,P|286:335|289:377,1,76.4999976654053,2|0,1:2|1:0,0:0:0:0:
485,178,19666,5,2,3:2:0:0:
504,259,19858,1,0,0:0:0:0:
424,286,20050,1,2,3:2:0:0:
405,205,20243,2,0,P|367:199|329:195,1,76.4999976654053,2|0,0:0|3:0,0:0:0:0:
251,69,20627,2,0,P|256:106|261:145,1,76.4999976654053,2|0,0:0|3:0,0:0:0:0:
415,223,21012,2,0,P|377:217|339:213,1,76.4999976654053,2|0,0:0|3:0,0:0:0:0:
230,31,21396,2,0,P|235:68|250:190,1,152.999995330811,2|2,0:0|0:0,0:0:0:0:
160,237,21973,2,0,P|119:241|79:205,1,76.4999976654053,2|0,3:2|0:0,0:0:0:0:
227,313,22358,6,0,P|205:249|277:172,1,152.999995330811,2|0,1:2|3:0,0:0:0:0:
310,124,22935,2,0,P|320:74|296:38,1,76.4999976654053,2|0,0:0|3:0,0:0:0:0:
310,52,23512,1,2,3:2:0:0:
206,5,23704,2,0,P|133:13|44:33,1,152.999995330811,2|0,0:0|0:0,0:0:0:0:
186,94,24281,1,2,1:2:0:0:
186,94,24473,2,0,P|142:98|82:112,1,76.4999976654053,2|0,0:0|3:0,0:0:0:0:
229,173,24858,2,0,P|156:181|67:201,1,152.999995330811,2|0,1:2|0:0,0:0:0:0:
31,384,25435,6,0,P|-10:329|20:246,1,152.999995330811,2|0,1:2|3:0,0:0:0:0:
78,197,26012,1,2,0:0:0:0:
243,309,26204,2,0,P|236:346|232:384,1,76.4999976654053,2|0,3:2|0:0,0:0:0:0:
158,267,26589,2,0,P|164:229|168:191,1,76.4999976654053,0|0,3:2|0:0,0:0:0:0:
195,80,26973,5,0,3:0:0:0:
248,144,27166,1,0,0:0:0:0:
313,91,27358,1,0,3:0:0:0:
248,144,27550,1,0,0:0:0:0:
260,27,27743,1,0,3:0:0:0:
115,119,27935,5,8,0:0:0:0:
391,50,28127,1,8,0:3:0:0:
142,14,28320,1,4,0:3:0:0:
365,156,28512,1,4,1:2:0:0:
506,212,28896,5,10,0:0:0:0:
408,317,29089,1,2,3:2:0:0:
408,317,29185,1,2,3:2:0:0:
408,317,29281,1,0,3:0:0:0:
192,259,29473,2,0,P|200:299|209:368,1,85,2|8,1:2|0:0,0:0:0:0:
317,384,29858,1,0,3:0:0:0:
317,384,29954,1,0,3:0:0:0:
317,384,30050,6,0,P|304:319|292:187,1,170,2|8,1:2|0:0,0:0:0:0:
212,166,30627,1,2,3:2:0:0:
212,166,30723,1,0,3:0:0:0:
212,166,30820,1,0,1:0:0:0:
320,13,31012,1,2,1:2:0:0:
434,126,31204,2,0,P|476:147|521:130,1,85,8|0,0:0|0:0,0:0:0:0:
320,13,31589,6,0,P|267:66|168:53,1,170,0|8,1:0|0:0,0:0:0:0:
75,154,32166,1,2,3:2:0:0:
75,154,32262,1,2,3:2:0:0:
75,154,32358,1,0,3:0:0:0:
202,288,32550,2,0,P|255:294|305:304,1,85,0|8,1:0|0:0,0:0:0:0:
170,193,32935,5,2,3:2:0:0:
170,193,33031,1,0,3:0:0:0:
170,193,33127,1,0,1:0:0:0:
60,355,33320,2,0,P|67:313|71:270,1,85,2|8,0:0|0:0,0:0:0:0:
274,384,33704,2,0,B|303:277|216:317|253:212,1,170,2|0,0:0|1:0,0:0:0:0:
409,100,34281,2,0,P|450:92|493:88,1,85,10|0,0:0|0:0,0:0:0:0:
323,46,34666,6,0,P|369:92|343:206,1,170,6|8,1:2|0:0,0:0:0:0:
446,362,35243,2,0,P|432:325|454:279,1,85,2|0,0:0|0:0,0:0:0:0:
499,210,35627,1,0,1:0:0:0:
311,278,35820,1,10,0:0:0:0:
499,210,36012,1,2,1:2:0:0:
367,52,36204,6,0,P|242:72|181:77,1,170,4|10,1:0|0:0,0:0:0:0:
145,332,36781,2,0,P|270:312|331:307,1,170,2|0,0:0|1:0,0:0:0:0:
130,137,37358,1,8,0:0:0:0:
115,229,37550,1,0,1:0:0:0:
382,247,37743,1,6,1:2:0:0:
397,155,37935,1,0,3:0:0:0:
115,229,38127,1,8,0:0:0:0:
256,192,38320,1,4,1:0:0:0:
506,373,38704,5,8,0:0:0:0:
471,285,38896,1,8,0:3:0:0:
413,359,39089,1,4,0:3:0:0:
414,200,39281,5,8,0:0:0:0:
301,111,39473,1,8,0:3:0:0:
281,251,39666,1,0,1:0:0:0:
215,33,39858,5,8,0:3:0:0:
215,33,39954,1,4,0:3:0:0:
215,33,40050,1,0,1:0:0:0:
0,1,40243,1,8,0:3:0:0:
79,198,40436,1,6,0:3:0:0:
108,15,40820,5,4,1:2:0:0:
40,100,41013,1,0,0:0:0:0:
145,115,41204,1,8,0:0:0:0:
40,100,41396,1,2,0:0:0:0:
215,33,41589,1,2,0:0:0:0:
145,115,41781,1,0,1:2:0:0:
321,49,41973,1,10,0:0:0:0:
251,131,42166,1,2,0:0:0:0:
427,65,42358,6,0,P|482:75|525:78,1,85,0|0,1:0|0:0,0:0:0:0:
357,147,42743,2,0,P|399:151|440:159,1,85,8|0,0:0|0:0,0:0:0:0:
491,307,43127,2,0,P|512:260|505:225,1,85,2|0,0:0|1:0,0:0:0:0:
416,368,43512,1,8,0:0:0:0:
281,308,43704,2,0,P|239:312|198:320,1,85,2|0,0:0|1:0,0:0:0:0:
317,383,44089,6,0,P|321:341|346:212,1,170,2|0,0:0|0:0,0:0:0:0:
280,83,44666,1,2,0:0:0:0:
180,222,44858,1,0,1:0:0:0:
14,180,45050,1,10,0:0:0:0:
251,167,45243,1,2,1:2:0:0:
90,227,45435,1,0,1:0:0:0:
90,227,45820,6,0,P|107:143|118:59,1,170,10|0,0:0|1:0,0:0:0:0:
187,296,46396,1,0,1:0:0:0:
178,334,46492,1,8,0:0:0:0:
173,372,46589,1,10,0:0:0:0:
173,372,46973,6,0,P|242:318|336:348,1,170,2|12,1:2|0:0,0:0:0:0:
450,240,47550,2,0,P|436:321|489:384,1,170,2|0,1:2|1:0,0:0:0:0:
343,236,48127,1,14,0:0:0:0:
429,141,48320,2,0,P|496:129|531:127,1,85,2|0,1:2|0:0,0:0:0:0:
110,99,48896,5,10,0:0:0:0:
202,219,49089,1,8,0:3:0:0:
94,204,49281,1,10,0:0:0:0:
216,113,49473,1,0,1:0:0:0:
216,113,49570,1,8,0:0:0:0:
216,113,49666,1,10,0:0:0:0:
0,137,50050,5,12,0:0:0:0:
130,310,50243,1,8,0:3:0:0:
302,181,50435,1,4,0:3:0:0:
171,8,50627,1,4,1:0:0:0:
113,138,50820,5,2,0:0:0:0:
157,141,50916,1,2,0:0:0:0:
200,131,51012,1,2,0:0:0:0:
231,100,51108,1,10,0:0:0:0:
261,64,51204,1,10,0:0:0:0:
302,49,51300,1,2,0:0:0:0:
347,50,51396,2,0,P|325:184|323:244,1,152.999995330811,10|0,0:1|0:0,0:0:0:0:
328,244,51781,2,0,P|378:234|413:232,1,50.9999984436036,10|0,0:1|0:0,0:0:0:0:
512,119,51973,2,0,P|462:129|427:131,1,50.9999984436036,10|0,0:1|0:0,0:0:0:0:
162,373,52743,5,8,1:3:0:0:
162,373,53127,6,0,P|225:323|201:209,1,187.000005706787,6|8,1:2|0:0,0:0:0:0:
136,282,53704,1,0,3:0:0:0:
136,282,53800,1,0,3:0:0:0:
136,282,53896,1,0,1:0:0:0:
318,378,54089,1,2,0:0:0:0:
480,251,54281,1,10,0:0:0:0:
298,155,54473,1,2,0:0:0:0:
324,52,54666,6,0,B|365:9|419:24|419:24|443:78|512:55,1,187.000005706787,0|8,1:0|0:0,0:0:0:0:
298,155,55243,2,0,P|235:162|191:173,1,93.5000028533936,2|0,0:0|1:0,0:0:0:0:
356,334,55627,2,0,P|360:287|369:241,1,93.5000028533936,2|8,0:0|0:0,0:0:0:0:
244,384,56012,1,2,0:0:0:0:
119,362,56204,2,0,P|113:269|98:177,1,187.000005706787,4|8,1:0|0:0,0:0:0:0:
244,384,56781,2,0,P|262:329|236:280,1,93.5000028533936,2|0,0:0|1:0,0:0:0:0:
27,376,57166,2,0,P|72:366|119:362,1,93.5000028533936,2|8,0:0|0:0,0:0:0:0:
227,173,57550,1,2,0:0:0:0:
227,173,57646,1,2,0:0:0:0:
227,173,57743,6,0,P|162:235|51:198,1,187.000005706787,0|8,1:0|0:0,0:0:0:0:
132,138,58320,1,2,0:0:0:0:
343,255,58512,5,2,1:2:0:0:
299,121,58704,5,0,3:0:0:0:
363,29,58896,5,10,0:0:0:0:
444,7,59089,5,8,0:3:0:0:
502,19,59281,6,0,P|506:58|513:93,1,63.75,2|0,1:2|0:0,0:0:0:0:
512,168,59666,6,0,P|423:152|303:139,1,178.499994552612,14|0,0:0|0:0,0:0:0:0:
299,121,60050,2,0,P|304:152|313:218,1,93.5000028533936,2|0,1:2|0:0,0:0:0:0:
478,376,60435,2,0,P|420:304|321:327,1,187.000005706787,10|0,0:0|1:0,0:0:0:0:
129,0,61204,6,0,P|201:58|178:157,1,187.000005706787,14|0,0:2|1:0,0:0:0:0:
280,30,61781,1,0,0:0:0:0:
103,96,61973,2,0,P|95:165|80:233,1,140.25000428009,10|0,0:0|0:0,0:0:0:0:
118,249,62358,6,0,P|158:238|194:235,1,63.75,0|0,1:0|0:0,0:0:0:0:
271,196,62743,6,0,P|255:264|242:378,1,178.499994552612,14|0,0:0|0:0,0:0:0:0:
277,384,63127,2,0,P|317:373|372:365,1,93.5000028533936,2|0,1:2|0:0,0:0:0:0:
408,382,63416,1,8,0:0:0:0:
408,382,63512,1,10,0:0:0:0:
496,243,63704,6,0,P|417:189|465:73,1,237.999992736817,4|0,1:0|1:0,0:0:0:0:
490,64,64185,2,0,P|494:32|503:0,1,59.4999981842042,8|8,0:0|0:0,0:0:0:0:
294,238,64473,1,8,0:3:0:0:
294,238,64570,1,4,0:3:0:0:
294,238,64666,2,0,P|301:209|305:179,1,59.4999981842042,10|0,0:0|0:0,0:0:0:0:
183,0,64858,2,0,P|175:28|171:58,1,59.4999981842042,10|0,0:2|0:0,0:0:0:0:
391,152,65050,1,10,0:0:0:0:
150,148,65243,6,0,B|264:163|211:74|350:99,1,187.000005706787,6|0,1:2|0:0,0:0:0:0:
465,290,65820,2,0,B|351:305|404:216|265:241,1,187.000005706787,8|0,0:0|1:0,0:0:0:0:
141,375,66396,1,2,0:0:0:0:
225,186,66589,1,10,0:0:0:0:
89,31,66781,1,2,0:0:0:0:
22,116,66973,6,0,P|11:191|-1:307,1,187.000005706787,0|8,1:0|0:0,0:0:0:0:
165,88,67550,2,0,P|188:40|175:-4,1,93.5000028533936,2|0,0:0|1:0,0:0:0:0:
108,200,67935,2,0,P|166:189|233:182,1,93.5000028533936,2|8,0:0|0:0,0:0:0:0:
342,232,68320,1,2,0:0:0:0:
289,382,68512,2,0,P|256:300|311:227,1,187.000005706787,6|8,1:0|0:0,0:0:0:0:
462,298,69089,2,0,P|415:304|369:313,1,93.5000028533936,2|0,0:0|1:0,0:0:0:0:
473,31,69473,2,0,P|426:24|380:15,1,93.5000028533936,2|8,0:0|0:0,0:0:0:0:
501,180,69858,1,2,0:0:0:0:
501,180,69954,1,2,0:0:0:0:
501,180,70050,6,0,B|460:129|406:148|406:148|387:203|313:183,1,187.000005706787,2|8,1:2|0:0,0:0:0:0:
263,126,70627,1,2,0:0:0:0:
84,291,70820,2,0,P|74:336|68:383,1,93.5000028533936,2|0,1:2|0:0,0:0:0:0:
0,234,71204,2,0,P|9:188|15:141,1,93.5000028533936,8|0,0:0|0:0,0:0:0:0:
181,257,71589,5,0,1:0:0:0:
181,257,71973,6,0,P|227:344|321:331,1,178.499994552612,14|0,0:0|0:0,0:0:0:0:
330,372,72358,2,0,P|375:362|422:356,1,93.5000028533936,2|0,1:2|0:0,0:0:0:0:
511,129,72743,2,0,P|500:174|495:220,1,93.5000028533936,10|0,0:0|0:0,0:0:0:0:
478,255,73031,1,2,0:0:0:0:
478,255,73127,6,0,P|431:260|400:268,1,63.75,2|0,1:2|0:0,0:0:0:0:
331,229,73512,6,0,P|320:140|302:52,1,178.499994552612,14|0,0:0|0:0,0:0:0:0:
292,15,73896,1,2,1:2:0:0:
419,105,74089,1,0,0:0:0:0:
209,244,74281,2,0,P|120:267|52:202,1,187.000005706787,10|0,0:0|1:0,0:0:0:0:
292,15,75050,6,0,P|280:60|274:106,1,93.5000028533936,14|0,0:0|0:0,0:0:0:0:
244,135,75339,1,8,0:0:0:0:
244,135,75435,2,0,P|197:141|152:152,1,93.5000028533936,10|0,0:0|0:0,0:0:0:0:
116,131,75723,1,8,0:0:0:0:
116,131,75820,1,10,0:0:0:0:
304,255,76012,6,0,B|345:204|410:214|410:214|442:288|522:265,1,237.999992736817,4|8,1:0|0:0,0:0:0:0:
418,130,76589,1,0,1:0:0:0:
258,350,76781,1,8,0:3:0:0:
258,350,76877,1,4,0:3:0:0:
258,350,76973,2,0,P|228:354|199:361,1,59.4999981842042,2|0,1:2|0:0,0:0:0:0:
19,235,77166,2,0,P|48:230|77:223,1,59.4999981842042,2|0,1:2|0:0,0:0:0:0:
247,132,77358,1,10,0:0:0:0:
104,384,77550,6,0,B|88:267|184:319|172:201,1,203.999993774414,6|0,1:2|0:0,0:0:0:0:
144,16,78127,2,0,P|125:83|-18:76,1,203.999993774414,8|0,0:0|1:0,0:0:0:0:
269,38,78704,6,0,P|306:30|342:25,1,59.4999981842042,2|0,0:1|0:0,0:0:0:0:
502,98,78896,2,0,P|494:135|489:171,1,59.4999981842042,10|0,0:1|0:0,0:0:0:0:
398,272,79089,2,0,P|368:276|339:283,1,59.4999981842042,2|0,0:1|0:0,0:0:0:0:
215,194,79281,6,0,B|347:199|267:124|397:128,1,203.999993774414,0|8,1:0|0:0,0:0:0:0:
496,259,79858,1,0,3:0:0:0:
496,259,79954,1,0,3:0:0:0:
496,259,80050,5,2,1:2:0:0:
421,40,80243,1,0,3:0:0:0:
215,194,80435,5,10,0:0:0:0:
488,102,80627,1,0,3:0:0:0:
431,384,80820,1,0,1:0:0:0:
431,384,81204,6,0,P|366:302|409:153,1,255.000009727478,12|0,0:1|1:0,0:0:0:0:
264,384,81781,1,2,0:0:0:0:
496,259,81973,1,10,0:0:0:0:
264,384,82166,2,0,P|161:365|34:351,1,203.999993774414,6|0,0:0|0:0,0:0:0:0:
9,251,82743,1,8,0:0:0:0:
178,57,82935,1,8,0:3:0:0:
178,57,83031,1,4,0:3:0:0:
178,57,83127,6,0,P|185:88|190:119,1,63.7500024318696,10|0,0:0|0:0,0:0:0:0:
334,327,83320,2,0,P|326:295|321:264,1,63.7500024318696,10|0,0:0|0:0,0:0:0:0:
104,170,83512,1,10,0:0:0:0:
354,169,83704,6,0,B|310:190|268:169|268:169|249:214|249:214|203:201|167:236,1,220.999989883423,2|0,1:2|1:0,0:0:0:0:
140,269,84185,1,0,1:0:0:0:
140,269,84281,2,0,P|125:328|167:372,1,101.999996887207,14|0,0:0|0:0,0:0:0:0:
0,228,84666,2,0,P|8:196|18:119,1,101.999996887207,2|0,1:2|0:0,0:0:0:0:
177,0,85050,2,0,P|235:68|363:28,1,203.999993774414,10|0,0:0|1:0,0:0:0:0:
340,53,85820,6,0,P|332:85|313:237,1,178.499994552612,14|0,0:0|0:0,0:0:0:0:
340,201,86204,2,0,P|284:205|213:219,1,118.999996368408,2|0,1:2|0:0,0:0:0:0:
202,252,86493,1,8,0:0:0:0:
202,252,86589,1,12,0:1:0:0:
426,142,86781,1,8,0:3:0:0:
503,379,86973,1,2,1:2:0:0:
503,379,87358,6,0,B|427:356|422:284|453:244|453:244|512:230|518:169,1,255.000009727478,14|0,0:0|1:0,0:0:0:0:
319,13,87935,1,2,0:0:0:0:
311,50,88031,1,8,0:0:0:0:
304,87,88127,1,10,0:0:0:0:
168,310,88320,2,0,B|287:318|209:229|346:241,1,191.250007295609,6|0,1:0|0:0,0:0:0:0:
370,258,88704,5,10,0:0:0:0:
182,167,88896,1,8,0:0:0:0:
443,73,89089,1,2,0:0:0:0:
443,73,89185,1,8,0:0:0:0:
443,73,89281,2,0,P|430:128|420:198,1,101.999996887207,8|8,0:0|0:3,0:0:0:0:
72,250,89666,2,0,P|85:195|95:125,1,101.999996887207,4|0,0:3|0:0,0:0:0:0:
384,360,90050,5,6,1:0:0:0:
128,24,90339,1,8,0:0:0:0:
128,24,90435,1,8,0:0:0:0:
295,270,90627,2,0,B|313:215|273:176|273:176|248:170|248:170|214:136|229:81,1,220.999989883423,10|8,0:0|0:0,0:0:0:0:
483,127,91204,2,0,P|428:118|374:105,1,110.499994941712,6|0,1:2|0:0,0:0:0:0:
336,91,91493,2,0,P|331:63|327:36,1,55.2499974708558,8|8,0:0|0:0,0:0:0:0:
186,251,91781,1,8,0:3:0:0:
77,229,91973,1,6,0:3:0:0:
67,14,92166,5,8,0:0:0:0:
104,22,92262,1,8,0:0:0:0:
141,29,92358,1,10,0:0:0:0:
256,192,92550,5,4,1:2:0:0:
371,355,92743,5,8,0:0:0:0:
408,362,92839,1,8,0:0:0:0:
445,370,92935,1,10,0:0:0:0:
256,192,93320,5,6,0:3:0:0:
23,345,93512,2,0,B|44:388|116:387|155:334|137:238|97:218|36:223|11:270|-21:287|-89:220|-100:163|-112:44|16:10|130:-14|193:167|209:291|117:299|-19:240|-61:67|-19:-64|159:-114|326:-36|307:84|268:214|167:202,1,972.399994064941,6|0,1:0|1:0,0:0:0:0:
