osu file format v14

[General]
AudioFilename: audio.mp3
AudioLeadIn: 0
PreviewTime: 52255
Countdown: 0
SampleSet: Soft
StackLeniency: 0.7
Mode: 0
LetterboxInBreaks: 0
WidescreenStoryboard: 0

[Editor]
DistanceSpacing: 0.9
BeatDivisor: 4
GridSize: 4
TimelineZoom: 1.9

[Metadata]
Title:Darling-go-round
TitleUnicode:Darling-go-round
Artist:Rin'ca
ArtistUnicode:Rin'ca
Creator:Bellicose
Version:Normal
Source:D.C.4 Fortunate Departures ~ダ・カーポ4~ フォーチュネイトデパーチャーズ
Tags:da capo 4 j-pop yozuca* CIRCUS Shizuku- Kazato Asa Shikibe Mayu visual novel vn video game japanese pop jpop short version
BeatmapID:3080776
BeatmapSetID:1501758

[Difficulty]
HPDrainRate:4
CircleSize:3.2
OverallDifficulty:4
ApproachRate:5
SliderMultiplier:1.1
SliderTickRate:1

[Events]
//Background and Video events
0,0,"ev_4fd_sor01b.png",0,0
//Break Periods
//Storyboard Layer 0 (Background)
//Storyboard Layer 1 (Fail)
//Storyboard Layer 2 (Pass)
//Storyboard Layer 3 (Foreground)
//Storyboard Layer 4 (Overlay)
//Storyboard Sound Samples

[TimingPoints]
820,384.615384615385,4,2,1,30,1,0
820,-100,4,2,1,30,0,0
25435,-100,4,2,1,35,0,0
27935,-100,4,2,2,40,0,0
28512,-100,4,2,2,40,0,0
37743,-100,4,2,2,45,0,0
38320,-100,4,2,2,45,0,0
38704,-100,4,2,2,45,0,0
40820,-100,4,2,2,45,0,0
50050,-95.2380952380952,4,2,2,50,0,0
51396,-95.2380952380952,4,2,3,55,0,0
52743,-95.2380952380952,4,2,2,55,0,0
53127,-95.2380952380952,4,2,2,60,0,0
59281,-95.2380952380952,4,2,2,60,0,0
59666,-95.2380952380952,4,2,2,60,0,0
60050,-95.2380952380952,4,2,2,60,0,0
62358,-95.2380952380952,4,2,2,60,0,0
62743,-95.2380952380952,4,2,2,60,0,0
63127,-95.2380952380952,4,2,2,60,0,0
63704,-95.2380952380952,4,2,2,60,0,0
65243,-95.2380952380952,4,2,2,60,0,0
71973,-95.2380952380952,4,2,2,60,0,0
72358,-95.2380952380952,4,2,2,60,0,0
73127,-95.2380952380952,4,2,2,60,0,0
73512,-95.2380952380952,4,2,2,60,0,0
73896,-95.2380952380952,4,2,2,60,0,0
76012,-95.2380952380952,4,2,2,60,0,0
77550,-90.9090909090909,4,2,2,65,0,0
78704,-90.9090909090909,4,2,3,65,0,0
79281,-90.9090909090909,4,2,2,65,0,0
81204,-90.9090909090909,4,2,2,65,0,0
81589,-90.9090909090909,4,2,2,65,0,0
83127,-90.9090909090909,4,2,2,65,0,0
83704,-90.9090909090909,4,2,2,65,0,0
84089,-90.9090909090909,4,2,2,65,0,0
85820,-90.9090909090909,4,2,2,65,0,0
87358,-90.9090909090909,4,2,2,65,0,0
89281,-90.9090909090909,4,2,2,65,0,0
90050,-100,4,2,2,60,0,0
90627,-100,4,2,2,60,0,0
93512,-100,4,2,2,60,0,0
93608,-100,4,2,2,5,0,0
97743,-100,4,2,2,25,0,0

[Colours]
Combo1 : 226,143,243
Combo2 : 139,222,254
Combo3 : 253,206,240
Combo4 : 150,166,254

[HitObjects]
141,99,820,6,0,P|99:135|39:120,2,110,6|0|2,1:2|3:0|3:2,0:0:0:0:
220,40,1973,1,0,3:0:0:0:
224,44,2166,2,0,P|289:34|343:28,1,110,2|0,3:2|1:2,0:0:0:0:
380,44,2743,1,2,3:2:0:0:
470,83,3127,2,0,P|497:135|467:188,1,110,0|2,1:0|3:2,0:0:0:0:
444,215,3704,1,0,1:0:0:0:
444,215,3896,6,0,B|419:260|419:260|461:319,2,110,2|0|2,1:2|3:0|3:2,0:0:0:0:
366,162,5050,1,0,3:0:0:0:
366,162,5243,2,0,P|299:150|241:144,1,110,2|0,3:2|1:0,0:0:0:0:
210,160,5820,1,2,3:2:0:0:
116,128,6204,2,0,P|128:195|134:253,1,110,0|2,1:0|3:2,0:0:0:0:
110,280,6781,1,0,1:0:0:0:
110,280,6973,6,0,P|59:276|9:317,2,110,6|0|2,1:2|3:0|3:2,0:0:0:0:
152,375,8127,1,0,3:0:0:0:
152,375,8320,2,0,P|231:358|286:356,1,110,2|0,3:2|1:0,0:0:0:0:
306,373,8896,1,2,3:2:0:0:
380,307,9281,2,0,P|385:279|393:253,1,55,0|0,1:0|3:0,0:0:0:0:
366,212,9666,2,0,P|339:220|312:225,1,55,2|0,3:2|1:0,0:0:0:0:
263,226,10050,6,0,P|225:184|243:123,1,110,2|0,1:2|3:0,0:0:0:0:
256,91,10627,1,0,0:0:0:0:
256,91,10820,1,2,3:2:0:0:
335,31,11204,1,0,3:0:0:0:
335,31,11396,2,0,B|358:54|390:56|390:56|406:39|441:37,1,110,2|2,3:2|1:2,0:0:0:0:
510,100,12166,2,0,P|499:159|493:219,1,110,2|0,0:0|3:0,0:0:0:0:
505,311,12935,1,0,1:0:0:0:
505,311,13127,6,0,P|450:303|409:353,1,110,2|0,1:2|3:0,0:0:0:0:
379,374,13704,2,0,P|327:362|255:357,1,110,2|0,0:0|0:0,0:0:0:0:
223,371,14281,1,2,3:2:0:0:
176,283,14666,1,0,3:0:0:0:
176,283,14858,2,0,P|188:231|193:159,1,110,2|0,0:0|3:0,0:0:0:0:
241,163,15435,2,0,P|313:117|263:5,1,220,2|4,3:2|1:2,0:0:0:0:
172,1,16589,5,2,3:2:0:0:
83,39,16973,1,0,3:2:0:0:
83,39,17166,2,0,P|68:108|63:161,2,110,2|2|2,0:0|0:0|0:0,0:0:0:0:
172,1,18320,1,2,0:0:0:0:
194,97,18704,2,0,P|223:119|299:110,1,110,2|2,0:0|1:2,0:0:0:0:
329,147,19281,1,0,1:0:0:0:
278,232,19666,6,0,P|292:309|294:364,1,110,2|2,3:2|3:2,0:0:0:0:
270,384,20243,2,0,P|347:370|402:368,2,110,2|2|2,0:0|0:0|0:0,0:0:0:0:
172,369,21396,2,0,P|131:337|72:342,1,110,2|2,0:0|0:0,0:0:0:0:
35,369,21973,1,2,3:2:0:0:
2,275,22358,2,0,P|17:199|22:158,1,110,2|0,1:2|3:0,0:0:0:0:
55,130,22935,2,0,P|105:118|132:115,1,55,2|0,0:0|3:0,0:0:0:0:
180,185,23512,5,2,3:2:0:0:
180,185,23704,2,0,P|228:215|280:196,1,110,2|0,0:0|0:0,0:0:0:0:
321,218,24281,2,0,P|311:268|310:287,1,55,2|2,1:2|0:0,0:0:0:0:
352,361,24858,1,2,1:2:0:0:
454,352,25243,1,0,0:0:0:0:
454,352,25435,6,0,P|473:248|479:224,1,110,2|0,1:2|3:0,0:0:0:0:
498,202,26012,1,2,0:0:0:0:
498,202,26204,2,0,P|466:160|479:102,1,110,2|0,3:2|3:2,0:0:0:0:
410,39,26973,1,0,3:0:0:0:
410,39,27166,2,0,B|387:39|364:21|364:21|323:29|310:64,1,110
283,90,27743,1,0,3:0:0:0:
283,90,27935,2,0,P|232:84|205:85,2,55,8|8|4,0:0|0:3|0:3,0:0:0:0:
301,136,28512,5,4,1:2:0:0:
368,207,28896,2,0,P|332:245|339:310,1,110,10|0,0:0|0:0,0:0:0:0:
334,349,29473,2,0,P|300:354|261:367,1,55,2|8,1:2|0:0,0:0:0:0:
235,381,29858,1,2,1:2:0:0:
159,316,30243,1,2,0:0:0:0:
71,362,30627,1,2,0:2:0:0:
1,291,31012,2,0,P|18:219|25:174,1,110,2|2,1:2|0:0,0:0:0:0:
19,134,31589,5,0,1:0:0:0:
81,57,31973,2,0,B|125:89|125:89|180:67,1,110,8|0,0:0|0:0,0:0:0:0:
214,36,32550,2,0,P|255:42|280:49,1,55,2|8,1:2|0:0,0:0:0:0:
306,76,32935,1,2,1:2:0:0:
242,151,33320,1,2,0:0:0:0:
292,235,33704,1,2,0:0:0:0:
388,213,34089,2,0,P|394:172|401:147,2,55,0|10|0,1:0|0:0|0:0,0:0:0:0:
428,241,34666,6,0,P|453:304|427:355,1,110,6|8,1:2|0:0,0:0:0:0:
400,372,35243,1,2,0:0:0:0:
251,370,35820,2,0,P|242:323|235:299,1,55,10|2,0:0|1:2,0:0:0:0:
220,270,36204,2,0,P|294:284|344:289,1,110,4|10,1:0|0:0,0:0:0:0:
370,261,36781,2,0,P|417:225|479:242,1,110,2|0,0:0|1:0,0:0:0:0:
506,204,37358,1,8,0:0:0:0:
453,119,37743,5,6,1:2:0:0:
359,141,38127,1,8,0:0:0:0:
359,141,38320,2,0,P|364:73|375:16,1,110,4|8,1:0|0:0,0:0:0:0:
331,2,38896,1,8,0:3:0:0:
266,77,39281,2,0,P|257:131|253:186,1,110,8|0,0:0|1:0,0:0:0:0:
268,233,39858,1,8,0:3:0:0:
268,233,40050,2,0,P|216:243|195:251,1,55,0|8,1:0|0:3,0:0:0:0:
169,264,40435,1,6,0:3:0:0:
101,191,40820,6,0,P|38:204|0:169,1,110,4|8,1:2|0:0,0:0:0:0:
5,132,41396,1,2,0:0:0:0:
5,132,41589,2,0,P|15:70|36:7,1,110,2|10,0:0|0:0,0:0:0:0:
73,2,42166,2,0,P|114:12|134:14,1,55,2|0,0:0|1:0,0:0:0:0:
205,73,42743,1,8,0:0:0:0:
129,137,43127,2,0,P|109:168|115:251,1,110,2|8,0:0|0:0,0:0:0:0:
118,342,43896,5,0,1:0:0:0:
118,342,44089,2,0,P|199:355|235:365,1,110,2|0,0:0|0:0,0:0:0:0:
273,347,44666,1,2,0:0:0:0:
251,255,45050,1,10,0:0:0:0:
251,255,45243,2,0,P|245:228|241:200,1,55,2|0,1:2|1:0,0:0:0:0:
167,134,45820,2,0,P|118:148|71:115,2,110,10|0|10,0:0|1:0|0:0,0:0:0:0:
223,53,46973,5,2,1:2:0:0:
307,114,47358,1,12,0:0:0:0:
307,114,47550,2,0,P|381:98|434:93,1,110,2|0,1:2|1:0,0:0:0:0:
462,80,48127,2,0,P|471:31|476:12,1,55,14|2,0:0|1:2,0:0:0:0:
506,170,48896,2,0,P|493:230|482:296,1,110,10|10,0:0|0:0,0:0:0:0:
456,320,49473,1,0,1:0:0:0:
456,320,49666,1,10,0:0:0:0:
352,327,50050,6,0,P|358:355|363:383,2,57.7499982376099,12|8|4,0:0|0:3|0:3,0:0:0:0:
309,296,50627,2,0,P|268:329|192:308,1,115.49999647522,4|2,1:0|0:0,0:0:0:0:
164,346,51204,1,10,0:0:0:0:
164,346,51396,2,0,P|178:268|188:223,1,115.49999647522,10|10,0:1|0:1,0:0:0:0:
157,188,51973,1,10,0:1:0:0:
301,38,52743,1,8,1:3:0:0:
375,109,53127,6,0,B|423:97|423:97|443:111|443:111|491:101,2,115.49999647522,6|8|0,1:2|0:0|1:0,0:0:0:0:
350,155,54089,1,2,0:0:0:0:
350,155,54281,2,0,P|340:198|339:232,1,57.7499982376099,10|2,0:0|0:0,0:0:0:0:
297,242,54666,2,0,P|237:216|184:257,1,115.49999647522,0|8,1:0|0:0,0:0:0:0:
158,273,55243,1,2,0:0:0:0:
80,204,55627,2,0,P|28:196|3:198,1,57.7499982376099,2|8,0:0|0:0,0:0:0:0:
3,153,56012,1,2,0:0:0:0:
3,153,56204,6,0,P|16:56|24:31,1,115.49999647522,4|8,1:0|0:0,0:0:0:0:
56,3,56781,1,2,0:0:0:0:
160,1,57166,2,0,P|148:47|144:74,1,57.7499982376099,2|8,0:0|0:0,0:0:0:0:
131,109,57550,1,2,0:0:0:0:
131,109,57743,2,0,B|172:131|172:131|197:108|236:108,1,115.49999647522,0|8,1:0|0:0,0:0:0:0:
281,145,58320,1,2,0:0:0:0:
281,145,58512,2,0,P|265:219|258:279,1,115.49999647522,2|10,1:2|0:0,0:0:0:0:
291,357,59281,5,2,1:2:0:0:
392,378,59666,1,14,0:0:0:0:
485,333,60050,1,2,1:2:0:0:
503,230,60435,2,0,P|438:230|400:271,1,115.49999647522,10|0,0:0|1:0,0:0:0:0:
308,220,61204,5,14,0:2:0:0:
317,116,61589,1,2,1:2:0:0:
328,12,61973,2,0,P|242:23|202:32,1,115.49999647522,10|0,0:0|1:0,0:0:0:0:
112,54,62743,5,14,0:0:0:0:
95,156,63128,1,2,1:2:0:0:
8,211,63512,1,10,0:0:0:0:
8,211,63704,2,0,P|18:267|25:325,1,115.49999647522,4|0,1:0|1:0,0:0:0:0:
56,366,64281,1,8,0:0:0:0:
159,378,64666,2,0,P|150:327|148:296,1,57.7499982376099,10|10,0:0|0:2,0:0:0:0:
143,274,65050,1,10,0:0:0:0:
143,274,65243,6,0,P|198:302|280:233,1,173.24999471283,6|8,1:2|0:0,0:0:0:0:
168,130,66396,2,0,P|177:80|185:56,1,57.7499982376099,2|10,0:0|0:0,0:0:0:0:
196,24,66781,1,2,0:0:0:0:
196,24,66973,2,0,P|286:7|331:1,1,115.49999647522,0|8,1:0|0:0,0:0:0:0:
350,36,67550,1,2,0:0:0:0:
452,20,67935,2,0,P|444:47|441:76,1,57.7499982376099,2|8,0:0|0:0,0:0:0:0:
471,118,68320,1,2,0:0:0:0:
471,118,68512,6,0,P|481:182|426:220,1,115.49999647522,6|8,1:0|0:0,0:0:0:0:
396,222,69089,1,2,0:0:0:0:
329,301,69473,2,0,P|338:344|341:379,1,57.7499982376099,2|8,0:0|0:0,0:0:0:0:
296,383,69858,1,2,0:0:0:0:
296,383,70050,2,0,B|264:353|243:357|243:357|221:381|184:381,1,115.49999647522,2|8,1:2|0:0,0:0:0:0:
147,359,70627,1,2,0:0:0:0:
147,359,70820,2,0,P|163:262|173:227,1,115.49999647522,2|8,1:2|0:0,0:0:0:0:
239,170,71589,5,0,1:0:0:0:
225,67,71973,1,14,0:0:0:0:
136,11,72358,1,2,1:2:0:0:
35,37,72743,2,0,P|-4:78|7:147,1,115.49999647522,10|0,0:0|1:2,0:0:0:0:
34,231,73512,5,14,0:0:0:0:
136,213,73896,1,2,1:2:0:0:
239,199,74281,2,0,P|227:250|215:335,1,115.49999647522,10|0,0:0|1:0,0:0:0:0:
294,381,75050,5,14,0:0:0:0:
398,368,75436,1,10,0:0:0:0:
504,355,75820,1,10,0:0:0:0:
504,355,76012,2,0,B|492:310|492:310|506:286|506:286|493:242,1,115.49999647522,4|8,1:0|0:0,0:0:0:0:
460,206,76589,1,0,1:0:0:0:
380,272,76973,2,0,P|341:264|305:262,1,57.7499982376099,2|2,1:2|1:2,0:0:0:0:
276,279,77358,1,10,0:0:0:0:
276,279,77550,6,0,B|292:178|201:221|232:108,1,181.500005538941,6|8,1:2|0:0,0:0:0:0:
355,8,78704,2,0,P|404:0|422:0,1,60.5000018463135,2|10,0:1|0:1,0:0:0:0:
471,18,79089,1,2,0:1:0:0:
471,18,79281,2,0,P|505:62|483:127,1,121.000003692627,0|8,1:0|0:0,0:0:0:0:
409,195,80050,2,0,P|360:187|342:187,1,60.5000018463135,2|0,1:2|0:0,0:0:0:0:
294,181,80435,2,0,P|300:210|302:240,1,60.5000018463135,10|0,0:0|0:0,0:0:0:0:
308,294,80820,5,0,1:0:0:0:
240,379,81204,2,0,P|188:341|121:362,1,121.000003692627,12|0,0:1|1:0,0:0:0:0:
81,345,81781,2,0,P|94:282|99:264,1,60.5000018463135,2|10,0:0|0:0,0:0:0:0:
62,240,82166,1,6,0:0:0:0:
156,186,82550,2,0,P|190:179|224:175,2,60.5000018463135,2|8|8,0:0|0:0|0:3,0:0:0:0:
135,135,83127,2,0,P|142:101|146:67,1,60.5000018463135,10|10,0:0|0:0,0:0:0:0:
185,38,83512,1,10,0:0:0:0:
185,38,83704,6,0,B|96:11|111:98|-7:59,1,181.500005538941,2|14,1:2|0:0,0:0:0:0:
37,170,84666,1,2,1:2:0:0:
5,273,85050,1,10,0:0:0:0:
110,299,85435,1,0,1:0:0:0:
144,195,85820,2,0,P|222:209|276:209,1,121.000003692627,14|0,0:0|1:2,0:0:0:0:
317,234,86396,1,2,0:0:0:0:
317,234,86589,2,0,P|307:268|307:319,1,60.5000018463135,12|8,0:1|0:3,0:0:0:0:
321,344,86973,5,2,1:2:0:0:
426,369,87358,2,0,P|465:308|438:246,1,121.000003692627,14|0,0:0|1:0,0:0:0:0:
498,164,88127,1,10,0:0:0:0:
498,164,88320,2,0,P|405:147|358:143,1,121.000003692627,6|10,1:0|0:0,0:0:0:0:
325,131,88896,2,0,P|334:81|336:63,1,60.5000018463135,8|2,0:0|0:0,0:0:0:0:
301,28,89281,2,0,B|243:52|243:52|192:18,1,121.000003692627,8|4,0:0|0:3,0:0:0:0:
114,78,90050,5,6,1:0:0:0:
230,169,90627,1,10,0:0:0:0:
180,256,91012,1,8,0:0:0:0:
180,256,91204,2,0,P|206:311|178:370,1,110,6|8,1:2|0:0,0:0:0:0:
152,383,91781,1,8,0:3:0:0:
152,383,91973,2,0,P|81:369|34:365,1,110,6|10,0:3|0:0,0:0:0:0:
9,329,92550,1,4,1:2:0:0:
71,252,92935,1,10,0:0:0:0:
9,174,93320,1,6,0:3:0:0:
9,174,93512,1,6,1:0:0:0:
256,192,93704,12,0,97743,1:0:0:0:
