osu file format v14

[General]
AudioFilename: audio.mp3
AudioLeadIn: 0
PreviewTime: 62234
Countdown: 1
SampleSet: Normal
StackLeniency: 0.7
Mode: 0
LetterboxInBreaks: 0
WidescreenStoryboard: 0

[Editor]
DistanceSpacing: 1
BeatDivisor: 4
GridSize: 8
TimelineZoom: 2.300002

[Metadata]
Title:Never say never
TitleUnicode:Never say never
Artist:Rin Shibuya (CV. Ayaka Fukuhara)
ArtistUnicode:Rin Shibuya (CV. Ayaka Fukuhara)
Creator:Animeshka92
Version:St@rlight
Source:Idolm@ster
Tags:
BeatmapID:1430507
BeatmapSetID:676343

[Difficulty]
HPDrainRate:6.5
CircleSize:4
OverallDifficulty:8
ApproachRate:9
SliderMultiplier:1.7
SliderTickRate:1

[Events]
//Background and Video events
0,0,"200253SSR-Shibuya-Rin-Over-Myself.jpg",0,0
//Break Periods
//Storyboard Layer 0 (Background)
//Storyboard Layer 1 (Fail)
//Storyboard Layer 2 (Pass)
//Storyboard Layer 3 (Foreground)
//Storyboard Sound Samples

[TimingPoints]
720,384.615384615385,4,1,0,100,1,0

[HitObjects]
256,192,720,12,0,3027,0:0:0:0:
128,264,3220,5,0,0:0:0:0:
264,186,3412,1,0,0:0:0:0:
128,104,3604,1,0,0:0:0:0:
128,256,3796,6,0,P|234:248|266:193,1,170
112,56,4373,1,0,0:0:0:0:
208,280,4566,2,0,P|288:312|355:247,1,170
280,104,5143,1,0,0:0:0:0:
104,296,5335,6,0,B|120:200|120:200|160:128,1,170
248,48,5912,1,0,0:0:0:0:
264,320,6104,2,0,P|200:232|224:224,1,170
360,120,6681,1,0,0:0:0:0:
344,288,6873,6,0,P|259:296|217:230,1,170
192,80,7450,1,0,0:0:0:0:
368,56,7643,2,0,B|352:136|352:136|288:240,1,170
240,328,8220,1,0,0:0:0:0:
168,56,8412,6,0,P|120:64|96:104,1,85
112,208,8796,1,0,0:0:0:0:
235,111,8989,1,0,0:0:0:0:
257,266,9181,1,0,0:0:0:0:
360,120,9373,1,0,0:0:0:0:
411,267,9566,1,0,0:0:0:0:
264,240,9758,1,0,0:0:0:0:
224,224,9854,1,0,0:0:0:0:
192,216,9950,6,0,P|152:200|128:160,1,85
200,48,10335,1,0,0:0:0:0:
320,264,10527,1,0,0:0:0:0:
120,208,10720,1,0,0:0:0:0:
304,112,10912,1,0,0:0:0:0:
304,304,11104,2,0,P|216:304|168:240,1,170
368,184,11681,1,0,0:0:0:0:
152,112,11873,1,0,0:0:0:0:
160,264,12066,5,0,0:0:0:0:
360,104,12258,1,0,0:0:0:0:
192,64,12450,1,0,0:0:0:0:
153,80,12546,1,0,0:0:0:0:
126,112,12643,2,0,P|120:176|216:176,1,170
232,176,13123,1,0,0:0:0:0:
260,144,13219,1,0,0:0:0:0:
298,126,13315,1,0,0:0:0:0:
340,123,13412,2,0,P|392:192|320:232,1,170
296,240,13893,1,0,0:0:0:0:
257,223,13989,1,0,0:0:0:0:
215,222,14085,1,0,0:0:0:0:
175,238,14181,1,0,0:0:0:0:
146,268,14277,1,0,0:0:0:0:
107,283,14373,1,0,0:0:0:0:
67,271,14469,1,0,0:0:0:0:
44,237,14566,6,0,B|80:144|80:144|152:80,1,170
304,240,15143,1,0,0:0:0:0:
136,240,15335,1,0,0:0:0:0:
296,128,15527,1,0,0:0:0:0:
296,128,15623,1,0,0:0:0:0:
296,128,15720,2,0,P|286:223|213:239,1,170
104,96,16296,1,0,0:0:0:0:
152,256,16489,1,0,0:0:0:0:
312,96,16681,1,0,0:0:0:0:
304,288,16873,2,0,P|216:288|160:232,1,170
248,40,17450,5,0,0:0:0:0:
176,224,17643,1,0,0:0:0:0:
320,136,17835,5,0,0:0:0:0:
384,312,18027,1,0,0:0:0:0:
160,288,18220,5,0,0:0:0:0:
120,272,18316,1,0,0:0:0:0:
83,252,18412,2,0,L|144:232,1,42.5
296,184,18604,2,0,L|248:168,1,42.5
88,88,18796,2,0,L|152:96,1,42.5
416,112,18989,1,0,0:0:0:0:
416,112,19181,2,0,L|392:160,1,42.5
328,304,19373,1,0,0:0:0:0:
256,88,19566,1,0,0:0:0:0:
208,312,19758,1,0,0:0:0:0:
144,88,19951,1,0,0:0:0:0:
72,304,20143,1,0,0:0:0:0:
320,224,20335,1,0,0:0:0:0:
128,192,20527,1,0,0:0:0:0:
296,104,20720,2,0,P|416:184|296:320,2,340
112,112,22450,5,0,0:0:0:0:
112,112,22643,1,0,0:0:0:0:
176,256,22835,1,0,0:0:0:0:
176,256,23027,1,0,0:0:0:0:
344,208,23220,1,0,0:0:0:0:
208,64,23412,2,0,P|141:89|112:176,1,170
400,288,23989,1,0,0:0:0:0:
256,224,24181,1,0,0:0:0:0:
400,184,24373,1,0,0:0:0:0:
256,120,24566,2,0,L|176:160,1,85
72,240,24950,2,0,L|160:280,1,85
264,288,25335,6,0,L|344:240,1,85
392,160,25720,2,0,L|336:88,1,85
128,56,26104,1,0,0:0:0:0:
40,168,26296,1,0,0:0:0:0:
208,144,26489,1,0,0:0:0:0:
120,256,26681,1,0,0:0:0:0:
280,256,26873,5,0,0:0:0:0:
368,144,27065,1,0,0:0:0:0:
144,80,27258,1,0,0:0:0:0:
296,152,27450,1,0,0:0:0:0:
104,192,27643,1,0,0:0:0:0:
240,240,27835,1,0,0:0:0:0:
240,240,28027,1,0,0:0:0:0:
352,72,28220,1,0,0:0:0:0:
352,72,28316,1,0,0:0:0:0:
352,72,28412,6,0,B|320:152|320:152|248:216,1,170
112,72,28989,1,0,0:0:0:0:
184,304,29181,1,0,0:0:0:0:
336,96,29373,5,0,0:0:0:0:
64,192,29566,1,0,0:0:0:0:
192,296,29758,1,0,0:0:0:0:
192,296,29854,1,0,0:0:0:0:
192,296,29950,2,0,P|288:312|344:248,1,170
408,184,30527,1,0,0:0:0:0:
168,128,30720,1,0,0:0:0:0:
248,288,30912,1,0,0:0:0:0:
344,72,31104,1,0,0:0:0:0:
144,64,31296,1,0,0:0:0:0:
112,96,31393,1,0,0:0:0:0:
88,136,31489,2,0,L|64:224,1,85
160,304,31873,1,0,0:0:0:0:
368,264,32066,1,0,0:0:0:0:
160,192,32258,5,0,0:0:0:0:
368,152,32451,1,0,0:0:0:0:
152,40,32643,1,0,0:0:0:0:
64,240,32835,1,0,0:0:0:0:
272,56,33027,2,0,L|248:120,1,42.5
184,256,33219,1,0,0:0:0:0:
96,136,33412,1,0,0:0:0:0:
304,240,33604,1,0,0:0:0:0:
192,48,33796,1,0,0:0:0:0:
368,192,33988,1,0,0:0:0:0:
240,288,34181,1,0,0:0:0:0:
112,112,34373,1,0,0:0:0:0:
112,112,34470,1,0,0:0:0:0:
112,112,34566,6,0,P|192:64|256:104,1,170
392,208,35143,1,0,0:0:0:0:
304,304,35335,1,0,0:0:0:0:
256,192,35527,1,0,0:0:0:0:
168,288,35719,1,0,0:0:0:0:
168,288,35816,1,0,0:0:0:0:
168,288,35912,1,0,0:0:0:0:
88,192,36104,2,0,P|120:128|240:120,1,170
344,288,36681,1,0,0:0:0:0:
88,200,36873,1,0,0:0:0:0:
336,112,37066,1,0,0:0:0:0:
96,40,37258,1,0,0:0:0:0:
224,272,37450,1,0,0:0:0:0:
224,272,37546,1,0,0:0:0:0:
224,272,37643,6,0,B|328:272|328:272|376:208,1,170
392,80,38220,1,0,0:0:0:0:
392,80,38412,1,0,0:0:0:0:
96,120,38604,2,0,L|144:160,1,42.5
280,256,38796,1,0,0:0:0:0:
280,256,38893,1,0,0:0:0:0:
280,256,38989,2,0,B|328:256|328:256|368:224,2,85
136,280,39566,6,0,P|128:128|144:120,1,170
248,48,40143,1,0,0:0:0:0:
392,192,40335,1,0,0:0:0:0:
382,232,40431,1,0,0:0:0:0:
353,263,40527,1,0,0:0:0:0:
314,276,40623,1,0,0:0:0:0:
272,268,40720,2,0,P|224:248|200:208,1,85
168,112,41104,1,0,0:0:0:0:
312,32,41296,1,0,0:0:0:0:
272,176,41489,1,0,0:0:0:0:
192,24,41681,1,0,0:0:0:0:
192,24,41873,1,0,0:0:0:0:
95,75,42066,1,0,0:0:0:0:
83,183,42258,2,0,P|112:272|192:280,1,170
360,192,42835,1,0,0:0:0:0:
332,113,43027,1,0,0:0:0:0:
257,78,43219,1,0,0:0:0:0:
184,128,43412,1,0,0:0:0:0:
182,169,43508,1,0,0:0:0:0:
201,206,43604,1,0,0:0:0:0:
237,228,43700,1,0,0:0:0:0:
279,228,43796,1,0,0:0:0:0:
304,64,44181,1,0,0:0:0:0:
392,192,44373,1,0,0:0:0:0:
176,112,44758,5,0,0:0:0:0:
72,256,44950,2,0,B|160:296|160:296|256:296,1,170
360,176,45527,1,0,0:0:0:0:
192,56,45720,1,0,0:0:0:0:
150,56,45816,1,0,0:0:0:0:
123,86,45912,1,0,0:0:0:0:
128,127,46008,1,0,0:0:0:0:
162,151,46104,1,0,0:0:0:0:
200,160,46200,1,0,0:0:0:0:
227,190,46296,1,0,0:0:0:0:
222,231,46392,1,0,0:0:0:0:
188,255,46488,1,0,0:0:0:0:
146,254,46585,1,0,0:0:0:0:
119,223,46681,1,0,0:0:0:0:
124,183,46777,1,0,0:0:0:0:
160,160,46873,2,0,B|240:88|320:152,1,170
400,232,47450,5,0,0:0:0:0:
400,232,47643,2,0,P|376:144|304:128,1,170
72,88,48412,2,0,B|88:168|88:168|152:240,1,170
304,304,49181,2,0,B|344:304|344:304|248:184,1,170
160,56,49950,1,0,0:0:0:0:
160,240,50335,1,0,0:0:0:0:
256,304,50527,1,0,0:0:0:0:
328,112,50912,1,0,0:0:0:0:
232,48,51104,2,0,P|160:160|176:176,1,170
256,256,51681,5,0,0:0:0:0:
366,192,51873,1,0,0:0:0:0:
256,128,52066,1,0,0:0:0:0:
144,128,52258,2,0,P|88:208|120:248,1,127.5
120,248,52643,1,0,0:0:0:0:
158,266,52739,1,0,0:0:0:0:
200,271,52835,1,0,0:0:0:0:
241,263,52931,1,0,0:0:0:0:
278,242,53027,1,0,0:0:0:0:
368,56,53220,5,0,0:0:0:0:
304,216,53412,1,0,0:0:0:0:
224,56,53604,5,0,0:0:0:0:
160,216,53796,1,0,0:0:0:0:
368,320,53989,5,0,0:0:0:0:
152,240,54181,1,0,0:0:0:0:
368,184,54373,5,0,0:0:0:0:
168,96,54566,1,0,0:0:0:0:
408,48,54758,2,0,L|384:112,1,42.5
336,240,54950,1,0,0:0:0:0:
168,88,55143,1,0,0:0:0:0:
168,88,55239,1,0,0:0:0:0:
168,88,55335,2,0,B|144:168|144:168|185:207|192:240,1,170
224,264,55816,1,0,0:0:0:0:
260,283,55912,1,0,0:0:0:0:
299,268,56008,1,0,0:0:0:0:
315,230,56104,2,0,L|296:176,1,42.5
256,48,56296,5,0,0:0:0:0:
128,96,56489,1,0,0:0:0:0:
114,135,56585,1,0,0:0:0:0:
121,176,56681,1,0,0:0:0:0:
149,208,56777,1,0,0:0:0:0:
189,221,56873,1,0,0:0:0:0:
230,212,56969,1,0,0:0:0:0:
264,184,57066,1,0,0:0:0:0:
295,155,57162,1,0,0:0:0:0:
336,147,57258,1,0,0:0:0:0:
375,160,57354,1,0,0:0:0:0:
403,191,57450,1,0,0:0:0:0:
411,233,57546,1,0,0:0:0:0:
397,272,57643,5,0,0:0:0:0:
365,300,57739,1,0,0:0:0:0:
324,308,57835,1,0,0:0:0:0:
285,295,57931,1,0,0:0:0:0:
257,264,58027,1,0,0:0:0:0:
249,222,58123,1,0,0:0:0:0:
263,183,58220,1,0,0:0:0:0:
276,143,58316,1,0,0:0:0:0:
269,102,58412,1,0,0:0:0:0:
241,70,58508,1,0,0:0:0:0:
201,57,58604,1,0,0:0:0:0:
160,66,58700,1,0,0:0:0:0:
129,94,58796,2,0,L|80:112,3,42.5
80,184,59181,5,0,0:0:0:0:
336,328,59373,1,0,0:0:0:0:
392,176,59758,5,0,0:0:0:0:
112,320,59950,1,0,0:0:0:0:
160,40,60335,5,0,0:0:0:0:
312,336,60527,1,0,0:0:0:0:
336,40,60912,5,0,0:0:0:0:
168,336,61104,1,0,0:0:0:0:
168,96,61681,1,0,0:0:0:0:
208,160,61777,1,0,0:0:0:0:
248,224,61873,1,0,0:0:0:0:
360,80,62258,5,0,0:0:0:0:
216,272,62450,1,0,0:0:0:0:
360,200,62643,1,0,0:0:0:0:
192,96,62835,1,0,0:0:0:0:
288,320,63027,1,0,0:0:0:0:
376,96,63220,1,0,0:0:0:0:
128,208,63412,1,0,0:0:0:0:
128,208,63604,1,0,0:0:0:0:
264,328,63796,2,0,L|296:232,1,85
194,127,64181,2,0,L|168:208,1,85
400,120,64566,6,0,L|352:104,1,42.5
208,64,64758,1,0,0:0:0:0:
224,280,64950,1,0,0:0:0:0:
368,80,65143,1,0,0:0:0:0:
88,144,65335,2,0,L|104:192,1,42.5
160,320,65527,2,0,L|248:288,1,85
384,208,65912,1,0,0:0:0:0:
240,32,66104,1,0,0:0:0:0:
384,216,66296,1,0,0:0:0:0:
72,200,66489,5,0,0:0:0:0:
320,304,66681,1,0,0:0:0:0:
72,200,66873,1,0,0:0:0:0:
280,80,67066,1,0,0:0:0:0:
309,96,67162,1,0,0:0:0:0:
333,120,67258,1,0,0:0:0:0:
350,149,67354,1,0,0:0:0:0:
359,182,67450,1,0,0:0:0:0:
359,216,67546,1,0,0:0:0:0:
344,256,67643,2,0,L|248:232,1,85
96,112,68027,2,0,L|112:216,1,85
272,296,68412,6,0,B|304:336|304:336|360:288|328:208,1,170
304,120,68989,1,0,0:0:0:0:
88,48,69181,1,0,0:0:0:0:
200,272,69566,1,0,0:0:0:0:
320,96,69950,2,0,B|350:57|350:57|406:105|381:165,1,170
328,320,70527,1,0,0:0:0:0:
72,192,70720,1,0,0:0:0:0:
304,80,71104,2,0,L|280:184,1,85
240,304,71489,2,0,B|192:336|192:336|136:296|136:232,1,170
136,96,72066,1,0,0:0:0:0:
392,160,72258,2,0,B|417:219|361:267|361:267|330:229,1,170
96,192,72835,5,0,0:0:0:0:
96,192,73027,2,0,L|184:160,1,85
296,72,73412,1,0,0:0:0:0:
335,61,73508,1,0,0:0:0:0:
367,87,73604,1,0,0:0:0:0:
365,128,73700,1,0,0:0:0:0:
332,151,73796,1,0,0:0:0:0:
298,174,73892,1,0,0:0:0:0:
296,215,73988,1,0,0:0:0:0:
328,240,74084,1,0,0:0:0:0:
368,230,74181,1,0,0:0:0:0:
401,206,74277,1,0,0:0:0:0:
403,165,74373,1,0,0:0:0:0:
371,140,74469,1,0,0:0:0:0:
328,144,74566,2,0,L|268:161,1,42.5
120,200,74758,5,0,0:0:0:0:
208,320,74950,1,0,0:0:0:0:
320,72,75143,1,0,0:0:0:0:
88,136,75335,2,0,L|136:168,1,42.5
296,256,75527,1,0,0:0:0:0:
296,256,75623,1,0,0:0:0:0:
296,256,75719,1,0,0:0:0:0:
224,72,75912,1,0,0:0:0:0:
136,256,76104,1,0,0:0:0:0:
360,160,76296,1,0,0:0:0:0:
144,56,76489,2,0,L|112:104,1,42.5
104,128,76681,2,0,B|124:217|124:217|192:264,1,170
400,104,77258,6,0,L|368:200,1,85
320,304,77643,2,0,L|248:240,1,85
192,64,78027,2,0,L|160:160,1,85
120,288,78412,1,0,0:0:0:0:
120,288,78604,1,0,0:0:0:0:
352,208,78796,1,0,0:0:0:0:
352,208,78989,1,0,0:0:0:0:
112,56,79181,1,0,0:0:0:0:
48,160,79373,1,0,0:0:0:0:
104,272,79566,1,0,0:0:0:0:
264,272,79758,2,0,P|280:184|216:152,1,170
72,192,80335,5,0,0:0:0:0:
69,234,80431,1,0,0:0:0:0:
83,273,80527,1,0,0:0:0:0:
113,304,80623,1,0,0:0:0:0:
152,320,80720,2,0,L|208:304,1,42.5
376,248,80912,1,0,0:0:0:0:
136,160,81104,1,0,0:0:0:0:
368,120,81296,5,0,0:0:0:0:
120,288,81489,2,0,L|232:304,1,85
336,304,81873,2,0,L|376:256,1,42.5
416,176,82066,1,0,0:0:0:0:
416,176,82162,1,0,0:0:0:0:
416,176,82258,2,0,L|312:144,1,85
176,96,82643,1,0,0:0:0:0:
176,96,82835,1,0,0:0:0:0:
104,264,83027,2,0,B|208:288|208:288|280:224,1,170
368,80,83604,1,0,0:0:0:0:
128,112,83796,2,0,P|96:192|176:240,2,170
304,64,84758,5,0,0:0:0:0:
309,106,84854,1,0,0:0:0:0:
315,148,84950,1,0,0:0:0:0:
321,190,85046,1,0,0:0:0:0:
326,232,85142,1,0,0:0:0:0:
168,296,85335,1,0,0:0:0:0:
168,296,85431,1,0,0:0:0:0:
168,296,85527,2,0,L|232:272,1,42.5
384,224,85720,1,0,0:0:0:0:
384,224,85816,1,0,0:0:0:0:
384,224,85912,2,0,L|304:200,1,42.5
176,64,86104,1,0,0:0:0:0:
217,71,86200,1,0,0:0:0:0:
259,79,86296,1,0,0:0:0:0:
301,87,86392,5,0,0:0:0:0:
343,95,86488,1,0,0:0:0:0:
384,102,86584,1,0,0:0:0:0:
426,110,86680,1,0,0:0:0:0:
468,118,86777,1,0,0:0:0:0:
510,126,86873,1,0,0:0:0:0:
256,192,86970,12,0,89950,0:0:0:0:
312,184,91104,5,0,0:0:0:0:
318,156,91200,1,0,0:0:0:0:
324,128,91296,1,0,0:0:0:0:
331,101,91392,1,0,0:0:0:0:
344,64,91489,2,0,B|400:48|400:48|356:189|356:189|256:240,1,297.5
256,144,92258,2,0,B|174:185|174:185|130:326|130:326|186:310,1,297.5
336,256,93027,5,0,0:0:0:0:
336,256,93220,1,0,0:0:0:0:
176,104,93412,1,0,0:0:0:0:
176,104,93604,1,0,0:0:0:0:
176,264,93796,1,0,0:0:0:0:
176,264,93989,1,0,0:0:0:0:
344,112,94181,1,0,0:0:0:0:
344,280,94373,2,0,P|304:296|248:280,1,85
104,200,94758,6,0,P|120:152|152:120,1,85
256,192,95143,1,0,0:0:0:0:
400,88,95335,1,0,0:0:0:0:
256,192,95527,1,0,0:0:0:0:
400,88,95720,1,0,0:0:0:0:
256,192,95912,1,0,0:0:0:0:
152,288,96104,6,0,L|128:200,1,85
152,96,96489,2,0,L|248:104,1,85
320,160,96873,2,0,L|328:248,1,85
168,320,97258,2,0,L|192:216,1,85
224,56,97643,1,0,0:0:0:0:
224,56,97835,1,0,0:0:0:0:
384,192,98027,1,0,0:0:0:0:
384,192,98220,1,0,0:0:0:0:
176,296,98412,2,0,L|208:208,1,85
272,40,98796,1,0,0:0:0:0:
272,40,98893,1,0,0:0:0:0:
288,72,99181,2,0,P|344:144|312:208,1,170
352,304,99758,1,0,0:0:0:0:
96,200,99950,1,0,0:0:0:0:
280,48,100143,1,0,0:0:0:0:
144,272,100335,1,0,0:0:0:0:
144,272,100527,2,0,P|216:312|304:264,1,170
360,80,101104,5,0,0:0:0:0:
296,280,101296,1,0,0:0:0:0:
240,80,101489,5,0,0:0:0:0:
176,280,101681,1,0,0:0:0:0:
128,80,101873,5,0,0:0:0:0:
64,280,102065,1,0,0:0:0:0:
296,192,102258,2,0,P|256:188|192:192,1,85
176,200,102546,1,0,0:0:0:0:
152,208,102643,1,0,0:0:0:0:
208,320,102835,1,0,0:0:0:0:
400,264,103027,1,0,0:0:0:0:
200,224,103220,5,0,0:0:0:0:
392,168,103412,1,0,0:0:0:0:
192,112,103604,5,0,0:0:0:0:
384,56,103796,1,0,0:0:0:0:
384,56,103893,2,0,L|363:113,1,42.5
304,248,104181,1,0,0:0:0:0:
304,248,104373,1,0,0:0:0:0:
104,224,104566,1,0,0:0:0:0:
216,80,104758,1,0,0:0:0:0:
304,248,104950,1,0,0:0:0:0:
96,224,105143,1,0,0:0:0:0:
280,56,105335,1,0,0:0:0:0:
280,56,105431,1,0,0:0:0:0:
280,56,105527,2,0,P|344:128|320:200,1,170
240,312,106104,1,0,0:0:0:0:
240,312,106489,5,0,0:0:0:0:
344,112,106681,1,0,0:0:0:0:
128,192,106873,1,0,0:0:0:0:
128,192,106970,1,0,0:0:0:0:
128,192,107066,2,0,P|176:200|192:200,1,42.5
376,208,107258,1,0,0:0:0:0:
264,72,107450,1,0,0:0:0:0:
224,312,107643,1,0,0:0:0:0:
168,72,107835,1,0,0:0:0:0:
104,312,108027,1,0,0:0:0:0:
104,312,108123,1,0,0:0:0:0:
104,312,108220,1,0,0:0:0:0:
312,200,108412,2,0,P|160:168|152:176,2,170
240,280,109373,1,0,0:0:0:0:
