osu file format v14

[General]
AudioFilename: audio.mp3
AudioLeadIn: 0
PreviewTime: 147982
Countdown: 0
SampleSet: None
StackLeniency: 0.7
Mode: 0
LetterboxInBreaks: 0
WidescreenStoryboard: 0

[Editor]
DistanceSpacing: 0.5
BeatDivisor: 4
GridSize: 16
TimelineZoom: 2.2

[Metadata]
Title:Renrakumada
TitleUnicode:Renrakumada
Artist:Rin
ArtistUnicode:Rin
Creator:kristrace
Version:Insane
Source:
Tags:
BeatmapID:1434450
BeatmapSetID:672657

[Difficulty]
HPDrainRate:6
CircleSize:3.5
OverallDifficulty:6
ApproachRate:9
SliderMultiplier:1.6
SliderTickRate:1

[Events]
//Background and Video events
0,0,"Konachan.com - 81658 kagamine_rin vocaloid.jpg",0,0
//Break Periods
2,19412,145997
2,172413,206459
//Storyboard Layer 0 (Background)
//Storyboard Layer 1 (Fail)
//Storyboard Layer 2 (Pass)
//Storyboard Layer 3 (Foreground)
//Storyboard Sound Samples

[TimingPoints]
290,461.538461538462,4,3,0,30,1,0
147059,-66.6666666666667,4,3,1,30,0,0
147982,-100,4,3,1,30,0,0
150290,-200,4,3,1,30,0,0
152136,-500,4,3,1,30,0,0
154443,-100,4,3,1,30,0,0
155136,-333.333333333333,4,3,1,30,0,0
158136,-100,4,3,1,30,0,0
158828,-250,4,3,1,30,0,0
162290,-100,4,3,1,30,0,0

[Colours]
Combo1 : 179,0,0
Combo2 : 0,128,192
Combo3 : 0,0,255
Combo4 : 171,149,249
Combo5 : 230,223,223
Combo6 : 0,128,255

[HitObjects]
48,144,14597,5,0,0:0:0:0:
48,16,14828,1,0,0:0:0:0:
192,16,15059,2,0,P|272:16|336:64,1,160
480,16,15751,1,0,0:0:0:0:
480,160,15982,2,0,P|448:160|400:160,1,79.9999999999999
480,304,16443,5,0,0:0:0:0:
480,304,16674,1,0,0:0:0:0:
480,304,16905,2,0,P|400:320|320:304,1,160
208,368,17597,1,0,0:0:0:0:
208,224,18059,1,0,0:0:0:0:
32,368,18520,1,0,0:0:0:0:
32,368,18751,2,0,P|16:304|16:208,1,160
256,192,146597,12,4,147751,0:0:0:0:
176,192,147982,6,0,B|256:160|272:208|352:192,1,160,2|0,0:0|0:0,0:0:0:0:
432,288,148905,1,0,0:0:0:0:
320,288,149366,1,2,3:0:0:0:
144,208,149828,2,0,L|32:208,1,79.9999999999999,8|0,0:0|0:0,0:0:0:0:
32,320,150290,6,0,B|93:333|109:285|189:317,1,160,2|2,0:0|0:0,0:0:0:0:
288,352,151674,1,2,0:0:0:0:
448,352,151905,1,0,0:0:0:0:
448,352,152136,2,0,P|464:288|448:272,1,95.9999999999999
480,192,153751,1,0,0:0:0:0:
416,80,153982,1,0,0:0:0:0:
288,80,154213,1,0,0:0:0:0:
208,192,154443,2,0,P|160:192|128:176,1,79.9999999999999,2|0,0:0|0:0,0:0:0:0:
48,80,155136,6,0,B|32:128|96:160|96:160|96:272,1,215.999993408203,2|8,0:0|0:0,0:0:0:0:
240,352,157905,1,0,0:0:0:0:
240,352,158136,2,0,P|288:352|320:336,1,83.9999974365235,2|0,0:0|0:0,0:0:0:0:
496,256,158828,2,0,B|464:256|400:160|400:160|352:256|288:256,1,288,2|0,0:0|0:0,0:0:0:0:
224,112,161366,1,0,0:0:0:0:
128,112,161597,1,0,0:0:0:0:
176,192,161828,1,2,0:0:0:0:
272,192,162059,1,0,0:0:0:0:
272,288,162290,2,0,P|320:288|368:288,1,79.9999999999999,10|0,3:0|0:0,0:0:0:0:
464,352,162751,6,0,P|496:288|448:208,1,160,4|0,1:0|0:0,0:0:0:0:
352,208,163674,1,0,0:0:0:0:
256,208,164136,1,2,0:0:0:0:
48,352,164597,2,0,P|16:288|64:208,1,160,8|0,0:0|0:0,0:0:0:0:
160,208,165520,1,0,0:0:0:0:
256,208,165982,1,2,0:0:0:0:
256,352,166443,5,2,0:0:0:0:
256,352,166674,1,0,0:0:0:0:
256,352,166905,2,0,P|304:352|352:336,1,79.9999999999999
480,352,167366,1,0,0:0:0:0:
480,240,167828,1,2,0:0:0:0:
384,304,168289,5,2,0:0:0:0:
384,304,168520,1,0,0:0:0:0:
384,304,168751,2,0,P|384:256|352:208,1,80
336,208,169213,2,0,B|272:208|208:256|208:256|144:208|64:208,1,280,2|0,0:0|0:0,0:0:0:0:
112,336,170136,2,0,P|32:224|112:128,1,280,2|0,0:0|0:0,0:0:0:0:
272,64,171059,2,0,P|336:144|256:80,1,280,2|0,0:0|0:0,0:0:0:0:
299,108,171982,1,8,0:0:0:0:
432,112,172213,1,0,0:0:0:0:
160,112,207059,6,0,P|240:96|336:128,1,160
400,192,207751,1,0,0:0:0:0:
288,192,207982,1,0,0:0:0:0:
288,80,208213,1,0,0:0:0:0:
400,80,208443,1,0,0:0:0:0:
496,80,208674,1,0,0:0:0:0:
496,80,208905,2,0,P|496:128|480:176,1,80
