osu file format v14

[General]
AudioFilename: audio.mp3
AudioLeadIn: 0
PreviewTime: 74888
Countdown: 0
SampleSet: Soft
StackLeniency: 0.7
Mode: 0
LetterboxInBreaks: 0
WidescreenStoryboard: 1

[Editor]
Bookmarks: -118,58740,67388,74888,89888,104888,119888,127388,137231,142388,149888,157388,166763
DistanceSpacing: 1.8
BeatDivisor: 3
GridSize: 16
TimelineZoom: 1.3

[Metadata]
Title:Mythic set ~ Heart-Stirring Urban Legends
TitleUnicode:Mythic set 〜 心揺さぶる都市伝説
Artist:Rin
ArtistUnicode:凛
Creator:yaspo
Version:Insane
Source:東方深秘録 ~ Urban Legend in Limbo.
Tags:touhou shinpiroku th14.5 心揺さぶる都市伝説 東方深秘録 sdafsf mithew
BeatmapID:1429978
BeatmapSetID:676064

[Difficulty]
HPDrainRate:6
CircleSize:4
OverallDifficulty:6
ApproachRate:8
SliderMultiplier:2
SliderTickRate:1

[Events]
//Background and Video events
0,0,"Toho Reimu scaled.jpg",0,0
//Break Periods
//Storyboard Layer 0 (Background)
//Storyboard Layer 1 (Fail)
//Storyboard Layer 2 (Pass)
//Storyboard Layer 3 (Foreground)
//Storyboard Sound Samples

[TimingPoints]
58740,720.720720720721,3,2,1,30,1,0
67388,468.75,4,2,1,60,1,0
67388,-133.333333333333,4,2,1,60,0,0
74888,-133.333333333333,4,2,2,70,0,0
89888,-100,4,2,2,80,0,0
104888,-133.333333333333,4,2,2,50,0,0
117075,-133.333333333333,4,2,2,55,0,0
118013,-133.333333333333,4,2,2,60,0,0
118950,-133.333333333333,4,2,1,65,0,0
118979,-133.333333333333,4,2,2,65,0,0
119888,-133.333333333333,4,2,2,50,0,0
121763,-133.333333333333,4,2,2,50,0,0
123638,-133.333333333333,4,2,1,50,0,0
123667,-133.333333333333,4,2,2,50,0,0
125513,-133.333333333333,4,2,2,50,0,0
126450,-133.333333333333,4,2,2,60,0,0
126763,-133.333333333333,4,2,2,60,0,0
127075,-133.333333333333,4,2,2,60,0,0
127388,-100,4,2,2,80,0,1
141294,-133.333333333333,4,2,2,80,0,0
141450,-133.333333333333,4,2,2,70,0,0
142075,-133.333333333333,4,2,2,50,0,0
142388,-133.333333333333,4,2,2,50,0,0
148013,-100,4,2,2,80,0,0
149888,-83.3333333333333,4,2,2,80,0,1
156919,-133.333333333333,4,2,2,80,0,0
157388,-133.333333333333,4,2,1,60,0,0
162700,-133.333333333333,4,2,1,60,0,0
166606,-133.333333333333,4,2,1,60,0,0
166763,-133.333333333333,4,2,1,5,0,0
166919,-133.333333333333,4,2,1,60,0,0
170513,695.652173913044,3,2,2,100,1,0

[Colours]
Combo1 : 116,100,207
Combo2 : 227,104,150
Combo3 : 189,51,85
Combo4 : 200,184,255

[HitObjects]
0,256,58740,5,2,0:0:0:0:
10,272,59100,2,0,L|90:272,1,50,2|0,0:0|0:0,0:0:0:0:
106,207,59460,2,0,L|186:207,1,50,2|0,0:0|0:0,0:0:0:0:
208,267,59821,2,0,L|240:322,1,50,2|0,0:0|0:0,0:0:0:0:
283,371,60181,2,0,L|347:371,1,50,2|0,0:0|0:0,0:0:0:0:
412,367,60541,1,2,0:0:0:0:
452,297,60721,1,2,0:0:0:0:
492,227,60902,21,2,0:0:0:0:
482,212,61262,2,0,L|402:212,1,50,2|0,0:0|0:0,0:0:0:0:
386,147,61622,2,0,L|306:147,1,50,2|0,0:0|0:0,0:0:0:0:
284,207,61983,2,0,L|252:262,1,50,2|0,0:0|0:0,0:0:0:0:
209,311,62343,2,0,L|145:311,1,50,2|0,0:0|0:0,0:0:0:0:
80,307,62703,1,2,0:0:0:0:
40,237,62883,1,2,0:0:0:0:
0,167,63064,21,2,0:0:0:0:
7,153,63424,2,0,L|87:153,1,50,2|0,0:0|0:0,0:0:0:0:
103,88,63784,2,0,L|183:88,1,50,2|0,0:0|0:0,0:0:0:0:
205,148,64145,2,0,L|237:203,1,50,2|0,0:0|0:0,0:0:0:0:
280,252,64505,2,0,L|344:252,1,50,2|0,0:0|0:0,0:0:0:0:
409,248,64865,1,2,0:0:0:0:
449,178,65045,1,2,0:0:0:0:
489,108,65226,21,2,0:0:0:0:
409,109,65406,1,2,0:0:0:0:
256,59,65767,1,2,0:0:0:0:
257,218,66127,1,2,0:0:0:0:
257,218,66307,1,2,0:0:0:0:
257,218,66487,1,2,0:0:0:0:
108,157,66848,1,2,0:0:0:0:
16,287,67208,1,2,0:0:0:0:
14,74,67388,37,12,3:0:0:0:
104,247,67856,1,2,3:2:0:0:
111,262,68169,1,2,3:2:0:0:
183,129,68325,2,0,L|260:149,1,50.0000019073487,2|0,3:2|2:0,3:0:0:0:
334,219,68638,2,0,L|411:199,1,50.0000019073487,2|0,3:2|2:0,3:0:0:0:
459,184,68950,1,10,3:3:0:0:
492,111,69106,1,10,3:3:0:0:
492,257,69263,21,12,3:0:0:0:
390,80,69731,1,2,3:2:0:0:
383,65,70044,1,2,3:2:0:0:
231,141,70200,2,0,L|292:157,2,50.0000019073487,2|0|2,3:2|3:0|3:2,0:0:0:0:
132,92,70669,2,0,L|193:76,2,50.0000019073487,2|0|8,3:2|3:0|3:0,0:0:0:0:
0,133,71138,21,12,3:0:0:0:
77,322,71606,1,2,3:2:0:0:
84,337,71919,1,2,3:2:0:0:
187,204,72075,2,0,L|264:224,1,50.0000019073487,2|0,3:2|0:0,3:0:0:0:
338,294,72388,2,0,L|415:274,1,50.0000019073487,2|0,3:2|0:0,3:0:0:0:
475,175,72700,2,0,L|473:96,1,50.0000019073487,2|10,3:2|3:3,0:0:0:0:
474,262,73013,21,8,3:0:0:0:
359,167,73169,1,2,3:2:0:0:
352,152,73482,1,2,3:0:0:0:
345,137,73794,1,2,3:0:0:0:
338,294,73950,1,10,3:3:0:0:
264,279,74106,2,0,L|187:259,1,50.0000019073487,2|0,3:3|3:0,0:0:0:0:
106,331,74419,2,0,L|29:311,1,50.0000019073487,2|0,3:2|3:0,0:0:0:0:
31,312,74653,1,0,3:0:0:0:
31,312,74731,1,0,3:0:0:0:
32,184,74888,22,0,P|74:203|168:185,1,100.000003814697,4|0,1:0|0:0,0:0:0:0:
233,170,75356,2,0,P|253:191|290:209,1,50.0000019073487,10|2,2:3|0:0,0:0:0:0:
362,217,75669,1,10,2:3:0:0:
454,108,75825,22,0,P|412:126|317:107,1,100.000003814697,6|0,2:3|0:0,0:0:0:0:
279,94,76294,1,8,2:3:0:0:
162,131,76450,2,0,P|133:124|99:100,1,50.0000019073487,2|10,0:0|0:3,0:0:0:0:
0,58,76763,22,0,P|42:39|136:57,1,100.000003814697,6|0,3:0|0:0,0:0:0:0:
171,53,77231,1,10,2:3:0:0:
178,35,77544,1,2,0:0:0:0:
243,172,77700,2,0,P|290:177|380:172,1,100.000003814697,10|8,2:3|0:3,0:0:0:0:
494,174,78325,1,8,0:3:0:0:
485,190,78638,22,0,P|441:205|388:286,1,100.000003814697,6|0,2:3|0:0,0:0:0:0:
284,325,79106,2,0,P|259:323|235:316,1,50.0000019073487,10|2,2:3|0:0,0:0:0:0:
161,269,79419,1,10,2:3:0:0:
32,268,79575,22,0,P|58:230|149:199,1,100.000003814697,6|0,2:3|0:0,0:0:0:0:
254,237,80044,2,0,P|278:235|302:228,1,50.0000019073487,10|2,2:3|0:0,0:0:0:0:
361,158,80356,1,10,2:3:0:0:
485,190,80513,22,0,P|469:146|388:93,1,100.000003814697,6|0,2:3|0:0,0:0:0:0:
293,101,80981,2,0,L|309:39,2,50.0000019073487,10|0|10,2:3|2:3|2:3,0:0:0:0:
254,237,81450,2,0,P|199:243|117:237,1,100.000003814697,10|10,2:3|2:3,0:0:0:0:
0,237,82075,1,8,0:3:0:0:
9,217,82388,22,0,P|43:187|139:180,1,100.000003814697,6|0,2:3|0:0,0:0:0:0:
212,209,82856,2,0,P|230:224|252:236,1,50.0000019073487,10|2,2:3|0:0,0:0:0:0:
343,250,83169,1,10,2:3:0:0:
436,132,83325,22,0,L|358:153,1,50.0000019073487,6|2,2:3|0:3,0:0:0:0:
305,172,83638,1,2,0:3:0:0:
301,79,83794,38,0,L|223:100,1,50.0000019073487,10|2,0:3|0:3,0:0:0:0:
170,119,84107,1,10,2:3:0:0:
36,128,84263,38,0,P|61:90|151:58,1,100.000003814697,6|0,2:3|0:0,0:0:0:0:
192,38,84731,1,10,2:3:0:0:
199,19,85044,1,2,2:3:0:0:
237,173,85200,2,0,P|260:176|285:176,1,50.0000019073487,10|2,2:3|2:3,0:0:0:0:
357,142,85513,1,10,2:3:0:0:
387,65,85669,1,2,3:2:0:0:
435,130,85825,2,0,P|448:149|466:166,1,50.0000019073487,8|0,2:3|2:3,0:0:0:0:
512,281,86138,22,0,P|466:271|379:315,1,100.000003814697,6|0,0:3|0:0,0:0:0:0:
346,331,86606,1,10,2:3:0:0:
336,312,86919,1,10,2:3:0:0:
222,362,87075,2,0,P|176:371|89:327,1,100.000003814697,10|10,0:3|0:3,0:0:0:0:
0,246,87700,1,10,0:3:0:0:
14,259,88013,21,6,0:3:0:0:
151,214,88481,1,6,0:3:0:0:
222,88,88950,38,0,L|270:100,1,50.0000019073487,10|10,0:3|0:3,0:0:0:0:
354,123,89263,1,2,0:0:0:0:
281,224,89419,6,0,L|329:212,1,50.0000019073487,2|10,1:3|1:3,0:0:0:0:
413,189,89732,1,2,1:3:0:0:
478,329,89888,22,0,P|409:358|338:348,1,133.333333333333,4|0,1:0|0:0,0:0:0:0:
282,307,90356,1,10,2:3:0:0:
210,353,90513,1,2,2:3:0:0:
131,304,90669,1,10,2:3:0:0:
12,275,90825,22,0,P|71:229|142:220,1,133.333333333333,6|0,2:3|0:0,0:0:0:0:
207,263,91294,1,10,2:3:0:0:
312,184,91450,2,0,P|342:178|385:182,1,66.6666666666667,2|10,2:3|2:3,0:0:0:0:
477,306,91763,22,0,P|402:296|346:252,1,133.333333333333,6|0,2:3|0:0,0:0:0:0:
312,184,92231,1,10,0:3:0:0:
309,202,92544,1,2,0:0:0:0:
348,58,92700,2,0,P|308:56|252:58,1,66.6666666666667,6|0,2:3|0:0,0:0:0:0:
205,58,93013,2,0,P|168:61|125:58,1,66.6666666666667,8|0,0:3|0:0,0:0:0:0:
52,58,93325,1,8,0:3:0:0:
46,75,93638,22,0,P|86:137|150:170,1,133.333333333333,6|0,0:3|0:0,0:0:0:0:
227,151,94106,1,10,0:3:0:0:
312,184,94263,1,2,0:3:0:0:
389,149,94419,1,10,0:3:0:0:
512,201,94575,22,0,P|466:260|400:287,1,133.333333333333,6|0,0:3|0:0,0:0:0:0:
312,184,95044,2,0,P|287:165|246:151,1,66.6666666666667,10|2,0:3|0:3,0:0:0:0:
136,166,95356,1,10,0:3:0:0:
0,263,95513,22,0,P|10:188|53:132,1,133.333333333333,6|0,0:3|0:0,0:0:0:0:
158,83,95981,2,0,L|150:5,2,66.6666666666667,10|8|10,0:3|0:3|0:3,0:0:0:0:
176,235,96450,2,0,P|213:233|272:235,1,66.6666666666667,10|0,0:3|0:3,0:0:0:0:
319,235,96763,2,0,P|357:237|399:235,1,66.6666666666667,10|2,0:3|0:3,0:0:0:0:
472,235,97075,1,8,0:3:0:0:
479,253,97388,22,0,P|423:303|353:318,1,133.333333333333,6|0,0:3|0:0,0:0:0:0:
242,235,97856,2,0,P|211:231|169:239,1,66.6666666666667,10|2,0:3|0:3,0:0:0:0:
100,286,98169,1,10,0:3:0:0:
56,191,98325,21,6,0:3:0:0:
133,171,98481,1,2,0:3:0:0:
210,150,98638,1,2,0:3:0:0:
287,170,98794,37,10,0:3:0:0:
364,150,98950,1,2,0:3:0:0:
441,129,99107,1,10,0:3:0:0:
508,36,99263,38,0,P|433:39|373:78,1,133.333333333333,6|0,0:3|0:0,0:0:0:0:
358,166,99731,1,10,0:3:0:0:
364,150,100044,1,2,0:0:0:0:
393,285,100200,2,0,P|359:288|297:285,1,66.6666666666667,6|0,2:3|0:0,0:0:0:0:
242,235,100513,1,10,0:3:0:0:
159,285,100669,1,2,3:3:0:0:
76,235,100825,2,0,P|40:232|-4:235,1,66.6666666666667,10|0,0:3|0:0,3:3:0:0:
0,147,101138,22,0,P|40:84|104:51,1,133.333333333333,6|0,0:3|0:0,0:0:0:0:
160,194,101606,1,10,0:3:0:0:
164,177,101919,1,8,2:3:0:0:
243,329,102075,2,0,P|278:332|323:329,1,66.6666666666667,6|0,0:3|0:0,0:0:0:0:
361,251,102388,2,0,P|396:244|438:230,1,66.6666666666667,2|8,0:3|0:3,0:0:0:0:
453,147,102700,2,0,P|484:134|522:107,1,66.6666666666667,2|8,0:3|0:3,0:0:0:0:
439,47,103013,21,6,2:3:0:0:
276,255,103481,1,6,2:3:0:0:
352,149,103950,37,6,2:3:0:0:
275,129,104106,1,2,2:3:0:0:
198,108,104263,1,10,2:3:0:0:
172,187,104419,5,2,1:3:0:0:
114,130,104575,1,10,1:3:0:0:
58,73,104732,1,2,1:3:0:0:
23,205,104888,38,0,P|54:229|150:252,1,100.000003814697,6|0,2:2|0:0,0:0:0:0:
196,273,105356,2,0,P|189:303|173:329,2,50.0000019073487,0|0|0,3:0|3:0|3:0,0:0:0:0:
162,171,105825,1,8,0:3:0:0:
172,187,106138,2,0,P|200:183|240:193,1,50.0000019073487,2|0,0:3|0:0,0:0:0:0:
313,253,106450,2,0,P|337:255|362:252,1,50.0000019073487,2|0,0:3|0:0,0:0:0:0:
427,129,106763,22,0,P|386:158|339:174,1,100.000003814697,6|0,2:2|0:0,0:0:0:0:
275,115,107231,2,0,P|228:96|178:93,1,100.000003814697,2|0,3:0|3:0,0:3:0:0:
172,187,107700,2,0,P|122:183|75:165,1,100.000003814697,6|0,2:2|3:0,0:0:0:0:
13,120,108169,1,0,3:0:0:0:
32,313,108638,22,0,P|72:283|119:267,1,100.000003814697,6|0,2:2|0:0,0:0:0:0:
199,227,109106,2,0,P|184:199|162:178,2,50.0000019073487,0|0|0,3:3|3:3|3:3,0:0:0:0:
193,311,109575,1,8,0:3:0:0:
207,325,109888,2,0,P|235:328|275:318,1,50.0000019073487,2|0,0:0|0:0,0:0:0:0:
339,258,110200,2,0,P|367:255|407:265,1,50.0000019073487,2|0,0:0|0:0,0:0:0:0:
459,174,110513,22,0,P|428:134|386:107,1,100.000003814697,6|0,2:2|0:0,0:0:0:0:
308,83,110981,1,2,0:0:0:0:
313,64,111294,1,2,0:0:0:0:
245,195,111450,2,0,P|195:191|149:173,1,100.000003814697,6|8,2:2|0:3,0:0:0:0:
74,136,111919,1,8,0:3:0:0:
4,182,112075,1,4,0:3:0:0:
14,204,112388,22,0,P|62:216|104:242,1,100.000003814697,6|0,2:2|0:0,0:0:0:0:
125,326,112856,2,0,P|99:345|70:354,2,50.0000019073487,0|0|0,3:3|3:3|3:3,0:0:0:0:
185,263,113325,1,8,0:3:0:0:
202,280,113638,2,0,P|227:268|257:239,1,50.0000019073487,2|0,0:0|0:0,0:0:0:0:
364,227,113950,2,0,P|379:204|391:163,1,50.0000019073487,2|0,0:0|0:0,0:0:0:0:
459,54,114263,22,0,P|418:84|371:99,1,100.000003814697,6|0,2:2|0:0,0:0:0:0:
284,69,114731,1,2,0:0:0:0:
291,50,115044,1,2,0:0:0:0:
212,186,115200,2,0,P|167:163|118:156,1,100.000003814697,6|0,2:2|3:3,0:0:0:0:
37,173,115669,1,0,3:3:0:0:
48,303,116138,22,0,P|88:272|135:257,1,100.000003814697,6|0,0:2|0:0,0:0:0:0:
227,232,116606,2,0,P|220:202|204:176,2,50.0000019073487,0|0|0,3:3|3:3|3:3,0:0:0:0:
199,317,117075,1,10,0:3:0:0:
209,332,117388,2,0,P|236:334|277:323,1,50.0000019073487,2|0,0:0|0:0,0:0:0:0:
348,284,117700,2,0,P|375:286|416:275,1,50.0000019073487,2|0,0:0|0:0,0:0:0:0:
512,199,118013,21,10,0:3:0:0:
504,216,118325,2,0,P|477:218|436:207,1,50.0000019073487,2|0,0:0|0:0,0:0:0:0:
365,168,118637,2,0,P|338:170|297:159,1,50.0000019073487,2|0,0:0|0:0,0:0:0:0:
185,91,118950,21,14,0:3:0:0:
193,107,119263,2,0,P|220:109|261:98,1,50.0000019073487,10|8,0:3|0:3,0:0:0:0:
332,59,119575,2,0,P|359:61|400:50,1,50.0000019073487,10|0,0:3|0:0,0:0:0:0:
507,197,119888,38,0,P|442:168|358:168,1,150.000005722046,4|10,1:1|0:3,0:0:0:0:
221,229,120669,1,0,3:0:0:0:
172,298,120825,1,10,0:3:0:0:
150,297,121138,1,8,0:3:0:0:
130,297,121450,1,8,0:3:0:0:
113,298,121763,22,0,P|145:234|213:183,1,150.000005722046,6|10,0:3|0:3,0:0:0:0:
343,190,122544,1,0,3:0:0:0:
388,259,122700,1,10,0:3:0:0:
410,258,123013,1,8,0:3:0:0:
430,258,123325,1,8,0:3:0:0:
449,258,123638,22,0,P|452:187|419:109,1,150.000005722046,14|10,0:3|0:3,0:0:0:0:
284,119,124419,1,0,3:0:0:0:
221,62,124575,1,10,0:3:0:0:
199,63,124888,1,8,0:3:0:0:
179,63,125200,1,8,0:3:0:0:
159,64,125513,22,0,P|117:84|168:103,1,100.000003814697,6|2,0:3|0:3,0:0:0:0:
200,180,125981,2,0,P|200:232|239:212,1,100.000003814697,6|2,0:3|0:3,0:0:0:0:
312,186,126450,38,0,P|336:182|361:184,1,50.0000019073487,10|0,0:3|0:0,0:0:0:0:
437,213,126763,1,2,3:3:0:0:
475,293,126919,2,0,P|472:317|463:341,2,50.0000019073487,2|2|0,3:0|0:0|0:0,0:0:0:0:
489,128,127388,38,0,P|443:76|342:56,1,133.333333333333,4|0,1:0|0:0,0:0:0:0:
312,186,127856,2,0,P|278:191|236:175,1,66.6666666666667,10|0,0:3|0:0,0:0:0:0:
171,123,128169,1,10,0:3:0:0:
31,219,128325,22,0,P|76:270|177:290,1,133.333333333333,6|0,0:3|0:0,0:0:0:0:
220,263,128794,1,10,0:3:0:0:
335,348,128950,2,0,P|367:339|392:318,1,66.6666666666667,2|10,0:0|0:3,0:0:0:0:
452,213,129263,22,0,P|385:226|317:303,1,133.333333333333,6|0,0:3|0:0,0:0:0:0:
260,357,129731,2,0,P|226:357|196:343,1,66.6666666666667,10|2,0:3|0:3,0:0:0:0:
136,291,130044,1,10,0:3:0:0:
11,209,130200,22,0,P|44:221|103:233,1,66.6666666666667,10|0,0:3|0:0,0:0:0:0:
198,227,130513,2,0,P|235:214|275:206,1,66.6666666666667,10|0,0:3|0:0,0:0:0:0:
387,195,130825,2,0,P|420:207|464:215,1,66.6666666666667,10|0,0:3|0:0,0:0:0:0:
509,73,131138,22,0,P|452:110|349:103,1,133.333333333333,6|0,0:3|0:0,0:0:0:0:
335,41,131606,2,0,P|267:43|186:108,1,133.333333333333,6|0,0:3|0:0,0:0:0:0:
213,164,132075,2,0,P|155:196|89:198,1,133.333333333333,6|0,0:3|0:0,0:0:0:0:
54,123,132544,1,10,0:3:0:0:
54,123,132622,1,2,0:0:0:0:
54,123,132700,1,2,0:0:0:0:
5,189,132856,1,10,0:3:0:0:
10,34,133013,22,0,P|76:18|170:59,1,133.333333333333,6|0,2:2|0:0,0:0:0:0:
197,111,133481,1,6,0:0:0:0:
102,266,133950,1,6,0:0:0:0:
259,190,134263,37,8,0:3:0:0:
319,267,134419,1,6,0:0:0:0:
418,190,134575,1,8,0:3:0:0:
478,267,134731,1,6,0:0:0:0:
384,341,134888,38,0,P|317:357|223:316,1,133.333333333333,4|0,1:0|0:0,0:3:0:0:
182,202,135356,2,0,P|151:188|119:188,1,66.6666666666667,10|0,0:3|0:0,0:0:0:0:
28,234,135669,1,10,0:3:0:0:
35,72,135825,22,0,P|92:104|158:105,1,133.333333333333,6|0,0:3|0:0,0:3:0:0:
241,74,136294,1,10,0:3:0:0:
315,188,136450,2,0,P|348:184|376:168,1,66.6666666666667,2|0,0:0|0:0,0:0:0:0:
497,220,136763,22,0,P|478:156|433:109,1,133.333333333333,6|0,0:3|0:0,0:3:0:0:
325,100,137231,1,10,0:3:0:0:
241,150,137388,1,2,0:0:0:0:
158,105,137544,1,2,0:0:0:0:
41,209,137700,22,0,P|74:207|153:209,1,66.6666666666667,10|0,0:3|0:0,0:0:0:0:
208,246,138013,2,0,P|243:248|304:246,1,66.6666666666667,10|0,0:3|0:0,0:0:0:0:
374,209,138325,2,0,P|407:207|454:209,1,66.6666666666667,10|0,0:3|0:0,0:0:0:0:
497,39,138638,22,0,P|463:95|406:129,1,133.333333333333,6|0,0:3|0:0,0:3:0:0:
325,100,139106,1,10,0:3:0:0:
318,120,139419,1,2,0:0:0:0:
212,39,139575,2,0,P|146:39|88:72,1,133.333333333333,6|0,0:3|0:0,0:3:0:0:
16,130,140044,1,10,0:3:0:0:
9,110,140357,1,2,0:0:0:0:
55,261,140513,22,0,P|117:267|142:186,1,133.333333333333,6|0,0:0|0:0,0:0:0:0:
157,125,140981,2,0,P|188:70|251:75,1,133.333333333333,6|0,0:0|0:0,0:0:0:0:
296,149,141450,2,0,P|340:193|399:172,1,100.000003814697,6|2,0:2|0:0,0:0:0:0:
435,133,141919,2,0,P|483:136|512:175,1,100.000003814697,6|0,0:0|0:0,0:0:0:0:
512,322,142388,6,0,P|436:291|341:267,1,150.000005722046,4|2,1:0|3:0,0:0:0:0:
239,269,143169,1,2,2:0:0:0:
206,344,143325,2,0,P|155:336|110:314,1,100.000003814697,2|0,0:0|0:0,0:3:0:0:
99,235,143794,1,0,3:0:0:0:
35,286,143950,2,0,P|13:268|-8:232,1,50.0000019073487,2|0,0:0|0:0,0:0:0:0:
29,141,144263,22,0,P|77:122|127:118,1,100.000003814697,2|0,0:0|0:0,0:3:0:0:
220,116,144731,2,0,P|215:88|195:52,2,50.0000019073487,2|2|2,3:3|0:3|0:3,0:0:0:0:
254,206,145200,2,0,P|302:224|352:228,1,100.000003814697,2|2,0:0|0:0,0:3:0:0:
476,215,145825,1,2,3:0:0:0:
483,200,146138,22,0,P|431:135|362:67,1,150.000005722046,2|2,0:0|3:3,0:0:0:0:
255,83,146919,1,2,0:0:0:0:
217,159,147075,2,0,P|169:177|119:181,1,100.000003814697,2|0,0:0|0:0,0:3:0:0:
43,158,147544,2,0,L|50:121,2,25.0000009536744,2|2|2,3:0|0:0|0:0,0:0:0:0:
15,233,147856,1,2,3:0:0:0:
12,331,148013,22,0,B|104:295|104:295|222:338,1,200,2|10,3:0|2:3,0:0:0:0:
379,290,148950,5,8,2:3:0:0:
379,290,149106,1,8,2:3:0:0:
458,288,149263,1,12,1:3:0:0:
425,362,149419,1,8,2:3:0:0:
425,362,149575,1,8,2:3:0:0:
505,357,149731,1,8,2:3:0:0:
506,220,149888,22,0,P|471:163|389:119,1,159.999995117188,4|0,1:0|0:0,0:3:0:0:
289,248,150356,2,0,P|255:253|212:238,1,79.9999975585938,10|0,0:3|0:0,0:0:0:0:
136,180,150669,1,10,0:3:0:0:
0,160,150825,22,0,P|48:114|139:92,1,159.999995117188,6|0,0:3|0:0,0:3:0:0:
222,102,151294,1,8,0:3:0:0:
289,248,151450,2,0,P|323:244|360:218,1,79.9999975585938,2|0,0:0|0:0,0:0:0:0:
473,156,151763,22,0,P|414:124|321:127,1,159.999995117188,6|0,0:3|0:0,0:3:0:0:
211,197,152231,1,10,0:3:0:0:
126,232,152388,1,2,0:3:0:0:
40,193,152544,1,2,0:3:0:0:
0,316,152700,22,0,L|96:316,1,79.9999975585938,10|0,0:3|0:0,0:0:0:0:
166,339,153013,2,0,L|246:339,1,79.9999975585938,10|0,0:3|0:0,0:0:0:0:
332,358,153325,2,0,L|412:358,1,79.9999975585938,10|0,0:3|0:0,0:0:0:0:
489,174,153638,22,0,P|454:231|372:275,1,159.999995117188,6|0,0:3|0:0,0:3:0:0:
239,232,154106,1,10,0:3:0:0:
244,252,154419,1,2,0:0:0:0:
60,148,154575,22,0,P|91:124|130:118,1,79.9999975585938,10|0,0:3|0:0,0:0:0:0:
213,157,154888,1,2,0:0:0:0:
297,174,155044,1,10,0:3:0:0:
385,150,155200,2,0,P|421:134|445:102,1,79.9999975585938,2|8,0:0|0:3,0:0:0:0:
468,22,155513,21,10,0:3:0:0:
391,42,155669,1,2,0:3:0:0:
314,63,155826,1,2,0:3:0:0:
334,139,155981,37,10,0:3:0:0:
257,119,156137,1,2,0:3:0:0:
180,98,156294,1,2,0:3:0:0:
202,20,156450,5,10,0:3:0:0:
125,40,156606,1,2,0:3:0:0:
48,61,156763,1,2,0:3:0:0:
90,173,156919,37,6,0:2:0:0:
14,310,157388,37,12,3:0:0:0:
104,137,157856,1,2,3:0:0:0:
111,122,158169,1,2,3:0:0:0:
183,255,158325,2,0,L|260:235,1,50.0000019073487,2|0,3:0|3:0,3:0:0:0:
334,165,158638,2,0,L|411:185,1,50.0000019073487,2|0,3:0|3:0,3:0:0:0:
459,200,158950,1,8,3:3:0:0:
492,273,159106,1,8,3:3:0:0:
492,127,159263,21,12,3:3:0:0:
390,304,159731,1,2,3:0:0:0:
383,319,160044,1,2,3:0:0:0:
231,243,160200,2,0,L|292:227,2,50.0000019073487,2|0|2,3:0|3:0|3:0,0:0:0:0:
132,292,160669,2,0,L|193:308,2,50.0000019073487,2|0|8,3:0|3:0|3:0,0:0:0:0:
0,251,161138,21,12,3:0:0:0:
77,62,161606,1,2,3:0:0:0:
84,47,161919,1,2,3:0:0:0:
187,180,162075,2,0,L|264:160,1,50.0000019073487,2|0,3:0|0:0,3:0:0:0:
338,90,162388,2,0,L|415:110,1,50.0000019073487,2|0,3:0|0:0,3:0:0:0:
475,209,162700,2,0,L|473:288,1,50.0000019073487,2|2,3:2|3:2,0:0:0:0:
474,122,163013,21,8,3:0:0:0:
359,217,163169,1,2,3:2:0:0:
352,232,163482,1,2,3:0:0:0:
345,247,163794,1,2,3:0:0:0:
338,90,163950,1,10,3:3:0:0:
264,105,164106,2,0,L|187:125,1,50.0000019073487,2|0,3:3|3:0,0:0:0:0:
106,53,164419,2,0,L|29:73,1,50.0000019073487,2|0,3:2|3:0,0:0:0:0:
31,77,164653,1,0,3:0:0:0:
31,77,164731,1,0,3:0:0:0:
75,241,164888,21,14,0:3:0:0:
220,157,165044,1,2,3:2:0:0:
213,142,165356,1,2,3:0:0:0:
206,127,165669,1,2,3:0:0:0:
222,274,165825,1,10,3:3:0:0:
296,259,165981,2,0,L|373:239,1,50.0000019073487,2|0,3:3|3:0,0:0:0:0:
435,328,166294,2,0,L|512:308,1,50.0000019073487,2|0,3:2|0:0,0:0:0:0:
512,192,166606,6,0,L|512:279,1,50.0000019073487,2|0,3:2|0:0,0:0:0:0:
