osu file format v14

[General]
AudioFilename: audio.mp3
AudioLeadIn: 0
PreviewTime: 74888
Countdown: 0
SampleSet: Soft
StackLeniency: 0.7
Mode: 0
LetterboxInBreaks: 0
WidescreenStoryboard: 1

[Editor]
Bookmarks: -118,58740,67388,74888,89888,104888,119888,127388,142388,149888,157388,166763
DistanceSpacing: 1.5
BeatDivisor: 3
GridSize: 16
TimelineZoom: 1.7

[Metadata]
Title:Mythic set ~ Heart-Stirring Urban Legends
TitleUnicode:Mythic set 〜 心揺さぶる都市伝説
Artist:Rin
ArtistUnicode:凛
Creator:yaspo
Version:Another
Source:東方深秘録 ~ Urban Legend in Limbo.
Tags:touhou shinpiroku th14.5 心揺さぶる都市伝説 東方深秘録 sdafsf mithew
BeatmapID:1429975
BeatmapSetID:676064

[Difficulty]
HPDrainRate:6
CircleSize:4.5
OverallDifficulty:7
ApproachRate:8.5
SliderMultiplier:2
SliderTickRate:1

[Events]
//Background and Video events
0,0,"Toho Reimu scaled.jpg",0,0
//Break Periods
//Storyboard Layer 0 (Background)
//Storyboard Layer 1 (Fail)
//Storyboard Layer 2 (Pass)
//Storyboard Layer 3 (Foreground)
//Storyboard Sound Samples

[TimingPoints]
58740,720.720720720721,3,2,1,30,1,0
67388,468.75,4,2,1,60,1,0
72700,-100,4,2,1,60,0,0
74888,-83.3333333333333,4,2,2,70,0,0
89888,-83.3333333333333,4,2,2,80,0,0
104888,-125,4,2,2,50,0,0
117075,-125,4,2,2,55,0,0
118013,-111.111111111111,4,2,2,60,0,0
118950,-100,4,2,1,65,0,0
118979,-100,4,2,2,65,0,0
119888,-125,4,2,2,50,0,0
121763,-100,4,2,2,50,0,0
123638,-83.3333333333333,4,2,1,50,0,0
123667,-100,4,2,2,50,0,0
125513,-71.4285714285714,4,2,2,50,0,0
126450,-100,4,2,2,60,0,0
126763,-90.9090909090909,4,2,2,60,0,0
127075,-83.3333333333333,4,2,2,60,0,0
127388,-76.9230769230769,4,2,2,80,0,1
141294,-76.9230769230769,4,2,2,80,0,0
141450,-83.3333333333333,4,2,2,70,0,0
142075,-111.111111111111,4,2,2,50,0,0
142388,-111.111111111111,4,2,2,50,0,0
148013,-76.9230769230769,4,2,2,80,0,0
149888,-76.9230769230769,4,2,2,80,0,1
156919,-100,4,2,2,80,0,0
157388,-100,4,2,1,60,0,0
162700,-100,4,2,1,60,0,0
166606,-100,4,2,1,60,0,0
166763,-100,4,2,1,5,0,0
166919,-100,4,2,1,60,0,0
170513,695.652173913044,3,2,2,100,1,0

[Colours]
Combo1 : 116,100,207
Combo2 : 227,104,150
Combo3 : 189,51,85
Combo4 : 200,184,255

[HitObjects]
47,241,58740,5,2,0:0:0:0:
56,227,59100,2,0,L|113:227,1,50,2|0,0:0|0:0,0:0:0:0:
103,305,59460,2,0,L|160:305,1,50,2|0,0:0|0:0,0:0:0:0:
187,227,59821,1,2,0:0:0:0:
234,305,60001,1,0,0:0:0:0:
287,378,60181,2,0,L|337:378,1,50,2|0,0:0|0:0,0:0:0:0:
389,304,60541,1,2,0:0:0:0:
436,226,60721,1,2,0:0:0:0:
483,148,60902,21,2,0:0:0:0:
475,133,61262,2,0,L|418:133,1,50,2|0,0:0|0:0,0:0:0:0:
428,211,61622,2,0,L|371:211,1,50,2|0,0:0|0:0,0:0:0:0:
344,133,61983,1,2,0:0:0:0:
297,211,62163,1,0,0:0:0:0:
244,284,62343,2,0,L|194:284,1,50,2|0,0:0|0:0,0:0:0:0:
142,210,62703,1,2,0:0:0:0:
95,132,62883,1,2,0:0:0:0:
48,54,63064,21,2,0:0:0:0:
58,42,63424,2,0,L|115:42,1,50,2|0,0:0|0:0,0:0:0:0:
105,120,63784,2,0,L|162:120,1,50,2|0,0:0|0:0,0:0:0:0:
189,42,64145,1,2,0:0:0:0:
236,120,64325,1,0,0:0:0:0:
289,193,64505,2,0,L|339:193,1,50,2|0,0:0|0:0,0:0:0:0:
438,41,64865,1,2,0:0:0:0:
391,119,65045,1,2,0:0:0:0:
512,193,65226,21,2,0:0:0:0:
433,196,65406,1,2,0:0:0:0:
415,196,65767,1,2,0:0:0:0:
398,196,66127,1,2,0:0:0:0:
351,274,66307,1,2,0:0:0:0:
304,352,66487,1,2,0:0:0:0:
287,352,66848,1,2,0:0:0:0:
269,352,67208,1,2,0:0:0:0:
52,108,67388,37,12,3:0:0:0:
45,313,67856,1,2,3:2:0:0:
44,328,68169,1,2,3:2:0:0:
64,120,68325,2,0,P|99:115|144:120,1,66.6666666666667,2|0,3:2|2:0,3:0:0:0:
175,234,68638,2,0,P|210:239|255:234,1,66.6666666666667,2|0,3:2|2:0,3:0:0:0:
367,115,68950,1,10,3:3:0:0:
307,186,69106,1,10,3:3:0:0:
427,44,69263,21,12,3:0:0:0:
429,302,69731,1,2,3:2:0:0:
441,314,70044,1,2,3:2:0:0:
349,115,70200,2,0,P|314:110|269:115,1,66.6666666666667,2|0,3:2|3:0,0:0:0:0:
205,123,70513,1,2,3:2:0:0:
243,238,70669,2,0,P|208:233|163:238,1,66.6666666666667,2|0,3:2|3:0,0:0:0:0:
166,236,70903,1,0,3:0:0:0:
155,239,70981,1,8,3:0:0:0:
63,40,71138,21,12,3:0:0:0:
61,311,71606,1,2,3:2:0:0:
49,323,71919,1,2,3:2:0:0:
205,123,72075,2,0,P|240:118|285:123,1,66.6666666666667,2|0,3:2|0:0,3:0:0:0:
316,237,72388,2,0,P|351:242|396:237,1,66.6666666666667,2|0,3:2|0:0,3:0:0:0:
407,160,72700,1,2,3:2:0:0:
350,86,72856,1,10,3:3:0:0:
463,225,73013,21,8,3:0:0:0:
271,120,73169,2,0,P|236:115|191:120,1,66.6666666666667,2|0,3:2|0:0,0:0:0:0:
131,147,73481,1,2,3:0:0:0:
123,136,73794,1,2,3:0:0:0:
271,311,73950,2,0,P|236:316|191:311,1,66.6666666666667,10|2,3:3|0:0,0:0:0:0:
234,215,74263,1,0,3:0:0:0:
116,257,74418,2,0,P|83:258|50:254,1,66.6666666666667,2|0,3:2|3:0,0:0:0:0:
44,252,74653,1,0,3:0:0:0:
38,250,74731,1,0,3:0:0:0:
26,74,74888,22,0,P|50:142|135:145,1,159.999995117188,4|0,1:0|0:0,0:0:0:0:
183,70,75356,2,0,P|218:75|267:71,1,79.9999975585938,10|2,2:3|0:0,0:0:0:0:
354,55,75669,1,10,2:3:0:0:
476,139,75825,22,0,P|452:207|367:210,1,159.999995117188,6|0,2:3|0:0,0:0:0:0:
284,176,76294,1,8,2:3:0:0:
193,295,76450,2,0,P|158:300|109:296,1,79.9999975585938,2|10,0:0|0:3,0:0:0:0:
35,135,76763,22,0,B|83:120|141:172|203:137,1,159.999995117188,6|0,3:0|0:0,0:0:0:0:
266,82,77231,1,10,2:3:0:0:
253,72,77544,1,2,0:0:0:0:
463,213,77700,22,0,P|418:215|366:212,1,79.9999975585938,10|0,2:3|0:0,0:0:0:0:
290,213,78013,2,0,P|247:211|194:213,1,79.9999975585938,8|0,0:3|0:0,0:0:0:0:
118,215,78325,2,0,P|76:218|22:215,1,79.9999975585938,8|0,0:3|0:0,0:0:0:0:
34,293,78638,22,0,P|58:361|143:364,1,159.999995117188,6|0,2:3|0:0,0:0:0:0:
237,302,79106,2,0,P|272:297|321:301,1,79.9999975585938,10|2,2:3|0:0,0:0:0:0:
415,365,79419,1,10,2:3:0:0:
512,235,79575,22,0,P|488:167|403:164,1,159.999995117188,6|0,2:3|0:0,0:0:0:0:
359,76,80044,2,0,P|324:81|275:77,1,79.9999975585938,10|2,2:3|0:0,0:0:0:0:
174,61,80356,1,10,2:3:0:0:
52,161,80513,22,0,B|100:176|158:124|220:159,1,159.999995117188,6|0,2:3|0:0,0:0:0:0:
349,230,80981,2,0,P|309:233|269:228,2,79.9999975585938,10|0|10,2:3|2:3|2:3,0:0:0:0:
456,326,81450,22,0,P|413:324|360:326,1,79.9999975585938,10|0,2:3|0:0,0:0:0:0:
249,332,81763,2,2,L|287:363,2,39.9999987792969,10|2|2,2:3|2:0|2:0,2:0:0:0:
142,327,82075,2,0,P|99:330|46:327,1,79.9999975585938,8|0,0:3|0:0,0:0:0:0:
43,150,82388,22,0,P|67:218|152:221,1,159.999995117188,6|0,2:3|0:0,0:0:0:0:
219,140,82856,2,0,P|254:135|303:139,1,79.9999975585938,10|2,2:3|0:0,0:0:0:0:
376,189,83169,1,10,2:3:0:0:
427,23,83325,21,6,2:3:0:0:
342,42,83481,1,2,0:3:0:0:
258,61,83638,1,2,0:3:0:0:
219,140,83794,37,10,0:3:0:0:
135,121,83951,1,2,0:3:0:0:
50,102,84107,1,10,2:3:0:0:
142,271,84263,38,0,B|190:286|248:234|310:269,1,159.999995117188,6|0,2:3|0:0,0:0:0:0:
376,312,84731,1,10,2:3:0:0:
365,325,85044,1,2,2:3:0:0:
468,191,85200,22,0,P|428:193|388:191,1,79.9999975585938,10|2,2:3|2:3,2:3:0:0:
299,149,85513,1,10,2:3:0:0:
205,149,85669,1,2,3:2:0:0:
119,193,85825,2,0,P|75:195|39:193,1,79.9999975585938,8|0,2:3|2:3,2:3:0:0:
30,107,86138,22,0,P|54:39|139:36,1,159.999995117188,6|0,0:3|0:0,0:0:0:0:
205,149,86606,2,0,P|240:154|289:150,1,79.9999975585938,10|0,2:3|0:0,0:0:0:0:
378,127,86919,1,10,2:3:0:0:
428,348,87075,22,0,P|393:353|344:349,1,79.9999975585938,10|0,0:3|0:0,0:0:0:0:
286,238,87388,2,0,P|251:233|202:237,1,79.9999975585938,10|0,0:3|0:0,0:0:0:0:
161,313,87700,2,0,P|126:318|77:314,1,79.9999975585938,10|0,0:3|0:0,0:0:0:0:
0,149,88013,22,0,B|48:134|106:186|168:151,1,159.999995117188,6|0,0:3|0:0,0:0:0:0:
209,77,88481,2,0,B|257:62|315:114|377:79,1,159.999995117188,6|0,0:3|0:0,0:0:0:0:
377,167,88950,21,10,0:3:0:0:
294,202,89106,1,10,0:3:0:0:
203,233,89263,1,2,0:0:0:0:
191,335,89419,37,2,1:3:0:0:
104,270,89575,1,10,1:3:0:0:
29,204,89732,1,2,1:3:0:0:
29,38,89888,38,0,P|53:106|136:130,1,159.999995117188,4|0,1:0|0:0,0:0:0:0:
115,45,90356,1,10,2:3:0:0:
201,82,90513,1,2,2:3:0:0:
287,45,90669,1,10,2:3:0:0:
429,120,90825,22,0,P|405:188|322:212,1,159.999995117188,6|0,2:3|0:0,0:0:0:0:
238,174,91294,1,10,2:3:0:0:
152,211,91451,1,2,2:3:0:0:
66,174,91607,1,10,2:3:0:0:
31,341,91763,22,0,B|79:326|137:378|199:343,1,159.999995117188,6|0,2:3|0:0,0:0:0:0:
271,309,92231,1,10,0:3:0:0:
257,319,92544,1,2,0:0:0:0:
461,150,92700,22,0,P|449:184|407:196,1,79.9999975585938,6|0,2:3|0:0,0:0:0:0:
312,198,93013,2,0,P|269:196|216:198,1,79.9999975585938,8|0,0:3|0:0,0:0:0:0:
136,200,93325,2,0,P|91:202|40:200,1,79.9999975585938,8|0,0:3|0:0,0:0:0:0:
16,97,93638,22,0,P|40:29|123:5,1,159.999995117188,6|0,0:3|0:0,0:0:0:0:
102,89,94106,1,10,0:3:0:0:
185,127,94263,1,2,0:3:0:0:
274,89,94419,1,10,0:3:0:0:
471,200,94575,22,0,P|447:268|364:292,1,159.999995117188,6|0,0:3|0:0,0:0:0:0:
378,376,95044,1,10,0:3:0:0:
292,339,95201,1,2,0:3:0:0:
206,376,95357,1,10,0:3:0:0:
68,187,95513,22,0,B|116:202|174:150|236:185,1,159.999995117188,6|0,0:3|0:0,0:0:0:0:
387,208,95981,2,0,P|352:213|303:209,2,79.9999975585938,10|8|10,0:3|0:3|0:3,0:3:0:0:
473,79,96450,22,0,P|432:77|393:79,1,79.9999975585938,10|0,0:3|0:3,0:3:0:0:
293,129,96763,1,10,0:3:0:0:
293,129,96841,1,2,0:3:0:0:
293,129,96919,1,2,0:3:0:0:
184,80,97075,2,0,P|141:78|104:80,1,79.9999975585938,8|0,0:3|0:3,0:3:0:0:
19,263,97388,22,0,P|43:195|126:171,1,159.999995117188,6|0,0:3|0:0,0:0:0:0:
108,257,97856,1,10,0:3:0:0:
194,220,98013,1,2,0:3:0:0:
280,257,98169,1,10,0:3:0:0:
505,172,98325,21,6,0:3:0:0:
418,175,98481,1,2,0:3:0:0:
332,178,98638,1,2,0:3:0:0:
371,101,98794,37,10,0:3:0:0:
284,104,98950,1,2,0:3:0:0:
236,29,99107,1,10,0:3:0:0:
38,112,99263,38,0,B|86:127|144:75|206:110,1,159.999995117188,6|0,0:3|0:0,0:0:0:0:
245,182,99731,1,10,0:3:0:0:
228,173,100044,1,2,0:0:0:0:
407,340,100200,22,0,P|395:306|353:294,1,79.9999975585938,6|0,2:3|0:0,0:0:0:0:
205,346,100513,1,10,0:3:0:0:
285,346,100669,1,2,3:3:0:0:
130,292,100825,2,0,P|87:290|31:294,1,79.9999975585938,10|0,0:3|0:0,0:0:0:0:
17,117,101138,22,0,P|41:185|124:209,1,159.999995117188,6|0,0:3|0:0,0:0:0:0:
204,109,101606,2,0,P|243:105|283:110,1,79.9999975585938,10|0,0:3|0:0,0:0:0:0:
383,207,101919,1,8,2:3:0:0:
455,68,102075,22,0,P|420:73|371:69,1,79.9999975585938,6|0,0:3|0:0,0:0:0:0:
125,108,102388,2,0,P|160:113|209:109,1,79.9999975585938,2|8,0:3|0:3,0:3:0:0:
427,292,102700,2,0,B|402:302|375:299|346:292,1,79.9999975585938,2|8,0:3|0:3,0:3:0:0:
47,202,103013,22,0,B|95:187|153:239|215:204,1,159.999995117188,6|0,2:3|0:0,0:0:0:0:
269,284,103481,2,0,B|317:269|375:321|437:286,1,159.999995117188,6|0,2:3|0:3,0:3:0:0:
422,111,103950,21,6,2:3:0:0:
332,156,104106,1,2,2:3:0:0:
241,198,104263,1,10,2:3:0:0:
344,170,104419,37,2,1:3:0:0:
259,103,104575,1,10,1:3:0:0:
177,39,104731,1,2,1:3:0:0:
38,241,104888,22,0,P|87:249|149:240,1,106.666666666667,6|0,2:2|0:0,0:0:0:0:
237,228,105356,2,0,P|257:245|273:266,2,53.3333333333333,0|0|0,3:0|3:0|3:0,0:0:0:0:
94,163,105825,1,8,0:3:0:0:
95,152,106138,2,0,P|121:147|147:149,1,53.3333333333333,2|0,0:3|0:0,0:0:0:0:
239,140,106450,2,0,P|265:144|291:142,1,53.3333333333333,2|0,0:3|0:0,0:0:0:0:
470,355,106763,22,0,P|421:363|359:354,1,106.666666666667,6|0,2:2|0:0,0:0:0:0:
273,266,107231,2,0,P|282:290|298:312,2,53.3333333333333,2|0|0,3:0|3:0|3:0,0:0:0:0:
157,149,107700,2,0,P|130:144|104:146,1,53.3333333333333,6|0,2:2|0:0,0:0:0:0:
30,171,108013,1,0,3:0:0:0:
30,171,108169,1,0,3:0:0:0:
81,71,108638,22,0,P|130:63|192:72,1,106.666666666667,6|0,2:2|0:0,0:0:0:0:
273,98,109106,2,0,P|294:82|310:61,2,53.3333333333333,0|0|0,3:3|3:3|3:3,0:3:0:0:
156,150,109575,1,8,0:3:0:0:
156,167,109888,2,0,P|182:163|208:165,1,53.3333333333333,2|0,0:0|0:0,0:0:0:0:
297,253,110200,2,0,P|323:257|349:255,1,53.3333333333333,2|0,0:0|0:0,0:0:0:0:
388,367,110513,22,0,P|339:375|277:366,1,106.666666666667,6|0,2:2|0:0,0:0:0:0:
210,333,110981,1,2,0:0:0:0:
203,349,111294,1,2,0:0:0:0:
258,168,111450,2,0,P|232:164|206:166,1,53.3333333333333,6|0,2:2|0:0,0:0:0:0:
170,245,111763,1,8,0:3:0:0:
116,181,111919,1,8,0:3:0:0:
65,114,112075,1,4,0:3:0:0:
67,100,112388,22,0,P|116:92|178:101,1,106.666666666667,6|0,2:2|0:0,0:0:0:0:
244,159,112856,2,0,P|265:143|281:122,2,53.3333333333333,0|0|0,3:3|3:3|3:3,3:3:0:0:
116,181,113325,1,8,0:3:0:0:
117,197,113638,2,0,P|90:199|64:195,1,53.3333333333333,2|0,0:0|0:0,0:0:0:0:
281,256,113950,2,0,P|308:251|334:254,1,53.3333333333333,2|0,0:0|0:0,0:0:0:0:
474,144,114263,22,0,P|425:152|363:143,1,106.666666666667,6|0,2:2|0:0,0:0:0:0:
287,100,114731,1,2,0:0:0:0:
300,112,115044,1,2,0:0:0:0:
189,40,115200,2,0,P|163:36|137:38,1,53.3333333333333,6|0,2:2|0:0,0:0:0:0:
58,74,115513,1,0,3:3:0:0:
58,74,115669,1,0,3:3:0:0:
6,305,116138,22,0,P|55:313|117:304,1,106.666666666667,6|0,0:2|0:0,0:0:0:0:
196,289,116606,2,0,P|217:304|233:325,2,53.3333333333333,0|0|0,3:3|3:3|3:3,3:3:0:0:
32,200,117075,6,0,P|58:204|84:202,1,53.3333333333333,10|0,0:3|0:0,0:0:0:0:
213,177,117388,2,0,P|239:181|265:179,1,53.3333333333333,2|0,0:0|0:0,0:0:0:0:
387,153,117700,2,0,P|413:157|439:155,1,53.3333333333333,2|0,0:0|0:0,0:0:0:0:
449,252,118013,22,0,P|419:256|390:254,1,59.9999981689454,10|0,0:3|0:0,0:0:0:0:
265,178,118325,2,0,P|235:173|206:175,1,59.9999981689454,2|0,0:0|0:0,0:0:0:0:
101,108,118638,2,0,P|71:103|42:105,1,59.9999981689454,2|0,0:0|0:0,0:0:0:0:
35,275,118950,22,0,P|67:279|102:278,1,66.6666666666667,14|0,0:3|0:0,0:0:0:0:
284,152,119263,1,8,0:3:0:0:
208,250,119419,1,10,0:3:0:0:
385,103,119575,2,0,P|417:98|452:99,1,66.6666666666667,10|0,0:3|0:0,0:0:0:0:
491,314,119888,22,0,P|437:316|371:313,1,106.666666666667,4|0,1:1|0:0,0:0:0:0:
294,307,120356,1,10,0:3:0:0:
303,317,120669,1,0,3:0:0:0:
125,301,120825,1,10,0:3:0:0:
120,313,121138,1,8,0:3:0:0:
114,325,121450,1,8,0:3:0:0:
109,337,121763,22,0,B|183:338|232:269,1,133.333333333333,6|0,0:3|0:0,0:0:0:0:
184,209,122231,1,10,0:3:0:0:
177,221,122544,1,0,3:0:0:0:
415,221,122700,1,10,0:3:0:0:
423,232,123013,1,8,0:3:0:0:
431,242,123325,1,8,0:3:0:0:
439,251,123638,22,0,P|353:220|328:126,1,159.999995117188,14|0,0:3|0:0,0:0:0:0:
416,149,124106,1,10,0:3:0:0:
423,160,124419,1,0,3:0:0:0:
169,160,124575,1,10,0:3:0:0:
161,171,124888,1,8,0:3:0:0:
153,181,125200,1,8,0:3:0:0:
147,191,125513,22,0,P|132:216|114:245,5,46.6666652425131,6|0|2|0|2|0,0:3|0:0|0:3|0:0|0:3|0:0,0:0:0:0:
85,141,125981,2,0,P|75:119|56:87,4,46.6666652425131,6|0|2|0|2,0:3|0:0|0:3|0:0|0:3,0:0:0:0:
159,321,126450,38,0,P|191:325|226:324,1,66.6666666666667,10|0,0:3|0:0,0:0:0:0:
305,173,126763,1,2,3:3:0:0:
342,251,126919,1,2,3:0:0:0:
349,101,127075,2,0,P|381:97|430:100,1,79.9999975585938,2|0,0:0|0:0,0:0:0:0:
504,273,127388,38,0,P|480:205|389:177,1,173.333325398763,4|0,1:0|0:0,0:0:0:0:
457,351,127856,2,0,P|425:356|366:352,1,86.6666626993817,10|0,0:3|0:0,0:0:0:0:
300,325,128169,1,10,0:3:0:0:
0,243,128325,22,0,P|24:175|115:147,1,173.333325398763,6|0,0:3|0:0,0:0:0:0:
185,183,128794,1,10,0:3:0:0:
213,323,128950,2,0,P|245:328|304:324,1,86.6666626993817,2|10,0:0|0:3,0:0:0:0:
504,80,129263,22,0,P|480:148|389:176,1,173.333325398763,6|0,0:3|0:0,0:0:0:0:
409,85,129731,1,10,0:3:0:0:
312,49,129888,1,2,0:3:0:0:
214,88,130044,1,10,0:3:0:0:
31,220,130200,22,0,P|72:222|127:220,1,86.6666626993817,10|0,0:3|0:0,0:0:0:0:
211,192,130513,2,0,P|256:194|307:192,1,86.6666626993817,10|0,0:3|0:0,0:0:0:0:
395,165,130825,2,0,P|439:167|491:165,1,86.6666626993817,10|0,0:3|0:0,0:0:0:0:
449,321,131138,22,0,B|401:306|334:352|279:319,1,173.333325398763,6|0,0:3|0:0,0:0:0:0:
33,206,131606,22,0,B|81:191|148:237|203:204,1,173.333325398763,6|0,0:3|0:0,0:0:0:0:
434,78,132075,22,0,B|386:63|319:109|264:76,1,173.333325398763,6|0,0:3|0:0,0:0:0:0:
154,128,132544,37,10,0:3:0:0:
154,128,132622,1,2,0:0:0:0:
154,128,132700,1,2,0:0:0:0:
65,288,132856,1,10,0:3:0:0:
27,41,133013,38,0,P|91:31|209:39,1,173.333325398763,6|0,2:2|0:0,0:0:0:0:
202,204,133481,2,0,P|266:214|384:206,1,173.333325398763,6|0,0:0|0:0,0:0:0:0:
443,168,133950,21,6,0:0:0:0:
454,182,134263,1,8,0:3:0:0:
379,88,134419,1,6,0:0:0:0:
379,276,134575,1,8,0:3:0:0:
300,180,134731,1,6,0:0:0:0:
69,247,134888,22,0,P|93:315|184:343,1,173.333325398763,4|0,1:0|0:0,0:0:0:0:
29,173,135356,2,0,P|61:168|120:172,1,86.6666626993817,10|0,0:3|0:0,0:0:0:0:
193,210,135669,1,10,0:3:0:0:
492,87,135825,22,0,P|468:155|377:183,1,173.333325398763,6|0,0:3|0:0,0:0:0:0:
291,158,136294,1,10,0:3:0:0:
427,308,136450,2,0,P|395:313|336:309,1,86.6666626993817,2|0,0:0|0:0,0:0:0:0:
3,246,136763,22,0,P|27:178|118:150,1,173.333325398763,6|0,0:3|0:0,0:0:0:0:
97,242,137231,1,10,0:3:0:0:
193,210,137388,1,2,0:0:0:0:
286,241,137544,1,2,0:0:0:0:
439,77,137700,22,0,P|389:75|327:77,1,86.6666626993817,10|0,0:3|0:0,0:0:0:0:
253,77,138013,2,0,P|206:79|157:77,1,86.6666626993817,10|0,0:3|0:0,0:0:0:0:
72,75,138325,2,0,P|39:109|42:183,1,86.6666626993817,10|0,0:3|0:0,0:0:0:0:
4,327,138638,22,0,B|52:312|119:358|174:325,1,173.333325398763,6|0,0:3|0:0,0:0:0:0:
75,226,139106,2,0,P|107:231|166:227,1,86.6666626993817,10|0,0:3|0:0,0:0:0:0:
240,182,139419,1,2,0:0:0:0:
480,240,139575,22,0,B|432:225|365:271|310:238,1,173.333325398763,6|0,0:3|0:0,0:0:0:0:
409,139,140043,2,0,P|377:144|318:140,1,86.6666626993817,10|0,0:3|0:0,0:0:0:0:
244,95,140356,1,2,0:0:0:0:
0,133,140513,22,0,P|64:143|182:135,1,173.333325398763,6|0,0:0|0:0,0:0:0:0:
314,40,140981,2,0,P|378:30|496:38,1,173.333325398763,6|0,0:0|0:0,0:0:0:0:
445,105,141450,22,0,P|413:102|351:108,1,79.9999975585938,6|0,0:2|0:0,0:0:0:0:
316,265,141763,1,2,0:0:0:0:
339,183,141919,1,6,0:0:0:0:
287,346,142075,2,0,P|254:343|202:348,1,59.9999981689454
23,217,142388,6,0,P|39:264|102:283,1,119.999996337891,4|0,1:0|0:0,0:0:0:0:
150,203,142856,1,2,3:0:0:0:
144,217,143169,1,2,2:0:0:0:
219,139,143325,2,0,P|268:131|338:142,1,119.999996337891,2|0,0:0|0:0,0:0:0:0:
378,216,143794,1,0,3:0:0:0:
420,288,143950,2,0,P|452:291|504:286,1,59.9999981689454,2|0,0:0|0:0,0:0:0:0:
457,149,144263,22,0,P|440:196|377:215,1,119.999996337891,2|0,0:0|0:0,0:0:0:0:
294,103,144731,2,0,P|315:118|334:146,2,59.9999981689454,2|2|2,3:3|0:3|0:3,0:3:0:0:
203,99,145200,1,2,0:0:0:0:
190,111,145512,1,2,0:0:0:0:
178,122,145825,1,2,3:0:0:0:
33,93,146138,22,0,P|49:140|112:159,1,119.999996337891,2|0,0:0|0:0,0:0:0:0:
120,72,146606,1,2,3:3:0:0:
109,84,146919,1,2,0:0:0:0:
201,243,147075,2,0,P|250:251|320:240,1,119.999996337891,2|0,0:0|0:0,0:0:0:0:
361,159,147544,2,0,L|346:129,2,29.9999990844727,2|2|2,3:0|0:0|0:0,0:0:0:0:
412,233,147856,1,2,3:0:0:0:
387,47,148013,22,0,B|298:47|298:47|250:124,1,173.333325398763,2|0,3:0|0:0,0:0:0:0:
201,243,148481,1,10,2:3:0:0:
109,51,148950,5,8,2:3:0:0:
56,122,149106,1,8,2:3:0:0:
139,130,149263,1,12,1:3:0:0:
93,54,149419,37,8,2:3:0:0:
63,136,149575,1,8,2:3:0:0:
139,119,149731,1,8,2:3:0:0:
40,307,149888,38,0,P|64:239|155:211,1,173.333325398763,4|0,1:0|0:0,0:0:0:0:
63,136,150356,2,0,P|93:125|152:119,1,86.6666626993817,10|0,0:3|0:0,0:0:0:0:
230,163,150669,1,10,0:3:0:0:
451,120,150825,22,0,P|427:188|336:216,1,173.333325398763,6|0,0:3|0:0,0:0:0:0:
252,163,151294,1,8,0:3:0:0:
502,46,151450,2,0,P|470:41|411:45,1,86.6666626993817,2|0,0:0|0:0,0:0:0:0:
96,138,151763,22,0,P|120:70|211:42,1,173.333325398763,6|0,0:3|0:0,0:0:0:0:
0,201,152231,1,10,0:3:0:0:
96,233,152388,1,2,0:3:0:0:
189,202,152544,1,2,0:3:0:0:
455,351,152700,22,0,P|411:353|359:351,1,86.6666626993817,10|0,0:3|0:0,0:0:0:0:
275,355,153013,2,0,P|230:353|179:355,1,86.6666626993817,10|0,0:3|0:0,0:0:0:0:
103,357,153325,2,0,P|67:325|64:251,1,86.6666626993817,10|0,0:3|0:0,0:0:0:0:
0,125,153638,22,0,B|48:110|115:156|170:123,1,173.333325398763,6|0,0:3|0:0,0:0:0:0:
434,120,154106,22,0,B|410:112|376:135|349:119,1,86.6666626993817,10|0,0:3|0:0,0:0:0:0:
257,120,154419,1,2,0:0:0:0:
172,296,154575,22,0,B|196:288|229:311|257:295,1,86.6666626993817,10|0,0:3|0:0,0:0:0:0:
325,239,154888,1,2,0:0:0:0:
134,114,155044,1,10,0:3:0:0:
340,247,155200,2,0,B|364:239|397:262|425:246,1,86.6666626993817,2|8,0:0|0:3,0:0:0:0:
438,98,155513,21,10,0:3:0:0:
325,116,155669,1,2,0:3:0:0:
211,135,155825,1,2,0:3:0:0:
322,135,155981,37,10,0:3:0:0:
218,118,156137,1,2,0:3:0:0:
112,99,156293,1,2,0:3:0:0:
211,105,156450,5,10,0:3:0:0:
116,113,156606,1,2,0:3:0:0:
17,122,156762,1,2,0:3:0:0:
201,199,156919,38,0,P|191:259|126:321,1,133.333333333333,6|0,0:0|0:0,0:0:0:0:
75,248,157388,37,12,3:0:0:0:
68,43,157856,1,2,3:0:0:0:
56,31,158169,1,2,3:0:0:0:
87,236,158325,2,0,P|122:241|167:236,1,66.6666666666667,2|0,3:0|3:0,3:0:0:0:
198,122,158638,2,0,P|233:117|278:122,1,66.6666666666667,2|0,3:0|3:0,3:0:0:0:
390,241,158950,1,8,3:3:0:0:
330,170,159106,1,8,3:3:0:0:
451,313,159263,21,12,3:3:0:0:
452,54,159731,1,2,3:0:0:0:
464,42,160044,1,2,3:0:0:0:
372,241,160200,2,0,P|337:246|292:241,1,66.6666666666667,2|0,3:0|3:0,0:0:0:0:
228,233,160513,1,2,3:0:0:0:
266,118,160669,2,0,P|231:123|186:118,1,66.6666666666667,2|0,3:0|3:0,0:0:0:0:
189,120,160903,1,0,3:0:0:0:
178,117,160981,1,8,3:0:0:0:
86,316,161138,21,12,3:0:0:0:
84,45,161606,1,2,3:0:0:0:
72,33,161919,1,2,3:0:0:0:
181,227,162075,2,0,P|216:232|261:227,1,66.6666666666667,2|0,3:0|0:0,3:0:0:0:
292,113,162388,2,0,P|327:108|372:113,1,66.6666666666667,2|0,3:0|0:0,3:0:0:0:
415,242,162700,22,0,P|410:277|415:322,1,66.6666666666667,2|2,3:2|3:2,0:0:0:0:
439,125,163013,1,8,3:0:0:0:
247,230,163169,2,0,P|212:235|167:230,1,66.6666666666667,2|0,3:2|0:0,0:0:0:0:
107,203,163481,1,2,3:0:0:0:
99,214,163794,1,2,3:0:0:0:
247,39,163950,2,0,P|212:34|167:39,1,66.6666666666667,10|2,3:3|0:0,0:0:0:0:
210,135,164263,1,0,3:0:0:0:
92,93,164418,2,0,P|59:92|26:96,1,66.6666666666667,2|0,3:2|3:0,0:0:0:0:
20,98,164653,1,0,3:0:0:0:
14,100,164731,1,0,3:0:0:0:
50,281,164888,21,14,0:3:0:0:
150,148,165044,2,0,P|182:143|216:145,1,66.6666666666667,2|0,3:2|0:0,0:0:0:0:
292,178,165356,1,2,3:0:0:0:
297,163,165669,1,2,3:0:0:0:
248,277,165825,2,0,P|280:282|314:280,1,66.6666666666667,10|0,3:3|0:0,0:0:0:0:
384,211,166138,1,2,0:0:0:0:
432,315,166294,2,0,P|464:319|498:317,1,66.6666666666667,2|0,3:2|0:0,0:0:0:0:
467,173,166606,38,0,P|472:205|469:239,1,66.6666666666667,2|0,3:2|0:0,0:0:0:0:
