osu file format v14

[General]
AudioFilename: audio.mp3
AudioLeadIn: 0
PreviewTime: 126450
Countdown: 0
SampleSet: Normal
StackLeniency: 0.7
Mode: 1
LetterboxInBreaks: 0
WidescreenStoryboard: 0

[Editor]
Bookmarks: 74888,89888,104888,119888,127388,142388
DistanceSpacing: 0.8
BeatDivisor: 6
GridSize: 32
TimelineZoom: 2.699999

[Metadata]
Title:Mythic set ~ Heart-Stirring Urban Legends
TitleUnicode:Mythic set 〜 心揺さぶる都市伝説
Artist:Rin
ArtistUnicode:凛
Creator:tasuke912
Version:Oni
Source:東方深秘録 ~ Urban Legend in Limbo.
Tags:kokoro yusaburu toshidensetsu touhou project shinpiroku akiyamauni osu! featured artist
BeatmapID:1954849
BeatmapSetID:935699

[Difficulty]
HPDrainRate:6
CircleSize:2
OverallDifficulty:6
ApproachRate:5
SliderMultiplier:1.61
SliderTickRate:1

[Events]
//Background and Video events
0,0,"bg.jpg",0,-140
//Break Periods
//Storyboard Layer 0 (Background)
//Storyboard Layer 1 (Fail)
//Storyboard Layer 2 (Pass)
//Storyboard Layer 3 (Foreground)
//Storyboard Sound Samples

[TimingPoints]
58740,540.540540540541,4,2,0,30,1,0
67388,468.75,4,1,0,60,1,0
127388,-100,4,1,0,60,0,1
142388,-100,4,1,0,60,0,0
149888,-100,4,1,0,60,0,1
157388,-100,4,1,0,60,0,0
170513,521.739130434783,4,1,0,70,1,0

[HitObjects]
256,192,58739,5,2,0:0:0:0:
256,192,59821,1,2,0:0:0:0:
256,192,60541,1,2,0:0:0:0:
256,192,60902,1,2,0:0:0:0:
256,192,61983,1,2,0:0:0:0:
256,192,62523,1,2,0:0:0:0:
256,192,62703,1,2,0:0:0:0:
256,192,62884,1,2,0:0:0:0:
256,192,63064,1,2,0:0:0:0:
256,192,64145,1,2,0:0:0:0:
256,192,64505,1,2,0:0:0:0:
256,192,64866,1,2,0:0:0:0:
256,192,65046,1,2,0:0:0:0:
256,192,65226,1,2,0:0:0:0:
256,192,65406,1,2,0:0:0:0:
256,192,65767,1,2,0:0:0:0:
256,192,66127,1,2,0:0:0:0:
256,192,66307,1,2,0:0:0:0:
256,192,66487,1,2,0:0:0:0:
256,192,66848,1,2,0:0:0:0:
256,192,67208,1,2,0:0:0:0:
256,192,67388,1,4,0:0:0:0:
256,192,67856,1,2,0:0:0:0:
256,192,68169,1,0,0:0:0:0:
256,192,68325,1,2,0:0:0:0:
256,192,68638,1,2,0:0:0:0:
256,192,68794,1,0,0:0:0:0:
256,192,68950,1,2,0:0:0:0:
256,192,69106,1,0,0:0:0:0:
256,192,69263,1,4,0:0:0:0:
256,192,69731,1,2,0:0:0:0:
256,192,69888,1,2,0:0:0:0:
256,192,69966,1,2,0:0:0:0:
256,192,70044,1,2,0:0:0:0:
256,192,70200,1,0,0:0:0:0:
256,192,70356,1,0,0:0:0:0:
256,192,70434,1,0,0:0:0:0:
256,192,70513,1,0,0:0:0:0:
256,192,70669,1,2,0:0:0:0:
256,192,70825,1,2,0:0:0:0:
256,192,70903,1,2,0:0:0:0:
256,192,70981,1,0,0:0:0:0:
256,192,71138,1,4,0:0:0:0:
256,192,71606,1,2,0:0:0:0:
256,192,71919,1,2,0:0:0:0:
256,192,72075,1,2,0:0:0:0:
256,192,72231,1,0,0:0:0:0:
256,192,72388,1,2,0:0:0:0:
256,192,72544,1,0,0:0:0:0:
256,192,72700,1,0,0:0:0:0:
256,192,72856,1,2,0:0:0:0:
256,192,73013,1,0,0:0:0:0:
256,192,73169,1,2,0:0:0:0:
256,192,73481,1,2,0:0:0:0:
256,192,73638,1,2,0:0:0:0:
256,192,73716,1,2,0:0:0:0:
256,192,73794,1,2,0:0:0:0:
256,192,73950,1,0,0:0:0:0:
256,192,74106,1,2,0:0:0:0:
256,192,74263,1,2,0:0:0:0:
256,192,74419,1,0,0:0:0:0:
256,192,74575,1,2,0:0:0:0:
256,192,74653,1,2,0:0:0:0:
256,192,74731,1,0,0:0:0:0:
256,192,74888,5,4,0:0:0:0:
256,192,75356,1,0,0:0:0:0:
256,192,75669,1,2,0:0:0:0:
256,192,75825,1,0,0:0:0:0:
256,192,75981,1,2,0:0:0:0:
256,192,76294,1,0,0:0:0:0:
256,192,76450,1,2,0:0:0:0:
256,192,76606,1,2,0:0:0:0:
256,192,76763,1,0,0:0:0:0:
256,192,77075,1,2,0:0:0:0:
256,192,77231,1,0,0:0:0:0:
256,192,77544,1,0,0:0:0:0:
256,192,77700,1,2,0:0:0:0:
256,192,77856,1,2,0:0:0:0:
256,192,78013,1,0,0:0:0:0:
256,192,78169,1,2,0:0:0:0:
256,192,78325,1,0,0:0:0:0:
256,192,78638,1,0,0:0:0:0:
256,192,79106,1,2,0:0:0:0:
256,192,79419,1,0,0:0:0:0:
256,192,79575,1,0,0:0:0:0:
256,192,79731,1,2,0:0:0:0:
256,192,80044,1,0,0:0:0:0:
256,192,80200,1,2,0:0:0:0:
256,192,80356,1,2,0:0:0:0:
256,192,80513,1,0,0:0:0:0:
256,192,80825,1,2,0:0:0:0:
256,192,80981,1,0,0:0:0:0:
256,192,81294,1,0,0:0:0:0:
256,192,81450,1,0,0:0:0:0:
256,192,81606,1,2,0:0:0:0:
256,192,81763,1,0,0:0:0:0:
256,192,81919,1,2,0:0:0:0:
256,192,81997,1,2,0:0:0:0:
256,192,82075,1,0,0:0:0:0:
256,192,82388,1,0,0:0:0:0:
256,192,82856,1,2,0:0:0:0:
256,192,83169,1,2,0:0:0:0:
256,192,83325,1,0,0:0:0:0:
256,192,83481,1,2,0:0:0:0:
256,192,83638,1,2,0:0:0:0:
256,192,83794,1,0,0:0:0:0:
256,192,83950,1,2,0:0:0:0:
256,192,84106,1,2,0:0:0:0:
256,192,84263,1,0,0:0:0:0:
256,192,84575,1,0,0:0:0:0:
256,192,84731,1,2,0:0:0:0:
256,192,85044,1,2,0:0:0:0:
256,192,85200,1,0,0:0:0:0:
256,192,85356,1,2,0:0:0:0:
256,192,85513,1,2,0:0:0:0:
256,192,85669,1,0,0:0:0:0:
256,192,85825,1,2,0:0:0:0:
256,192,85981,1,2,0:0:0:0:
256,192,86059,1,2,0:0:0:0:
256,192,86138,1,0,0:0:0:0:
256,192,86450,1,0,0:0:0:0:
256,192,86606,1,2,0:0:0:0:
256,192,86919,1,2,0:0:0:0:
256,192,87075,1,0,0:0:0:0:
256,192,87231,1,2,0:0:0:0:
256,192,87388,1,0,0:0:0:0:
256,192,87544,1,0,0:0:0:0:
256,192,87700,1,2,0:0:0:0:
256,192,87856,1,2,0:0:0:0:
256,192,88013,1,0,0:0:0:0:
256,192,88325,1,0,0:0:0:0:
256,192,88481,1,2,0:0:0:0:
256,192,88794,1,2,0:0:0:0:
256,192,88872,1,2,0:0:0:0:
256,192,88950,1,0,0:0:0:0:
256,192,89106,1,0,0:0:0:0:
256,192,89263,1,2,0:0:0:0:
256,192,89419,1,0,0:0:0:0:
256,192,89575,1,2,0:0:0:0:
256,192,89731,1,2,0:0:0:0:
256,192,89888,1,4,0:0:0:0:
256,192,90356,1,0,0:0:0:0:
256,192,90669,1,2,0:0:0:0:
256,192,90825,1,0,0:0:0:0:
256,192,90981,1,2,0:0:0:0:
256,192,91294,1,0,0:0:0:0:
256,192,91450,1,2,0:0:0:0:
256,192,91606,1,2,0:0:0:0:
256,192,91763,1,0,0:0:0:0:
256,192,92075,1,0,0:0:0:0:
256,192,92231,1,2,0:0:0:0:
256,192,92544,1,2,0:0:0:0:
256,192,92700,1,0,0:0:0:0:
256,192,92856,1,2,0:0:0:0:
256,192,93013,1,0,0:0:0:0:
256,192,93169,1,0,0:0:0:0:
256,192,93325,1,2,0:0:0:0:
256,192,93481,1,2,0:0:0:0:
256,192,93559,1,2,0:0:0:0:
256,192,93638,1,0,0:0:0:0:
256,192,93950,1,0,0:0:0:0:
256,192,94106,1,2,0:0:0:0:
256,192,94419,1,0,0:0:0:0:
256,192,94575,1,0,0:0:0:0:
256,192,94731,1,2,0:0:0:0:
256,192,94888,1,2,0:0:0:0:
256,192,95044,1,0,0:0:0:0:
256,192,95200,1,2,0:0:0:0:
256,192,95356,1,2,0:0:0:0:
256,192,95513,1,0,0:0:0:0:
256,192,95825,1,0,0:0:0:0:
256,192,95981,1,2,0:0:0:0:
256,192,96294,1,2,0:0:0:0:
256,192,96450,1,0,0:0:0:0:
256,192,96606,1,2,0:0:0:0:
256,192,96763,1,0,0:0:0:0:
256,192,96919,1,2,0:0:0:0:
256,192,96997,1,2,0:0:0:0:
256,192,97075,1,0,0:0:0:0:
256,192,97388,1,0,0:0:0:0:
256,192,97700,1,0,0:0:0:0:
256,192,97856,1,2,0:0:0:0:
256,192,98169,1,2,0:0:0:0:
256,192,98325,1,0,0:0:0:0:
256,192,98481,1,2,0:0:0:0:
256,192,98638,1,2,0:0:0:0:
256,192,98794,1,0,0:0:0:0:
256,192,98950,1,2,0:0:0:0:
256,192,99106,1,2,0:0:0:0:
256,192,99263,1,0,0:0:0:0:
256,192,99575,1,2,0:0:0:0:
256,192,99731,1,0,0:0:0:0:
256,192,100044,1,0,0:0:0:0:
256,192,100200,1,2,0:0:0:0:
256,192,100356,1,2,0:0:0:0:
256,192,100513,1,0,0:0:0:0:
256,192,100669,1,2,0:0:0:0:
256,192,100825,1,0,0:0:0:0:
256,192,100981,1,2,0:0:0:0:
256,192,101059,1,2,0:0:0:0:
256,192,101138,1,0,0:0:0:0:
256,192,101450,1,0,0:0:0:0:
256,192,101606,1,2,0:0:0:0:
256,192,101919,1,2,0:0:0:0:
256,192,102075,1,0,0:0:0:0:
256,192,102231,1,0,0:0:0:0:
256,192,102388,1,2,0:0:0:0:
256,192,102544,1,0,0:0:0:0:
256,192,102700,1,2,0:0:0:0:
256,192,102856,1,2,0:0:0:0:
256,192,103013,1,0,0:0:0:0:
256,192,103325,1,0,0:0:0:0:
256,192,103481,1,2,0:0:0:0:
256,192,103794,1,2,0:0:0:0:
256,192,103950,1,0,0:0:0:0:
256,192,104106,1,2,0:0:0:0:
256,192,104184,1,2,0:0:0:0:
256,192,104263,1,2,0:0:0:0:
256,192,104419,1,0,0:0:0:0:
256,192,104575,1,2,0:0:0:0:
256,192,104731,1,2,0:0:0:0:
256,192,104888,5,4,0:0:0:0:
256,192,105356,1,2,0:0:0:0:
256,192,105669,1,2,0:0:0:0:
256,192,105825,1,0,0:0:0:0:
256,192,106138,1,2,0:0:0:0:
256,192,106294,1,0,0:0:0:0:
256,192,106450,1,2,0:0:0:0:
256,192,106763,1,0,0:0:0:0:
256,192,107231,1,2,0:0:0:0:
256,192,107388,1,2,0:0:0:0:
256,192,107466,1,2,0:0:0:0:
256,192,107544,1,2,0:0:0:0:
256,192,107700,1,0,0:0:0:0:
256,192,108013,1,0,0:0:0:0:
256,192,108169,1,2,0:0:0:0:
256,192,108638,1,0,0:0:0:0:
256,192,109106,1,2,0:0:0:0:
256,192,109263,1,2,0:0:0:0:
256,192,109419,1,2,0:0:0:0:
256,192,109575,1,0,0:0:0:0:
256,192,109888,1,2,0:0:0:0:
256,192,110044,1,0,0:0:0:0:
256,192,110200,1,2,0:0:0:0:
256,192,110513,1,0,0:0:0:0:
256,192,110825,1,0,0:0:0:0:
256,192,110981,1,2,0:0:0:0:
256,192,111138,1,2,0:0:0:0:
256,192,111216,1,2,0:0:0:0:
256,192,111294,1,2,0:0:0:0:
256,192,111450,1,0,0:0:0:0:
256,192,111606,1,2,0:0:0:0:
256,192,111763,1,2,0:0:0:0:
256,192,111919,1,0,0:0:0:0:
256,192,112075,1,2,0:0:0:0:
256,192,112388,1,4,0:0:0:0:
256,192,112856,1,2,0:0:0:0:
256,192,113169,1,2,0:0:0:0:
256,192,113325,1,0,0:0:0:0:
256,192,113638,1,2,0:0:0:0:
256,192,113794,1,2,0:0:0:0:
256,192,113950,1,0,0:0:0:0:
256,192,114263,1,0,0:0:0:0:
256,192,114575,1,0,0:0:0:0:
256,192,114731,1,2,0:0:0:0:
256,192,114888,1,2,0:0:0:0:
256,192,114966,1,2,0:0:0:0:
256,192,115044,1,2,0:0:0:0:
256,192,115200,1,0,0:0:0:0:
256,192,115513,1,0,0:0:0:0:
256,192,115669,1,2,0:0:0:0:
256,192,116138,1,0,0:0:0:0:
256,192,116450,1,0,0:0:0:0:
256,192,116606,1,2,0:0:0:0:
256,192,116763,1,2,0:0:0:0:
256,192,116919,1,2,0:0:0:0:
256,192,117075,1,0,0:0:0:0:
256,192,117388,1,2,0:0:0:0:
256,192,117544,1,0,0:0:0:0:
256,192,117700,1,2,0:0:0:0:
256,192,117856,1,2,0:0:0:0:
256,192,118013,1,0,0:0:0:0:
256,192,118325,1,2,0:0:0:0:
256,192,118481,1,0,0:0:0:0:
256,192,118638,1,0,0:0:0:0:
256,192,118716,1,0,0:0:0:0:
256,192,118794,1,2,0:0:0:0:
256,192,118950,1,0,0:0:0:0:
256,192,119106,1,2,0:0:0:0:
256,192,119263,1,2,0:0:0:0:
256,192,119419,1,0,0:0:0:0:
256,192,119575,1,2,0:0:0:0:
256,192,119653,1,2,0:0:0:0:
256,192,119731,1,2,0:0:0:0:
256,192,119888,5,4,0:0:0:0:
256,192,120356,1,0,0:0:0:0:
256,192,120669,1,0,0:0:0:0:
256,192,120825,1,2,0:0:0:0:
256,192,121138,1,0,0:0:0:0:
256,192,121450,1,0,0:0:0:0:
256,192,121606,1,0,0:0:0:0:
256,192,121763,1,2,0:0:0:0:
256,192,122075,1,0,0:0:0:0:
256,192,122231,1,2,0:0:0:0:
256,192,122388,1,2,0:0:0:0:
256,192,122466,1,2,0:0:0:0:
256,192,122544,1,2,0:0:0:0:
256,192,122700,1,0,0:0:0:0:
256,192,123013,1,0,0:0:0:0:
256,192,123169,1,2,0:0:0:0:
256,192,123325,1,0,0:0:0:0:
256,192,123481,1,0,0:0:0:0:
256,192,123638,1,4,0:0:0:0:
256,192,123950,1,0,0:0:0:0:
256,192,124106,1,2,0:0:0:0:
256,192,124419,1,0,0:0:0:0:
256,192,124575,1,2,0:0:0:0:
256,192,124731,1,0,0:0:0:0:
256,192,124809,1,0,0:0:0:0:
256,192,124888,1,2,0:0:0:0:
256,192,125044,1,2,0:0:0:0:
256,192,125200,1,0,0:0:0:0:
256,192,125356,1,0,0:0:0:0:
256,192,125513,1,6,0:0:0:0:
256,192,125825,1,0,0:0:0:0:
256,192,125981,1,2,0:0:0:0:
256,192,126138,1,2,0:0:0:0:
256,192,126216,1,2,0:0:0:0:
256,192,126294,1,2,0:0:0:0:
256,192,126450,1,0,0:0:0:0:
256,192,126763,1,0,0:0:0:0:
256,192,126919,1,2,0:0:0:0:
256,192,127075,1,2,0:0:0:0:
256,192,127231,1,2,0:0:0:0:
256,192,127388,5,4,0:0:0:0:
256,192,127856,1,2,0:0:0:0:
256,192,128169,1,2,0:0:0:0:
256,192,128325,1,0,0:0:0:0:
256,192,128794,1,0,0:0:0:0:
256,192,128950,1,2,0:0:0:0:
256,192,129106,1,2,0:0:0:0:
256,192,129263,1,0,0:0:0:0:
256,192,129575,1,0,0:0:0:0:
256,192,129731,1,2,0:0:0:0:
256,192,129888,1,2,0:0:0:0:
256,192,130044,1,2,0:0:0:0:
256,192,130200,1,0,0:0:0:0:
256,192,130356,1,2,0:0:0:0:
256,192,130513,1,0,0:0:0:0:
256,192,130669,1,0,0:0:0:0:
256,192,130825,1,2,0:0:0:0:
256,192,130981,1,2,0:0:0:0:
256,192,131059,1,2,0:0:0:0:
256,192,131138,1,0,0:0:0:0:
256,192,131450,1,0,0:0:0:0:
256,192,131606,1,2,0:0:0:0:
256,192,131919,1,2,0:0:0:0:
256,192,131997,1,2,0:0:0:0:
256,192,132075,1,0,0:0:0:0:
256,192,132231,1,2,0:0:0:0:
256,192,132388,1,0,0:0:0:0:
256,192,132544,1,2,0:0:0:0:
256,192,132622,1,2,0:0:0:0:
256,192,132700,1,2,0:0:0:0:
256,192,132856,1,0,0:0:0:0:
256,192,133013,1,2,0:0:0:0:
256,192,133325,1,0,0:0:0:0:
256,192,133481,1,2,0:0:0:0:
256,192,133794,1,2,0:0:0:0:
256,192,133872,1,2,0:0:0:0:
256,192,133950,1,0,0:0:0:0:
256,192,134106,1,0,0:0:0:0:
256,192,134263,1,2,0:0:0:0:
256,192,134419,1,0,0:0:0:0:
256,192,134575,1,2,0:0:0:0:
256,192,134731,1,2,0:0:0:0:
256,192,134888,1,0,0:0:0:0:
256,192,135200,1,0,0:0:0:0:
256,192,135356,1,2,0:0:0:0:
256,192,135669,1,2,0:0:0:0:
256,192,135825,1,0,0:0:0:0:
256,192,135981,1,2,0:0:0:0:
256,192,136138,1,2,0:0:0:0:
256,192,136294,1,0,0:0:0:0:
256,192,136450,1,2,0:0:0:0:
256,192,136606,1,0,0:0:0:0:
256,192,136763,1,0,0:0:0:0:
256,192,137075,1,2,0:0:0:0:
256,192,137231,1,0,0:0:0:0:
256,192,137388,1,0,0:0:0:0:
256,192,137544,1,2,0:0:0:0:
256,192,137700,1,0,0:0:0:0:
256,192,137856,1,2,0:0:0:0:
256,192,138013,1,0,0:0:0:0:
256,192,138169,1,0,0:0:0:0:
256,192,138325,1,2,0:0:0:0:
256,192,138481,1,2,0:0:0:0:
256,192,138559,1,2,0:0:0:0:
256,192,138638,1,0,0:0:0:0:
256,192,138950,1,2,0:0:0:0:
256,192,139106,1,0,0:0:0:0:
256,192,139419,1,2,0:0:0:0:
256,192,139575,1,0,0:0:0:0:
256,192,139731,1,2,0:0:0:0:
256,192,139888,1,2,0:0:0:0:
256,192,140044,1,0,0:0:0:0:
256,192,140200,1,0,0:0:0:0:
256,192,140356,1,2,0:0:0:0:
256,192,140513,1,0,0:0:0:0:
256,192,140669,1,0,0:0:0:0:
256,192,140747,1,0,0:0:0:0:
256,192,140825,1,2,0:0:0:0:
256,192,140981,1,0,0:0:0:0:
256,192,141138,1,2,0:0:0:0:
256,192,141294,1,2,0:0:0:0:
256,192,141450,1,0,0:0:0:0:
256,192,141606,1,2,0:0:0:0:
256,192,141684,1,2,0:0:0:0:
256,192,141763,1,2,0:0:0:0:
256,192,141919,1,0,0:0:0:0:
256,192,142075,1,2,0:0:0:0:
256,192,142231,1,2,0:0:0:0:
256,192,142388,5,4,0:0:0:0:
256,192,142856,1,2,0:0:0:0:
256,192,143794,1,2,0:0:0:0:
256,192,144731,1,2,0:0:0:0:
256,192,145669,1,2,0:0:0:0:
256,192,146138,1,0,0:0:0:0:
256,192,146606,1,2,0:0:0:0:
256,192,147544,5,2,0:0:0:0:
256,192,148013,1,2,0:0:0:0:
256,192,148169,1,0,0:0:0:0:
256,192,148247,1,0,0:0:0:0:
256,192,148325,1,0,0:0:0:0:
256,192,148481,1,2,0:0:0:0:
256,192,148794,1,0,0:0:0:0:
256,192,148950,1,2,0:0:0:0:
256,192,149106,1,2,0:0:0:0:
256,192,149263,1,0,0:0:0:0:
256,192,149419,1,2,0:0:0:0:
256,192,149575,1,2,0:0:0:0:
256,192,149731,1,2,0:0:0:0:
256,192,149888,5,4,0:0:0:0:
256,192,150356,1,2,0:0:0:0:
256,192,150669,1,2,0:0:0:0:
256,192,150825,1,0,0:0:0:0:
256,192,151138,1,0,0:0:0:0:
256,192,151294,1,2,0:0:0:0:
256,192,151450,1,0,0:0:0:0:
256,192,151606,1,0,0:0:0:0:
256,192,151763,1,0,0:0:0:0:
256,192,152075,1,2,0:0:0:0:
256,192,152231,1,0,0:0:0:0:
256,192,152388,1,0,0:0:0:0:
256,192,152544,1,2,0:0:0:0:
256,192,152700,1,2,0:0:0:0:
256,192,153013,1,2,0:0:0:0:
256,192,153169,1,0,0:0:0:0:
256,192,153325,1,2,0:0:0:0:
256,192,153481,1,2,0:0:0:0:
256,192,153559,1,2,0:0:0:0:
256,192,153638,1,0,0:0:0:0:
256,192,153950,1,0,0:0:0:0:
256,192,154106,1,2,0:0:0:0:
256,192,154419,1,2,0:0:0:0:
256,192,154575,1,0,0:0:0:0:
256,192,154731,1,2,0:0:0:0:
256,192,154888,1,0,0:0:0:0:
256,192,155044,1,2,0:0:0:0:
256,192,155200,1,2,0:0:0:0:
256,192,155356,1,2,0:0:0:0:
256,192,155513,1,0,0:0:0:0:
256,192,155669,1,0,0:0:0:0:
256,192,155747,1,0,0:0:0:0:
256,192,155825,1,2,0:0:0:0:
256,192,155981,1,0,0:0:0:0:
256,192,156138,1,2,0:0:0:0:
256,192,156294,1,2,0:0:0:0:
256,192,156450,1,0,0:0:0:0:
256,192,156606,1,2,0:0:0:0:
256,192,156684,1,2,0:0:0:0:
256,192,156763,1,2,0:0:0:0:
256,192,156919,1,0,0:0:0:0:
256,192,157075,1,0,0:0:0:0:
256,192,157231,1,2,0:0:0:0:
256,192,157388,5,4,0:0:0:0:
256,192,157856,1,2,0:0:0:0:
256,192,158169,1,0,0:0:0:0:
256,192,158325,1,2,0:0:0:0:
256,192,158638,1,2,0:0:0:0:
256,192,158794,1,0,0:0:0:0:
256,192,158950,1,2,0:0:0:0:
256,192,159106,1,0,0:0:0:0:
256,192,159263,1,4,0:0:0:0:
256,192,159731,1,2,0:0:0:0:
256,192,159888,1,2,0:0:0:0:
256,192,159966,1,2,0:0:0:0:
256,192,160044,1,2,0:0:0:0:
256,192,160200,1,0,0:0:0:0:
256,192,160356,1,0,0:0:0:0:
256,192,160434,1,0,0:0:0:0:
256,192,160513,1,0,0:0:0:0:
256,192,160669,1,2,0:0:0:0:
256,192,160825,1,2,0:0:0:0:
256,192,160903,1,2,0:0:0:0:
256,192,160981,1,0,0:0:0:0:
256,192,161138,1,4,0:0:0:0:
256,192,161606,1,2,0:0:0:0:
256,192,161919,1,2,0:0:0:0:
256,192,162075,1,2,0:0:0:0:
256,192,162231,1,0,0:0:0:0:
256,192,162388,1,2,0:0:0:0:
256,192,162544,1,0,0:0:0:0:
256,192,162700,1,0,0:0:0:0:
256,192,162856,1,2,0:0:0:0:
256,192,163013,1,0,0:0:0:0:
256,192,163169,1,2,0:0:0:0:
256,192,163481,1,2,0:0:0:0:
256,192,163638,1,2,0:0:0:0:
256,192,163716,1,2,0:0:0:0:
256,192,163794,1,2,0:0:0:0:
256,192,163950,1,0,0:0:0:0:
256,192,164106,1,2,0:0:0:0:
256,192,164263,1,2,0:0:0:0:
256,192,164419,1,0,0:0:0:0:
256,192,164575,1,2,0:0:0:0:
256,192,164653,1,2,0:0:0:0:
256,192,164731,1,0,0:0:0:0:
256,192,164888,5,0,0:0:0:0:
256,192,165044,1,2,0:0:0:0:
256,192,165356,1,2,0:0:0:0:
256,192,165513,1,2,0:0:0:0:
256,192,165591,1,2,0:0:0:0:
256,192,165669,1,0,0:0:0:0:
256,192,165825,1,0,0:0:0:0:
256,192,165981,1,2,0:0:0:0:
256,192,166138,1,2,0:0:0:0:
256,192,166294,1,0,0:0:0:0:
256,192,166450,1,2,0:0:0:0:
256,192,166528,1,2,0:0:0:0:
256,192,166606,1,2,0:0:0:0:
