osu file format v14

[General]
AudioFilename: audio.mp3
AudioLeadIn: 0
PreviewTime: 58740
Countdown: 1
SampleSet: None
StackLeniency: 0.7
Mode: 0
LetterboxInBreaks: 0
WidescreenStoryboard: 0

[Editor]
Bookmarks: 104888,127388,157388
DistanceSpacing: 1.6
BeatDivisor: 3
GridSize: 16
TimelineZoom: 2.1

[Metadata]
Title:Mythic set ~ Heart-Stirring Urban Legends
TitleUnicode:Mythic set 〜 心揺さぶる都市伝説
Artist:Rin
ArtistUnicode:凛
Creator:Monarch
Version:
Source:
Tags:
BeatmapID:1592268
BeatmapSetID:756738

[Difficulty]
HPDrainRate:5
CircleSize:5
OverallDifficulty:9
ApproachRate:9
SliderMultiplier:2
SliderTickRate:1

[Events]
//Background and Video events
0,0,"wallhaven-615925.jpg",0,0
//Break Periods
//Storyboard Layer 0 (Background)
//Storyboard Layer 1 (Fail)
//Storyboard Layer 2 (Pass)
//Storyboard Layer 3 (Foreground)
//Storyboard Sound Samples

[TimingPoints]
58740,720.720720720721,3,2,1,72,1,0
67388,468.75,4,2,1,72,1,0
104888,-133.333333333333,4,2,1,72,0,0
126450,-100,4,2,1,72,0,0
148950,-100,4,1,1,51,0,0
149888,-100,4,2,1,72,0,0
167231,-100,4,2,1,52,0,0
168169,-100,4,2,1,38,0,0
169419,-100,4,2,1,16,0,0
170513,695.652173913044,3,2,1,5,1,0

[Colours]
Combo1 : 51,191,221
Combo2 : 255,0,0

[HitObjects]
76,130,58740,6,0,P|55:177|79:247,1,100
116,275,59280,2,0,L|220:272,1,100
265,215,59821,2,0,P|309:210|331:217,1,50
375,253,60181,2,0,L|372:318,1,50
408,368,60541,1,0,0:0:0:0:
333,365,60721,1,0,0:0:0:0:
258,363,60901,5,0,0:0:0:0:
413,378,61262,2,0,P|416:339|405:304,1,50
379,262,61622,2,0,P|376:223|387:188,1,50
419,149,61983,2,0,L|476:146,2,50
368,93,62523,1,0,0:0:0:0:
293,96,62703,2,0,L|218:98,1,50
182,55,63064,6,0,P|199:116|167:161,1,100
132,200,63604,2,0,P|115:261|147:306,1,100
189,338,64145,2,0,L|250:335,1,50
313,335,64505,2,0,P|322:365|309:406,1,50
227,258,64866,2,0,P|248:235|290:225,1,50
403,249,65226,5,0,0:0:0:0:
403,249,65406,2,0,P|395:191|411:151,1,100
440,318,66127,1,0,0:0:0:0:
365,315,66307,1,0,0:0:0:0:
290,312,66487,2,0,L|169:316,2,100
227,87,67388,6,0,B|197:62|197:62|203:239,1,200,6|0,0:0|0:0,0:0:0:0:
202,222,68013,1,0,0:0:0:0:
231,90,68169,1,0,0:0:0:0:
162,309,68325,2,0,P|201:320|238:314,1,66.6666666666667,2|0,0:0|0:0,0:0:0:0:
231,90,68638,2,0,P|192:79|155:85,1,66.6666666666667
359,210,68950,1,2,0:0:0:0:
317,38,69106,1,2,0:0:0:0:
297,297,69263,6,0,P|358:318|470:243,1,200,2|0,0:0|0:0,0:0:0:0:
466,251,69888,1,0,0:0:0:0:
466,251,70044,1,0,0:0:0:0:
344,68,70200,2,0,P|340:-1|350:-17,1,66.6666666666667,6|0,0:0|0:0,0:0:0:0:
471,0,70513,2,0,P|475:69|465:85,1,66.6666666666667
411,38,70825,1,2,0:0:0:0:
411,38,70903,1,2,0:0:0:0:
411,38,70981,1,2,0:0:0:0:
268,211,71138,6,0,B|178:258|176:170|54:215,1,200,6|0,0:0|0:0,0:0:0:0:
74,208,71763,1,0,0:0:0:0:
274,206,71919,1,0,0:0:0:0:
121,29,72075,2,0,P|116:66|130:113,1,66.6666666666667,8|0,0:0|0:0,0:0:0:0:
350,88,72388,2,0,P|355:51|341:4,1,66.6666666666667
249,200,72700,1,8,0:0:0:0:
309,379,72856,1,8,0:0:0:0:
341,102,73013,5,6,0:0:0:0:
241,205,73169,2,0,P|157:223|87:186,2,133.333333333333,0|8|0,0:0|0:0|0:0,0:0:0:0:
341,102,73950,1,2,0:0:0:0:
393,196,74106,2,0,L|387:357,2,133.333333333333,0|0|2,0:0|0:0|0:0,0:0:0:0:
399,8,74888,6,0,P|318:42|243:5,1,133.333333333333,4|0,0:0|0:0,0:0:0:0:
87,78,75356,2,0,P|166:82|181:91,1,66.6666666666667,2|0,0:0|0:0,0:0:0:0:
237,144,75669,1,2,0:0:0:0:
121,299,75825,2,0,L|124:207,2,66.6666666666667
274,368,76294,1,8,0:0:0:0:
253,168,76450,1,0,0:0:0:0:
282,353,76606,1,2,0:0:0:0:
168,132,76763,6,0,P|225:78|305:99,1,133.333333333333,2|0,0:0|0:0,0:0:0:0:
420,160,77231,2,0,P|493:162|503:158,1,66.6666666666667,8|0,0:0|0:0,0:0:0:0:
461,41,77544,1,0,0:0:0:0:
350,242,77700,2,0,P|324:259|272:267,1,66.6666666666667,2|0,0:0|0:0,0:0:0:0:
206,89,78013,2,0,P|232:72|284:64,1,66.6666666666667,2|0,0:0|0:0,0:0:0:0:
143,211,78325,2,0,L|44:207,1,66.6666666666667,8|0,0:0|0:0,0:0:0:0:
254,340,78638,6,0,L|407:334,1,133.333333333333,2|0,0:0|0:0,0:0:0:0:
209,213,79106,2,0,L|132:210,1,66.6666666666667,8|0,0:0|0:0,0:0:0:0:
36,124,79419,1,2,0:0:0:0:
195,305,79575,1,0,0:0:0:0:
195,305,79731,2,0,P|269:312|285:305,1,66.6666666666667
284,104,80044,2,0,P|210:97|194:104,1,66.6666666666667,8|0,0:0|0:0,0:0:0:0:
388,229,80356,1,2,0:0:0:0:
256,18,80513,6,0,P|170:37|126:88,1,133.333333333333,2|0,0:0|0:0,0:0:0:0:
51,199,80981,2,0,L|125:196,1,66.6666666666667,8|0,0:0|0:0,0:0:0:0:
289,190,81294,1,0,0:0:0:0:
255,307,81450,2,0,L|257:375,2,66.6666666666667,2|0|2,0:0|0:0|0:0,0:0:0:0:
289,190,81919,1,0,0:0:0:0:
234,75,82075,2,0,L|231:6,1,66.6666666666667,2|0,0:0|0:0,0:0:0:0:
385,79,82388,6,0,L|390:240,1,133.333333333333,2|0,0:0|0:0,0:0:0:0:
466,360,82856,2,0,P|401:329|376:333,1,66.6666666666667,8|0,0:0|0:0,0:0:0:0:
205,369,83169,1,8,0:0:0:0:
316,381,83325,1,2,0:0:0:0:
316,381,83481,1,0,0:0:0:0:
316,381,83638,1,0,0:0:0:0:
349,204,83794,1,8,0:0:0:0:
205,369,83950,1,0,0:0:0:0:
408,329,84106,1,2,0:0:0:0:
189,241,84263,6,0,P|158:165|182:78,1,133.333333333333,2|0,0:0|0:0,0:0:0:0:
265,264,84731,2,0,P|239:303|196:318,1,66.6666666666667,8|0,0:0|0:0,0:0:0:0:
247,188,85044,1,0,0:0:0:0:
351,327,85200,1,2,0:0:0:0:
351,327,85356,1,0,0:0:0:0:
351,327,85513,1,0,0:0:0:0:
495,218,85669,1,0,0:0:0:0:
386,78,85825,2,0,P|380:35|388:-16,1,66.6666666666667,2|0,0:0|0:0,0:0:0:0:
306,215,86138,6,0,P|243:273|162:256,1,133.333333333333,2|0,0:0|0:0,0:0:0:0:
84,180,86606,2,0,L|86:110,1,66.6666666666667,8|0,0:0|0:0,0:0:0:0:
236,48,86919,1,0,0:0:0:0:
109,270,87075,2,0,P|68:274|28:253,1,66.6666666666667,2|0,0:0|0:0,0:0:0:0:
172,44,87388,2,0,P|213:40|253:61,1,66.6666666666667,2|0,0:0|0:0,0:0:0:0:
387,201,87700,2,0,P|346:205|306:184,1,66.6666666666667,2|0,0:0|0:0,0:0:0:0:
463,5,88013,6,0,L|457:151,1,133.333333333333,2|0,0:0|0:0,0:0:0:0:
446,343,88481,1,8,0:0:0:0:
446,343,88950,2,0,P|406:347|373:340,1,66.6666666666667,2|0,0:0|0:0,0:0:0:0:
245,260,89263,1,0,0:0:0:0:
388,12,89419,2,0,P|411:44|421:76,1,66.6666666666667,8|0,0:0|0:0,0:0:0:0:
416,227,89731,1,0,0:0:0:0:
192,165,89888,6,0,L|198:19,1,133.333333333333,4|0,0:0|0:0,0:0:0:0:
138,226,90356,2,0,P|162:241|204:245,1,66.6666666666667,2|0,0:0|0:0,0:0:0:0:
311,141,90669,1,2,0:0:0:0:
122,18,90825,6,0,L|116:151,1,133.333333333333,2|0,0:0|0:0,0:0:0:0:
104,320,91294,1,8,0:0:0:0:
37,95,91450,1,0,0:0:0:0:
100,308,91606,1,2,0:0:0:0:
291,220,91763,6,0,P|369:213|441:257,1,133.333333333333,2|0,0:0|0:0,0:0:0:0:
461,382,92231,2,0,L|463:309,1,66.6666666666667,8|0,0:0|0:0,0:0:0:0:
469,116,92544,1,0,0:0:0:0:
291,220,92700,2,0,P|325:230|361:222,1,66.6666666666667,2|0,0:0|0:0,0:0:0:0:
249,37,93013,2,0,P|215:27|179:35,1,66.6666666666667,2|0,0:0|0:0,0:0:0:0:
0,135,93325,2,0,P|34:145|70:137,1,66.6666666666667,2|0,0:0|0:0,0:0:0:0:
231,253,93638,6,0,P|115:232|71:275,1,133.333333333333,2|0,0:0|0:0,0:0:0:0:
266,384,94106,2,0,L|268:311,1,66.6666666666667,8|0,0:0|0:0,0:0:0:0:
273,144,94419,1,0,0:0:0:0:
445,231,94575,2,0,L|522:233,2,66.6666666666667,2|0|0,0:0|0:0|0:0,0:0:0:0:
240,223,95044,1,8,0:0:0:0:
421,102,95200,1,0,0:0:0:0:
344,318,95356,1,2,0:0:0:0:
271,96,95513,6,0,P|193:70|132:101,1,133.333333333333,2|0,0:0|0:0,0:0:0:0:
53,187,95981,2,0,L|132:189,1,66.6666666666667,8|0,0:0|0:0,0:0:0:0:
240,268,96294,1,0,0:0:0:0:
428,152,96450,2,0,L|426:231,1,66.6666666666667,2|0,0:0|0:0,0:0:0:0:
345,350,96763,1,2,0:0:0:0:
339,126,96919,2,0,L|337:53,1,66.6666666666667,8|0,0:0|0:0,0:0:0:0:
212,45,97388,6,0,P|290:72|357:44,1,133.333333333333,2|0,0:0|0:0,0:0:0:0:
479,194,97856,2,0,P|416:194|395:210,1,66.6666666666667,8|0,0:0|0:0,0:0:0:0:
256,294,98169,1,0,0:0:0:0:
154,138,98325,1,2,0:0:0:0:
154,138,98481,1,0,0:0:0:0:
312,36,98638,1,0,0:0:0:0:
256,294,98794,2,0,P|249:217|257:196,1,66.6666666666667,8|0,0:0|0:0,0:0:0:0:
312,36,99106,1,8,0:0:0:0:
483,254,99263,6,0,L|332:248,1,133.333333333333,2|0,0:0|0:0,0:0:0:0:
201,327,99731,2,0,L|272:329,1,66.6666666666667,2|0,0:0|0:0,0:0:0:0:
482,339,100044,1,0,0:0:0:0:
412,106,100200,2,0,L|409:173,1,66.6666666666667,2|0,0:0|0:0,0:0:0:0:
234,165,100513,2,0,L|236:97,1,66.6666666666667,2|0,0:0|0:0,0:0:0:0:
322,274,100825,2,0,L|319:341,1,66.6666666666667,2|0,0:0|0:0,0:0:0:0:
106,324,101138,6,0,P|83:240|121:187,1,133.333333333333,2|0,0:0|0:0,0:0:0:0:
201,98,101606,2,0,L|198:164,1,66.6666666666667,8|0,0:0|0:0,0:0:0:0:
190,373,101919,1,0,0:0:0:0:
303,227,102075,2,0,P|256:239|234:264,1,66.6666666666667,2|0,0:0|0:0,0:0:0:0:
481,242,102388,2,0,P|494:195|483:163,1,66.6666666666667,0|2,0:0|0:0,0:0:0:0:
248,113,102700,2,0,P|281:147|314:154,1,66.6666666666667,0|2,0:0|0:0,0:0:0:0:
496,67,103013,6,0,P|378:38|340:64,1,133.333333333333,2|0,0:0|0:0,0:0:0:0:
410,217,103481,2,0,L|413:151,2,66.6666666666667,8|0|0,0:0|0:0|0:0,0:0:0:0:
225,201,103950,2,0,P|218:166|236:120,1,66.6666666666667,2|0,0:0|0:0,0:0:0:0:
302,0,104263,1,0,0:0:0:0:
295,258,104419,2,0,P|268:281|219:288,1,66.6666666666667,2|0,0:0|0:0,0:0:0:0:
82,291,104732,1,0,0:0:0:0:
82,291,104888,6,0,B|51:211|109:206|82:127,1,150.000005722046,4|8,0:0|0:0,0:0:0:0:
86,144,105669,1,8,0:0:0:0:
180,98,105825,2,0,L|306:93,2,100.000003814697,2|0|0,0:0|0:0|0:0,0:0:0:0:
397,190,106763,6,0,P|417:136|387:77,1,100.000003814697,4|0,0:0|0:0,0:0:0:0:
341,53,107231,2,0,L|273:50,2,50.0000019073487
234,99,107700,2,0,L|118:93,1,100.000003814697,2|0,0:0|0:0,0:0:0:0:
84,44,108169,2,0,P|102:113|86:154,1,100.000003814697
169,293,108638,6,0,P|155:207|166:174,1,100.000003814697,6|0,0:0|0:0,0:0:0:0:
179,127,109106,2,0,L|176:59,2,50.0000019073487,8|8|8,0:0|0:0|0:0,0:0:0:0:
247,223,109575,2,0,P|307:230|347:210,2,100.000003814697,2|0|0,0:0|0:0|0:0,0:0:0:0:
389,48,110513,6,0,L|384:171,1,100.000003814697,2|0,0:0|0:0,0:0:0:0:
383,227,110981,2,0,P|393:268|418:295,1,50.0000019073487
475,226,111294,1,0,0:0:0:0:
319,49,111450,2,0,L|314:172,1,100.000003814697,2|0,0:0|0:0,0:0:0:0:
235,0,111919,2,0,L|238:92,2,50.0000019073487,2|0|0,0:0|0:0|0:0,0:0:0:0:
200,151,112388,6,0,P|121:197|50:165,1,150.000005722046,6|8,0:0|0:0,0:0:0:0:
69,181,113013,1,8,0:0:0:0:
69,181,113169,1,8,0:0:0:0:
202,258,113325,2,0,P|268:239|312:251,2,100.000003814697,2|0|0,0:0|0:0|0:0,0:0:0:0:
366,384,114263,6,0,L|361:260,1,100.000003814697,6|0,0:0|0:0,0:0:0:0:
419,237,114731,2,0,P|455:199|463:183,2,50.0000019073487
262,193,115200,2,0,P|246:131|261:83,1,100.000003814697,2|0,0:0|0:0,0:0:0:0:
291,32,115669,1,0,0:0:0:0:
292,333,116138,6,0,P|215:338|175:318,1,100.000003814697,6|0,0:0|0:0,0:0:0:0:
136,280,116606,2,0,L|68:282,2,50.0000019073487,8|8|8,0:0|0:0|0:0,0:0:0:0:
130,149,117075,2,0,L|62:151,1,50.0000019073487,2|0,0:0|0:0,0:0:0:0:
277,219,117388,2,0,L|326:217,1,50.0000019073487
316,16,117700,2,0,L|266:17,1,50.0000019073487
420,238,118013,6,0,P|423:210|414:173,1,50.0000019073487,2|0,0:0|0:0,0:0:0:0:
229,286,118325,2,0,P|251:302|288:313,1,50.0000019073487
273,97,118638,2,0,P|247:108|219:134,1,50.0000019073487
471,123,118950,2,0,L|468:47,1,50.0000019073487,6|0,0:0|0:0,0:0:0:0:
315,19,119263,1,0,0:0:0:0:
375,233,119419,1,2,0:0:0:0:
453,82,119575,1,0,0:0:0:0:
310,310,119888,6,0,P|249:328|188:302,1,100.000003814697,6|0,0:0|0:0,0:0:0:0:
161,262,120356,2,0,L|164:153,1,100.000003814697,10|8,0:0|0:0,0:0:0:0:
169,87,120825,2,0,P|158:25|151:11,1,50.0000019073487,2|0,0:0|0:0,0:0:0:0:
78,74,121138,1,2,0:0:0:0:
235,129,121294,2,0,L|292:126,2,50.0000019073487,8|0|0,0:0|0:0|0:0,0:0:0:0:
103,213,121763,6,0,L|228:208,1,100.000003814697,2|0,0:0|0:0,0:0:0:0:
280,208,122231,2,0,P|311:284|296:327,1,100.000003814697,2|0,0:0|0:0,0:0:0:0:
269,363,122700,2,0,L|216:364,1,50.0000019073487,2|0,0:0|0:0,0:0:0:0:
114,366,123013,1,2,0:0:0:0:
164,236,123169,2,0,L|166:304,2,50.0000019073487,8|2|0,0:0|0:0|0:0,0:0:0:0:
124,64,123638,6,0,P|176:83|241:61,1,100.000003814697,6|0,0:0|0:0,0:0:0:0:
293,24,124106,2,0,P|340:10|397:34,1,100.000003814697,10|8,0:0|0:0,0:0:0:0:
446,93,124575,2,0,L|443:160,1,50.0000019073487,0|8,0:0|0:0,0:0:0:0:
439,271,124888,1,2,0:0:0:0:
281,220,125044,2,0,L|218:222,1,50.0000019073487,0|2,0:0|0:0,0:0:0:0:
132,226,125356,1,0,0:0:0:0:
357,120,125513,5,6,0:0:0:0:
357,120,125669,1,0,0:0:0:0:
357,120,125825,1,0,0:0:0:0:
355,290,125981,2,0,L|357:359,2,50.0000019073487,2|0|0,0:0|0:0|0:0,0:0:0:0:
423,174,126450,6,0,L|400:215,1,33.3333333333333
373,194,126606,2,0,L|328:217,1,33.3333333333333
319,189,126763,2,0,L|272:182,1,33.3333333333333
271,164,126919,2,0,L|225:161,1,33.3333333333333
220,147,127075,2,0,L|172:173,1,33.3333333333333
166,147,127231,2,0,L|145:202,1,33.3333333333333
118,171,127388,6,0,P|89:247|118:323,1,133.333333333333,6|0,0:0|0:0,0:0:0:0:
253,384,127856,2,0,L|250:304,1,66.6666666666667,8|0,0:0|0:0,0:0:0:0:
247,147,128169,1,2,0:0:0:0:
334,313,128325,2,0,P|420:315|465:267,1,133.333333333333,2|0,0:0|0:0,0:0:0:0:
458,89,128794,1,8,0:0:0:0:
380,164,128950,2,0,L|378:231,1,66.6666666666667
182,343,129263,6,0,P|153:263|187:200,1,133.333333333333,2|0,0:0|0:0,0:0:0:0:
377,242,129731,1,8,0:0:0:0:
246,274,129888,1,0,0:0:0:0:
279,137,130044,1,0,0:0:0:0:
327,318,130200,2,0,L|324:397,1,66.6666666666667,2|0,0:0|0:0,0:0:0:0:
278,126,130513,2,0,L|280:46,1,66.6666666666667,2|0,0:0|0:0,0:0:0:0:
80,7,130825,2,0,L|82:73,1,66.6666666666667,8|0,0:0|0:0,0:0:0:0:
101,250,131138,6,0,P|191:274|257:228,1,133.333333333333,2|0,0:0|0:0,0:0:0:0:
228,62,131606,2,0,P|317:44|376:85,1,133.333333333333,8|0,0:0|0:0,0:0:0:0:
401,263,132075,2,0,L|407:117,1,133.333333333333
486,45,132544,1,8,0:0:0:0:
486,45,132622,1,0,0:0:0:0:
486,45,132700,1,0,0:0:0:0:
483,181,132856,1,2,0:0:0:0:
251,162,133013,6,0,P|229:83|266:17,1,133.333333333333,2|0,0:0|0:0,0:0:0:0:
390,208,133481,2,0,L|323:205,2,66.6666666666667,8|0|0,0:0|0:0|0:0,0:0:0:0:
263,299,133950,2,0,L|192:296,1,66.6666666666667,2|0,0:0|0:0,0:0:0:0:
61,341,134263,1,2,0:0:0:0:
61,341,134419,1,0,0:0:0:0:
111,164,134575,2,0,L|108:236,1,66.6666666666667,2|0,0:0|0:0,0:0:0:0:
48,57,134888,6,0,P|135:26|191:59,1,133.333333333333,2|0,0:0|0:0,0:0:0:0:
222,177,135356,2,0,L|225:87,1,66.6666666666667,8|0,0:0|0:0,0:0:0:0:
327,0,135669,1,2,0:0:0:0:
319,239,135825,2,0,P|370:301|445:300,1,133.333333333333,2|0,0:0|0:0,0:0:0:0:
496,271,136294,1,8,0:0:0:0:
411,149,136450,2,0,L|409:216,1,66.6666666666667,0|2,0:0|0:0,0:0:0:0:
254,68,136763,6,0,P|320:47|396:95,1,133.333333333333,2|0,0:0|0:0,0:0:0:0:
263,268,137231,1,8,0:0:0:0:
314,140,137388,1,0,0:0:0:0:
346,337,137544,1,0,0:0:0:0:
217,185,137700,2,0,L|135:187,1,66.6666666666667,2|8,0:0|0:0,0:0:0:0:
30,276,138013,2,0,L|111:273,1,66.6666666666667,2|0,0:0|0:0,0:0:0:0:
88,53,138325,2,0,L|6:55,1,66.6666666666667,2|0,0:0|0:0,0:0:0:0:
217,185,138638,6,0,P|261:117|259:33,1,133.333333333333,2|0,0:0|0:0,0:0:0:0:
293,226,139106,2,0,P|310:276|332:300,1,66.6666666666667,8|0,0:0|0:0,0:0:0:0:
440,345,139419,1,0,0:0:0:0:
448,157,139575,2,0,L|452:18,1,133.333333333333,2|0,0:0|0:0,0:0:0:0:
358,126,140044,2,0,P|284:153|271:153,1,66.6666666666667,8|0,0:0|0:0,0:0:0:0:
104,135,140356,1,2,0:0:0:0:
441,26,140513,6,0,L|435:174,1,133.333333333333,6|0,0:0|0:0,0:0:0:0:
427,364,140981,1,8,0:0:0:0:
339,211,141138,1,0,0:0:0:0:
512,219,141294,1,0,0:0:0:0:
288,290,141450,2,0,P|246:219|264:153,1,133.333333333333,4|0,0:0|0:0,0:0:0:0:
351,20,141919,2,0,L|345:184,1,133.333333333333
350,338,142388,6,0,P|410:282|419:212,1,133.333333333333,6|0,0:0|0:0,0:0:0:0:
307,92,142856,2,0,L|302:225,1,133.333333333333,8|0,0:0|0:0,0:0:0:0:
209,308,143325,2,0,L|211:236,2,66.6666666666667
68,262,143794,1,8,0:0:0:0:
209,226,143950,1,0,0:0:0:0:
164,367,144106,1,8,0:0:0:0:
221,215,144263,6,0,P|296:192|369:244,1,133.333333333333
410,364,144731,1,8,0:0:0:0:
418,257,144888,1,0,0:0:0:0:
423,150,145044,1,0,0:0:0:0:
298,22,145200,2,0,L|301:107,1,66.6666666666667
227,279,145513,2,0,P|224:206|234:190,1,66.6666666666667
411,86,145825,2,0,L|414:20,1,66.6666666666667,8|0,0:0|0:0,0:0:0:0:
339,183,146138,6,0,P|434:208|486:177,1,133.333333333333
455,309,146606,2,0,P|360:284|308:315,1,133.333333333333,8|0,0:0|0:0,0:0:0:0:
464,322,147075,2,0,L|468:182,1,133.333333333333
477,67,147544,1,8,0:0:0:0:
477,67,147622,1,0,0:0:0:0:
477,67,147700,2,0,P|433:75|393:64,1,66.6666666666667,0|8,0:0|0:0,0:0:0:0:
256,24,148013,5,8,0:0:0:0:
256,24,148169,2,0,P|292:12|327:14,1,66.6666666666667
239,128,148481,2,0,L|101:124,1,133.333333333333,8|0,0:0|0:0,0:0:0:0:
105,124,148950,2,0,P|111:172|105:210,2,66.6666666666667,8|8|8,0:0|0:0|0:0,0:0:0:0:
236,194,149419,2,0,P|234:160|239:127,2,66.6666666666667,8|10|10,0:0|0:0|0:0,0:0:0:0:
354,312,149888,6,0,L|513:317,1,133.333333333333,4|0,0:0|0:0,0:0:0:0:
273,358,150356,2,0,P|262:323|277:258,1,66.6666666666667,2|0,0:0|0:0,0:0:0:0:
321,169,150669,1,2,0:0:0:0:
148,177,150825,2,0,L|8:181,1,133.333333333333,2|0,0:0|0:0,0:0:0:0:
163,271,151294,1,8,0:0:0:0:
92,94,151450,1,0,0:0:0:0:
33,277,151606,1,2,0:0:0:0:
224,171,151763,6,0,P|252:90|237:29,1,133.333333333333,2|0,0:0|0:0,0:0:0:0:
81,179,152231,2,0,L|148:177,1,66.6666666666667,8|2,0:0|0:0,0:0:0:0:
349,229,152544,1,0,0:0:0:0:
349,229,152700,2,0,P|347:163|354:146,1,66.6666666666667,2|0,0:0|0:0,0:0:0:0:
415,12,153013,1,2,0:0:0:0:
435,193,153169,1,0,0:0:0:0:
286,59,153325,1,8,0:0:0:0:
426,99,153481,1,2,0:0:0:0:
210,131,153638,6,0,L|57:125,1,133.333333333333,6|0,0:0|0:0,0:0:0:0:
272,203,154106,2,0,P|298:161|296:103,1,66.6666666666667,2|0,0:0|0:0,0:0:0:0:
249,24,154419,1,0,0:0:0:0:
69,118,154575,2,0,L|149:120,1,66.6666666666667,2|0,0:0|0:0,0:0:0:0:
89,258,154888,1,0,0:0:0:0:
41,35,155044,1,2,0:0:0:0:
237,124,155200,2,0,P|243:171|225:221,1,66.6666666666667,0|2,0:0|0:0,0:0:0:0:
345,335,155513,5,2,0:0:0:0:
345,335,155669,1,0,0:0:0:0:
345,335,155825,1,0,0:0:0:0:
512,202,155981,1,8,0:0:0:0:
391,210,156138,1,0,0:0:0:0:
272,220,156294,1,0,0:0:0:0:
378,103,156450,2,0,L|451:108,2,66.6666666666667,2|0|0,0:0|0:0|0:0,0:0:0:0:
199,92,156919,1,0,0:0:0:0:
199,92,157388,6,0,P|240:22|266:105,1,200,6|0,0:0|0:0,0:0:0:0:
274,96,158013,1,0,0:0:0:0:
124,38,158169,1,0,0:0:0:0:
365,64,158325,2,0,P|360:105|350:144,1,66.6666666666667,2|0,0:0|0:0,0:0:0:0:
264,282,158638,2,0,P|263:246|277:198,1,66.6666666666667
359,51,158950,1,2,0:0:0:0:
270,290,159106,1,2,0:0:0:0:
146,129,159263,6,0,B|244:90|245:162|344:132,1,200,2|0,0:0|0:0,0:0:0:0:
340,133,159888,1,0,0:0:0:0:
340,133,160044,1,0,0:0:0:0:
454,276,160200,2,0,P|443:313|413:346,1,66.6666666666667,6|0,0:0|0:0,0:0:0:0:
303,272,160513,2,0,P|313:234|343:201,1,66.6666666666667
381,277,160825,1,2,0:0:0:0:
381,277,160903,1,2,0:0:0:0:
381,277,160981,1,2,0:0:0:0:
185,209,161138,6,0,P|147:107|186:1,1,200,6|0,0:0|0:0,0:0:0:0:
170,22,161763,1,0,0:0:0:0:
191,215,161919,1,0,0:0:0:0:
58,91,162075,2,0,P|65:56|78:4,1,66.6666666666667,8|0,0:0|0:0,0:0:0:0:
248,158,162388,2,0,P|241:125|233:92,1,66.6666666666667
49,176,162700,1,8,0:0:0:0:
93,366,162856,1,8,0:0:0:0:
154,82,163013,5,6,0:0:0:0:
200,283,163169,2,0,P|280:298|345:252,2,133.333333333333,0|8|0,0:0|0:0|0:0,0:0:0:0:
92,127,163950,1,2,0:0:0:0:
269,138,164106,2,0,L|430:144,2,133.333333333333,0|0|2,0:0|0:0|0:0,0:0:0:0:
16,123,164888,5,0,0:0:0:0:
78,214,165044,2,0,P|90:297|65:354,2,133.333333333333
148,377,165825,1,0,0:0:0:0:
218,333,165981,2,0,L|358:337,2,133.333333333333
256,192,166763,12,0,170513,0:0:0:0:
