osu file format v14

[General]
AudioFilename: audio.mp3
AudioLeadIn: 0
PreviewTime: 126450
Countdown: 0
SampleSet: Soft
StackLeniency: 0.7
Mode: 0
LetterboxInBreaks: 0
WidescreenStoryboard: 1

[Editor]
DistanceSpacing: 1.2
BeatDivisor: 6
GridSize: 16
TimelineZoom: 1

[Metadata]
Title:Mythic set ~ Heart-Stirring Urban Legends
TitleUnicode:Mythic set 〜 心揺さぶる都市伝説
Artist:Rin
ArtistUnicode:凛
Creator:Hailie
Version:Normal
Source:東方深秘録 ~ Urban Legend in Limbo.
Tags:touhou shinpiroku th14.5 心揺さぶる都市伝説 東方深秘録 ZUN
BeatmapID:1541477
BeatmapSetID:729705

[Difficulty]
HPDrainRate:3
CircleSize:3
OverallDifficulty:4
ApproachRate:5
SliderMultiplier:1.05
SliderTickRate:1

[Events]
//Background and Video events
0,0,"bg..jpg",0,0
//Break Periods
//Storyboard Layer 0 (Background)
//Storyboard Layer 1 (Fail)
//Storyboard Layer 2 (Pass)
//Storyboard Layer 3 (Foreground)
//Storyboard Sound Samples

[TimingPoints]
58740,540.540540540541,4,2,0,30,1,0
58740,-66.6666666666667,4,2,0,30,0,0
67388,468.75,4,2,0,50,1,0
89888,-100,4,2,0,60,0,1
90356,-100,4,2,0,60,0,0
104888,-100,4,2,0,45,0,1
105356,-100,4,2,0,45,0,0
119888,-100,4,2,0,60,0,1
120356,-100,4,2,0,60,0,0
127388,-100,4,2,0,70,0,1
142231,-100,4,2,0,70,0,0
142388,-100,4,2,0,50,0,1
142856,-100,4,2,0,50,0,0
149888,-100,4,2,0,70,0,1
156919,-100,4,2,0,70,0,0
157388,-100,4,2,0,60,0,1
157856,-100,4,2,0,60,0,0
166763,-100,4,2,0,60,0,0
170513,521.739130434783,4,2,0,20,1,0
170513,-76.9230769230769,4,2,0,20,0,0
180426,-76.9230769230769,4,2,0,70,0,0

[Colours]
Combo1 : 7,7,184
Combo2 : 142,6,142
Combo3 : 128,64,64
Combo4 : 244,11,11

[HitObjects]
347,57,58740,6,0,P|419:64|470:67,2,105,2|2|2,0:0|0:0|0:0,0:0:0:0:
255,80,59821,2,0,P|177:74|137:69,2,105,2|2|2,0:0|0:0|0:0,0:0:0:0:
348,58,60902,1,2,0:0:0:0:
330,148,61262,5,0,0:0:0:0:
330,148,61622,2,0,P|290:207|271:234,2,105,2|2|2,0:0|0:0|0:0,0:0:0:0:
413,103,62703,1,2,0:0:0:0:
326,64,63064,1,2,0:0:0:0:
326,64,63424,6,0,P|272:70|203:78,1,105.000004005432,2|2,0:0|0:0,0:0:0:0:
127,82,64145,1,2,0:0:0:0:
182,158,64505,2,0,P|190:242|194:277,1,105,2|2,0:0|0:0,0:0:0:0:
248,338,65226,5,2,0:0:0:0:
295,338,65406,1,2,0:0:0:0:
301,243,65767,1,2,0:0:0:0:
212,243,66127,2,0,L|153:243,2,52.5000020027161,2|2|2,0:0|0:0|0:0,0:0:0:0:
213,148,66848,1,2,0:0:0:0:
307,147,67208,1,2,0:0:0:0:
336,113,67388,6,0,P|406:88|448:76,1,105,6|10,0:0|0:3,0:0:0:0:
506,183,68325,2,0,P|437:214|393:232,1,105,6|8,0:3|0:3,0:0:0:0:
374,248,68950,1,6,0:3:0:0:
291,265,69263,2,0,P|195:278|171:280,1,105,6|2,0:0|0:0,0:0:0:0:
112,177,70200,2,0,L|112:98,2,70,6|2|6,0:3|0:3|0:3,0:0:0:0:
195,171,71138,6,0,P|260:172|317:168,1,105,6|10,0:0|0:3,0:0:0:0:
343,51,72075,2,0,P|421:50|463:51,1,105,6|8,0:3|0:3,0:0:0:0:
475,82,72700,1,8,0:3:0:0:
468,165,73013,6,0,P|468:225|467:280,1,105,4|8,0:3|0:3,0:0:0:0:
397,316,73794,1,2,0:0:0:0:
355,310,73950,2,0,P|275:306|223:328,1,105,10|4,0:3|0:3,0:0:0:0:
127,290,74888,6,0,P|124:204|122:167,1,105,6|4,0:0|0:3,0:0:0:0:
91,107,75669,2,0,P|73:109|56:111,2,35,4|4|2,0:3|0:3|0:3,0:0:0:0:
174,99,76294,1,2,0:3:0:0:
299,92,76763,2,0,P|369:125|421:146,2,105,4|2|4,0:3|0:3|0:3,0:0:0:0:
223,55,78013,1,4,0:3:0:0:
140,67,78325,1,4,0:3:0:0:
140,67,78638,6,0,P|131:147|125:183,1,105,4|8,0:3|0:3,0:0:0:0:
162,292,79575,2,0,P|205:266|248:295,1,105,4|4,0:3|0:3,0:0:0:0:
313,343,80356,1,4,0:3:0:0:
353,331,80513,2,0,P|434:291|464:278,1,105,4|2,0:3|0:3,0:0:0:0:
473,161,81450,2,0,P|424:105|395:71,1,105,4|2,0:3|0:0,0:0:0:0:
375,50,82075,1,4,0:3:0:0:
286,46,82388,6,0,P|212:100|196:113,1,105,6|4,0:3|0:3,0:0:0:0:
81,146,83325,2,0,P|104:198|143:225,1,105,4|4,0:3|0:3,0:0:0:0:
264,256,84263,2,0,P|334:263|376:268,2,105,4|2|4,0:3|0:3|0:3,0:0:0:0:
181,239,85513,1,4,0:3:0:0:
234,173,85825,1,4,0:3:0:0:
234,173,86138,6,0,P|246:115|228:71,2,105,2|2|4,0:3|0:3|0:3,0:0:0:0:
179,238,87388,1,2,0:3:0:0:
265,257,87700,1,4,0:3:0:0:
265,257,88013,2,0,P|343:255|381:256,1,105,6|4,0:3|0:3,0:0:0:0:
462,184,88950,2,0,P|465:141|466:104,2,70,4|2|2,0:3|0:0|0:0,0:0:0:0:
449,266,89888,6,0,P|397:311|396:347,1,105,6|2,0:0|0:3,0:0:0:0:
311,353,90669,2,0,P|276:353|251:353,2,35,4|2|4,0:3|0:3|0:3,0:0:0:0:
395,343,91294,1,2,0:3:0:0:
295,265,91763,2,0,P|224:263|169:263,2,105,4|2|12,0:3|0:3|0:3,0:0:0:0:
378,255,93013,1,4,0:3:0:0:
327,187,93325,1,10,0:3:0:0:
327,187,93638,6,0,P|313:116|302:71,1,105,4|4,0:3|0:3,0:0:0:0:
190,33,94575,2,0,P|139:20|88:48,1,105,4|2,0:3|0:3,0:0:0:0:
58,118,95356,1,2,0:0:0:0:
73,157,95513,2,0,P|96:230|105:260,1,105,4|2,0:3|0:3,0:0:0:0:
229,265,96450,2,0,P|252:189|260:156,1,105,4|2,0:3|0:0,0:0:0:0:
268,123,97075,1,4,0:3:0:0:
349,95,97388,6,0,P|400:152|433:189,1,105,4|4,0:3|0:3,0:0:0:0:
479,283,98325,2,0,L|535:252,2,35,2|2|2,0:3|0:0|0:0,0:0:0:0:
441,302,98794,1,2,0:0:0:0:
325,351,99263,2,0,P|243:350|206:349,2,105,4|2|4,0:3|0:3|0:3,0:0:0:0:
360,274,100513,1,4,0:3:0:0:
446,306,100825,1,4,0:3:0:0:
446,306,101138,6,0,P|475:255|457:187,2,105,4|2|4,0:3|0:3|0:3,0:0:0:0:
374,353,102388,1,2,0:0:0:0:
298,316,102700,1,2,0:0:0:0:
298,316,103013,2,0,P|212:323|176:328,1,105,4|2,0:3|0:3,0:0:0:0:
115,226,103950,2,0,L|111:126,2,70,2|2|2,0:0|0:0|0:0,0:0:0:0:
106,310,104888,6,0,P|48:301|-10:314,2,105,6|0|4,0:0|0:0|0:3,0:0:0:0:
189,323,106138,1,2,0:0:0:0:
256,270,106450,1,2,0:0:0:0:
256,270,106763,2,0,P|272:194|280:155,1,105,6|2,0:0|0:0,0:0:0:0:
399,136,107700,2,0,P|383:214|377:238,1,105,14|2,0:3|0:0,0:0:0:0:
439,348,108638,6,0,P|475:322|449:266,1,105,6|2,0:0|0:0,0:0:0:0:
334,251,109575,2,0,P|257:249|207:250,1,105,14|2,0:3|0:0,0:0:0:0:
186,253,110200,1,2,0:0:0:0:
112,212,110513,2,0,P|119:151|100:109,2,105,14|4|6,0:3|0:3|0:0,0:0:0:0:
64,328,111919,1,2,0:3:0:0:
184,290,112388,6,0,P|191:217|194:174,2,105,6|2|4,0:0|0:0|0:3,0:0:0:0:
217,367,113638,1,0,0:0:0:0:
133,360,113950,1,2,0:0:0:0:
133,360,114263,2,0,P|55:358|23:335,1,105,6|4,0:0|0:3,0:0:0:0:
18,219,115200,2,0,P|35:144|55:122,1,105,6|2,0:3|0:3,0:0:0:0:
148,49,116138,6,0,P|168:131|178:173,1,105,6|2,0:0|0:0,0:0:0:0:
279,218,117075,2,0,P|329:182|392:193,1,105,6|2,0:3|0:0,0:0:0:0:
341,305,118013,2,0,P|280:351|238:340,1,105,6|2,0:3|0:0,0:0:0:0:
217,330,118638,1,2,0:0:0:0:
208,248,118950,2,0,P|206:161|205:116,1,105,6|4,0:0|0:3,0:0:0:0:
205,100,119575,1,2,0:3:0:0:
263,29,119888,6,0,P|342:31|384:30,2,105,6|2|2,0:0|0:3|0:0,0:0:0:0:
177,13,121138,1,2,0:3:0:0:
103,54,121450,1,4,0:3:0:0:
103,54,121763,2,0,P|102:135|97:181,1,105,4|2,0:3|0:0,0:0:0:0:
180,256,122700,2,0,P|227:255|257:255,1,70,2|4,0:0|0:3,0:0:0:0:
291,258,123169,1,0,0:0:0:0:
291,258,123325,1,4,0:3:0:0:
364,180,123638,6,0,P|367:121|405:74,2,105,6|4|4,0:0|0:3|0:3,0:0:0:0:
412,248,124888,1,4,0:3:0:0:
326,255,125200,1,4,0:3:0:0:
326,255,125513,2,0,P|272:318|239:353,1,105,6|4,0:0|0:3,0:0:0:0:
131,341,126450,2,0,P|73:320|55:230,1,140,4|2,0:3|0:0,0:0:0:0:
133,255,127388,6,0,P|200:183|223:155,1,105,6|6,0:0|0:3,0:0:0:0:
269,119,128169,1,4,0:3:0:0:
305,139,128325,2,0,P|380:179|406:194,1,105,4|2,0:3|0:3,0:0:0:0:
295,264,129263,2,0,P|217:261|169:260,2,105,4|6|4,0:3|0:3|0:3,0:0:0:0:
379,266,130513,1,4,0:3:0:0:
428,195,130825,1,4,0:3:0:0:
428,195,131138,6,0,P|454:112|468:67,2,105,4|6|4,0:3|0:3|0:3,0:0:0:0:
460,316,132544,1,6,0:3:0:0:
377,300,132856,1,4,0:3:0:0:
338,283,133013,2,0,P|264:313|228:327,1,105,12|14,0:3|0:3,0:0:0:0:
187,207,133950,2,0,L|175:122,2,70,12|4|4,0:3|0:3|0:3,0:0:0:0:
152,288,134888,6,0,P|70:278|26:271,1,105,4|6,0:3|0:3,0:0:0:0:
13,197,135669,1,4,0:3:0:0:
51,180,135825,2,0,P|129:142|168:125,1,105,4|6,0:3|0:3,0:0:0:0:
242,55,136763,6,0,P|263:137|274:174,2,105,4|6|4,0:3|0:3|0:3,0:0:0:0:
326,53,138013,1,4,0:3:0:0:
408,66,138325,1,4,0:3:0:0:
408,66,138638,2,0,P|418:147|447:181,1,105,4|6,0:3|0:3,0:0:0:0:
382,281,139575,2,0,P|297:281|265:295,1,105,4|6,0:3|0:3,0:0:0:0:
202,322,140356,1,4,0:3:0:0:
159,318,140513,6,0,P|67:321|39:322,2,105,14|14|14,0:3|0:3|0:3,0:0:0:0:
210,202,141919,1,14,0:3:0:0:
318,266,142388,6,0,P|363:205|385:172,2,105,4|2|2,0:0|0:3|0:0,0:0:0:0:
196,233,143794,1,2,0:3:0:0:
73,203,144263,2,0,P|56:153|68:97,2,105,2|2|2,0:0|0:3|0:0,0:0:0:0:
137,257,145513,1,0,0:0:0:0:
207,208,145825,1,2,0:3:0:0:
207,208,146138,6,0,P|298:202|331:200,1,105,2|2,0:0|0:3,0:0:0:0:
424,144,147075,2,0,P|440:67|447:36,1,105,2|2,0:0|0:3,0:0:0:0:
320,27,148013,2,0,P|227:23|193:20,2,105,2|2|4,0:0|0:0|0:3,0:0:0:0:
401,122,149419,1,2,0:3:0:0:
489,211,149888,6,0,P|458:253|440:311,1,105,6|6,0:0|0:3,0:0:0:0:
360,328,150669,1,4,0:3:0:0:
323,307,150825,2,0,P|246:299|211:307,1,105,4|2,0:3|0:3,0:0:0:0:
117,228,151763,2,0,P|116:148|117:108,2,105,4|6|4,0:3|0:3|0:3,0:0:0:0:
172,291,153013,1,4,0:3:0:0:
232,232,153325,1,4,0:3:0:0:
232,232,153638,6,0,P|311:290|337:305,1,105,4|6,0:3|0:3,0:0:0:0:
351,216,154419,1,0,0:0:0:0:
322,185,154575,2,0,P|264:145|223:120,1,105,4|6,0:3|0:3,0:0:0:0:
118,170,155513,2,0,P|60:214|48:269,2,105,14|14|14,0:3|0:3|0:3,0:0:0:0:
202,185,156763,1,2,0:0:0:0:
211,144,156919,1,2,0:0:0:0:
232,19,157388,6,0,P|314:32|343:37,1,105,6|8,0:0|0:3,0:0:0:0:
419,130,158325,2,0,P|350:161|306:179,1,105,6|8,0:3|0:3,0:0:0:0:
284,189,158950,1,6,0:3:0:0:
206,220,159263,2,0,P|202:269|242:316,1,105,6|2,0:0|0:0,0:0:0:0:
360,307,160200,2,0,L|360:228,2,70,6|2|6,0:3|0:3|0:3,0:0:0:0:
293,358,161138,6,0,P|212:357|175:359,1,105,6|12,0:0|0:3,0:0:0:0:
208,234,162075,2,0,P|293:232|328:234,1,105,6|8,0:3|0:3,0:0:0:0:
351,215,162700,1,8,0:3:0:0:
429,184,163013,6,0,P|430:109|430:52,1,105,6|2,0:0|0:3,0:0:0:0:
351,32,163794,1,2,0:0:0:0:
310,41,163950,2,0,P|232:42|177:44,2,105,12|2|6,0:3|0:0|0:0,0:0:0:0:
348,161,165356,2,0,P|306:232|287:267,2,105,2|14|2,0:3|0:3|0:0,0:0:0:0:
409,144,166528,2,0,P|425:118|441:87,1,52.5,2|0,0:0|0:0,0:0:0:0:
422,111,170513,6,0,P|341:130|317:136,2,90.9999958343508,2|2|2,0:0|0:0|0:0,0:0:0:0:
414,201,171556,2,0,P|332:220|311:225,2,90.9999958343508,2|2|2,0:0|0:0|0:0,0:0:0:0:
422,111,172599,1,2,0:0:0:0:
354,49,172947,5,0,0:0:0:0:
275,95,173295,2,0,P|199:134|179:143,2,90.9999958343508,2|2|2,0:0|0:0|0:0,0:0:0:0:
343,155,174339,1,2,0:0:0:0:
369,69,174686,1,2,0:0:0:0:
369,68,175208,6,0,P|318:26|291:0,1,90.9999958343508,2|0,0:0|0:0,0:0:0:0:
254,12,175730,1,2,0:0:0:0:
223,98,176078,2,0,P|228:165|229:194,1,90.9999958343508,2|2,0:0|0:0,0:0:0:0:
242,278,176773,5,2,0:0:0:0:
287,277,176947,1,2,0:0:0:0:
288,185,177295,1,2,0:0:0:0:
197,188,177643,2,0,L|139:188,2,45.4999979171754,2|2|2,0:0|0:0|0:0,0:0:0:0:
194,96,178339,1,2,0:0:0:0:
282,95,178686,1,2,0:0:0:0:
326,85,178860,6,0,P|381:37|407:16,1,90.9999958343508,2|0,0:0|0:0,0:0:0:0:
440,19,179382,1,2,0:0:0:0:
471,105,179730,1,2,0:0:0:0:
483,148,179904,2,0,P|460:225|454:245,1,90.9999958343508,2|2,0:0|0:0,0:0:0:0:
431,273,180426,5,2,0:0:0:0:
