osu file format v14

[General]
AudioFilename: audio.mp3
AudioLeadIn: 0
PreviewTime: 126450
Countdown: 0
SampleSet: Soft
StackLeniency: 0.7
Mode: 0
LetterboxInBreaks: 0
WidescreenStoryboard: 1

[Editor]
DistanceSpacing: 0.8
BeatDivisor: 3
GridSize: 16
TimelineZoom: 1

[Metadata]
Title:Mythic set ~ Heart-Stirring Urban Legends
TitleUnicode:Mythic set 〜 心揺さぶる都市伝説
Artist:Rin
ArtistUnicode:凛
Creator:Hailie
Version:Hard
Source:東方深秘録 ~ Urban Legend in Limbo.
Tags:touhou shinpiroku th14.5 心揺さぶる都市伝説 東方深秘録 ZUN
BeatmapID:1540204
BeatmapSetID:729705

[Difficulty]
HPDrainRate:5
CircleSize:3.8
OverallDifficulty:7
ApproachRate:8
SliderMultiplier:1.25
SliderTickRate:1

[Events]
//Background and Video events
0,0,"bg..jpg",0,0
//Break Periods
//Storyboard Layer 0 (Background)
//Storyboard Layer 1 (Fail)
//Storyboard Layer 2 (Pass)
//Storyboard Layer 3 (Foreground)
//Storyboard Sound Samples

[TimingPoints]
58740,540.540540540541,4,2,0,30,1,0
59100,-90.9090909090909,4,2,0,30,0,0
67388,468.75,4,2,0,50,1,0
89888,-100,4,2,0,60,0,1
90356,-100,4,2,0,60,0,0
104888,-125,4,2,0,45,0,1
105356,-125,4,2,0,45,0,0
119888,-100,4,2,0,60,0,1
120356,-100,4,2,0,60,0,0
127388,-100,4,2,0,70,0,1
142231,-100,4,2,0,70,0,0
142388,-125,4,2,0,50,0,1
142856,-125,4,2,0,50,0,0
149888,-100,4,2,0,70,0,1
156919,-100,4,2,0,70,0,0
157388,-90.9090909090909,4,2,0,60,0,1
157856,-100,4,2,0,60,0,0
166763,-100,4,2,0,60,0,0
170513,521.739130434783,4,2,0,20,1,0
170860,-90.909090909091,4,2,0,20,0,0
180513,-142.857142857143,4,2,0,70,0,0

[Colours]
Combo1 : 7,7,184
Combo2 : 142,6,142
Combo3 : 128,64,64
Combo4 : 244,11,11

[HitObjects]
110,345,58739,5,2,0:0:0:0:
110,345,59100,2,0,L|55:344,2,45.8333347320557,2|2|2,0:0|0:0|0:0,0:0:0:0:
115,267,59640,1,2,0:0:0:0:
115,267,59821,2,0,L|59:268,2,45.8333347320557,2|2|2,0:0|0:0|0:0,0:0:0:0:
195,264,60361,1,2,0:0:0:0:
195,342,60541,1,2,0:0:0:0:
275,341,60721,1,2,0:0:0:0:
275,262,60902,1,2,0:0:0:0:
115,267,61262,5,0,0:0:0:0:
115,267,61442,2,0,L|116:214,2,45.8333347320557,2|2|2,0:0|0:0|0:0,0:0:0:0:
195,264,61983,2,0,L|196:216,2,45.8333347320557,2|2|2,0:0|0:0|0:0,0:0:0:0:
276,260,62523,1,2,0:0:0:0:
279,183,62703,1,2,0:0:0:0:
192,184,62884,1,2,0:0:0:0:
195,264,63064,1,2,0:0:0:0:
279,183,63424,5,0,0:0:0:0:
279,183,63604,2,0,L|337:183,2,45.8333347320557,2|2|2,0:0|0:0|0:0,0:0:0:0:
272,103,64145,2,0,L|331:103,2,45.8333347320557,2|2|2,0:0|0:0|0:0,0:0:0:0:
189,102,64685,1,2,0:0:0:0:
189,185,64866,1,2,0:0:0:0:
274,186,65046,1,2,0:0:0:0:
356,183,65226,1,2,0:0:0:0:
354,94,65406,1,2,0:0:0:0:
186,16,65767,5,2,0:0:0:0:
354,15,66127,5,2,0:0:0:0:
354,15,66307,2,0,L|296:15,1,45.8333347320557,2|2,0:0|0:0,0:0:0:0:
189,185,66848,1,2,0:0:0:0:
193,37,67208,1,2,0:0:0:0:
189,185,67388,6,0,P|241:257|265:290,1,125,6|10,0:0|0:3,0:0:0:0:
383,235,68169,1,2,0:3:0:0:
383,235,68325,2,0,L|433:196,2,41.6666666666667,6|0|8,0:3|0:0|0:3,0:0:0:0:
369,341,68794,2,0,L|316:377,2,41.6666666666667,8|6|2,0:3|0:3|0:0,0:0:0:0:
382,234,69263,6,0,P|318:157|294:125,1,125,6|2,0:0|0:0,0:0:0:0:
164,152,70044,1,2,0:0:0:0:
164,152,70200,2,0,L|131:103,2,41.6666666666667,6|2|2,0:3|0:3|0:3,0:0:0:0:
106,217,70669,2,0,L|131:251,2,41.6666666666667,2|6|0,0:3|0:3|0:0,0:0:0:0:
196,314,71138,6,0,P|118:367|85:389,1,125,6|10,0:0|0:3,0:0:0:0:
104,234,71919,1,8,0:3:0:0:
104,234,72075,2,0,L|157:200,2,41.6666666666667,6|0|8,0:3|0:0|0:3,0:0:0:0:
45,323,72544,2,0,L|-4:353,1,41.6666666666667,8|8,0:3|0:3,0:0:0:0:
16,203,72856,1,2,0:3:0:0:
161,138,73013,6,0,P|201:167|218:219,1,83.3333333333333,4|0,0:3|0:0,0:0:0:0:
193,305,73481,2,0,P|231:309|285:285,1,83.3333333333333,8|2,0:3|0:0,0:0:0:0:
389,346,73950,2,0,P|381:302|390:260,1,83.3333333333333,10|2,0:3|0:0,0:0:0:0:
443,133,74419,2,0,P|452:151|456:173,2,41.6666666666667,4|2|2,0:3|0:3|0:3,0:0:0:0:
509,30,74888,6,0,P|415:33|357:35,1,125,6|4,0:0|0:3,0:0:0:0:
238,84,75669,1,4,0:3:0:0:
238,84,75825,2,0,P|217:65|255:33,1,83.3333333333333,4|0,0:3|0:0,0:0:0:0:
123,33,76294,2,0,P|82:34|55:32,2,41.6666666666667,2|2|2,0:3|0:0|0:0,0:0:0:0:
44,108,76763,6,0,P|61:188|74:247,1,125,4|2,0:3|0:3,0:0:0:0:
123,354,77544,1,0,0:0:0:0:
123,354,77700,2,0,L|204:343,2,41.6666666666667,4|0|4,0:3|0:3|0:3,0:0:0:0:
204,274,78169,2,0,L|281:267,1,41.6666666666667,2|4,0:3|0:3,0:0:0:0:
335,334,78481,1,2,0:0:0:0:
370,225,78638,6,0,P|354:140|342:79,1,125,4|8,0:3|0:3,0:0:0:0:
169,72,79419,1,0,0:0:0:0:
169,72,79575,2,0,P|140:122|189:163,1,125,4|4,0:3|0:3,0:0:0:0:
264,106,80200,1,0,0:0:0:0:
264,106,80356,1,4,0:3:0:0:
181,162,80513,6,0,P|160:261|154:295,1,125,4|2,0:3|0:3,0:0:0:0:
290,353,81294,1,0,0:0:0:0:
290,353,81450,2,0,L|367:344,1,41.6666666666667,4|0,0:3|0:0,0:0:0:0:
408,292,81763,2,0,L|482:282,2,41.6666666666667,2|2|4,0:0|0:0|0:3,0:0:0:0:
239,282,82388,6,0,P|219:197|211:161,1,125,6|4,0:3|0:3,0:0:0:0:
99,77,83169,1,4,0:3:0:0:
99,77,83325,2,0,L|38:82,2,41.6666666666667,4|2|2,0:3|0:3|0:0,0:0:0:0:
130,165,83794,2,0,L|89:170,2,41.6666666666667,4|2|4,0:3|0:0|0:3,0:0:0:0:
246,140,84263,6,0,P|350:118|391:109,1,125,4|2,0:3|0:3,0:0:0:0:
298,217,85044,1,0,0:0:0:0:
298,217,85200,2,0,L|243:229,2,41.6666666666667,4|0|4,0:3|0:0|0:3,0:0:0:0:
254,304,85669,2,0,L|188:313,1,41.6666666666667,2|4,0:3|0:3,0:0:0:0:
117,359,85981,1,2,0:0:0:0:
254,304,86138,6,0,P|342:335|379:348,2,125,2|2|4,0:3|0:3|0:3,0:0:0:0:
117,317,87388,2,0,L|117:371,1,41.6666666666667,2|2,0:3|0:3,0:0:0:0:
41,274,87700,2,0,L|41:216,1,41.6666666666667,4|2,0:3|0:0,0:0:0:0:
149,148,88013,6,0,P|78:152|8:154,1,125,6|4,0:3|0:3,0:0:0:0:
236,148,88794,1,2,0:3:0:0:
236,148,88950,2,0,L|261:101,2,41.6666666666667,4|2|2,0:3|0:0|0:0,0:0:0:0:
344,119,89419,2,0,L|370:76,2,41.6666666666667,2|2|2,0:0|0:0|0:0,0:0:0:0:
406,230,89888,6,0,P|343:229|281:229,1,125,6|2,0:0|0:3,0:0:0:0:
162,311,90669,1,4,0:3:0:0:
162,311,90825,2,0,P|176:247|122:227,1,125,2|2,0:3|0:3,0:0:0:0:
83,136,91450,1,2,0:0:0:0:
83,136,91606,1,2,0:0:0:0:
192,125,91763,6,0,P|278:122|326:119,1,125,4|2,0:3|0:3,0:0:0:0:
462,58,92544,1,0,0:0:0:0:
462,58,92700,2,0,L|459:134,1,41.6666666666667,12|0,0:3|0:0,0:0:0:0:
407,175,93013,2,0,L|406:225,2,41.6666666666667,4|2|10,0:3|0:3|0:3,0:0:0:0:
460,279,93481,1,2,0:0:0:0:
460,279,93638,6,0,P|380:312|344:329,1,125,4|4,0:3|0:3,0:0:0:0:
195,313,94419,1,4,0:3:0:0:
195,313,94575,2,0,P|167:260|154:232,1,83.3333333333333,4|2,0:3|0:0,0:0:0:0:
201,134,95044,2,0,P|221:127|251:117,2,41.6666666666667,2|2|2,0:3|0:0|0:0,0:0:0:0:
285,41,95513,6,0,P|371:22|410:12,1,125,4|2,0:3|0:3,0:0:0:0:
494,129,96294,1,0,0:0:0:0:
494,129,96450,2,0,P|514:170|521:184,2,41.6666666666667,4|0|2,0:3|0:0|0:0,0:0:0:0:
454,224,96919,2,0,P|467:257|482:292,1,41.6666666666667,2|4,0:0|0:3,0:0:0:0:
296,278,97388,6,0,P|209:247|164:232,1,125,4|4,0:3|0:3,0:0:0:0:
106,352,98169,1,4,0:3:0:0:
106,352,98325,2,0,L|134:299,2,41.6666666666667,2|2|2,0:3|0:0|0:0,0:0:0:0:
60,256,98793,2,0,L|87:202,2,41.6666666666667,2|2|4,0:0|0:0|0:3,0:0:0:0:
87,118,99263,6,0,P|136:154|211:136,1,125,4|2,0:3|0:3,0:0:0:0:
268,8,100044,1,0,0:0:0:0:
268,8,100200,2,0,L|340:6,1,41.6666666666667,4|0,0:3|0:0,0:0:0:0:
380,91,100513,2,0,L|452:92,2,41.6666666666667,4|2|4,0:3|0:3|0:3,0:0:0:0:
499,23,100981,1,2,0:0:0:0:
499,23,101138,6,0,P|495:118|494:173,1,125,4|2,0:3|0:3,0:0:0:0:
499,270,101919,1,0,0:0:0:0:
499,270,102075,2,0,P|438:258|399:277,1,83.3333333333333,4|2,0:3|0:0,0:0:0:0:
289,321,102544,1,2,0:3:0:0:
289,321,102700,2,0,P|290:278|285:254,1,41.6666666666667,2|4,0:0|0:3,0:0:0:0:
337,167,103013,6,0,P|283:176|199:194,1,125,4|2,0:3|0:3,0:0:0:0:
104,95,103794,1,0,0:0:0:0:
104,95,103950,2,0,L|107:42,1,41.6666666666667,2|2,0:0|0:0,0:0:0:0:
213,47,104263,1,2,0:0:0:0:
213,47,104419,2,0,L|258:13,1,41.6666666666667,2|2,0:0|0:0,0:0:0:0:
352,28,104731,1,2,0:0:0:0:
352,28,104888,6,0,P|391:55|432:29,1,100,6|0,0:0|0:0,0:0:0:0:
477,157,105669,1,2,0:0:0:0:
477,157,105825,2,0,P|465:204|459:252,1,66.6666666666667,4|2,0:3|0:0,0:0:0:0:
374,232,106294,2,0,P|321:231|297:232,1,66.6666666666667,2|2,0:0|0:0,0:0:0:0:
195,229,106763,6,0,P|184:182|214:118,1,100,6|2,0:0|0:0,0:0:0:0:
346,93,107544,1,2,0:0:0:0:
346,93,107700,2,0,P|396:98|473:87,1,100,14|2,0:3|0:0,0:0:0:0:
305,244,108638,6,0,P|228:246|182:247,1,100,6|2,0:0|0:0,0:0:0:0:
70,329,109419,1,2,0:0:0:0:
70,329,109575,2,0,P|64:253|58:217,1,100,14|2,0:3|0:0,0:0:0:0:
51,133,110200,1,2,0:0:0:0:
51,133,110356,1,2,0:0:0:0:
51,133,110513,6,0,P|116:109|143:89,1,100,14|4,0:3|0:3,0:0:0:0:
287,25,111294,1,2,0:0:0:0:
287,25,111450,2,0,P|356:50|400:51,1,100,6|2,0:0|0:3,0:0:0:0:
480,70,112075,1,2,0:0:0:0:
453,242,112388,6,0,P|404:169|386:144,1,100,6|2,0:0|0:0,0:0:0:0:
255,237,113169,1,2,0:0:0:0:
255,237,113325,2,0,P|190:266|162:264,1,100,4|2,0:3|0:0,0:0:0:0:
181,142,113950,1,2,0:0:0:0:
63,262,114263,6,0,P|105:257|164:264,1,100,6|4,0:0|0:3,0:0:0:0:
272,294,114888,1,2,0:0:0:0:
272,294,115044,1,2,0:0:0:0:
272,294,115200,2,0,P|311:267|331:194,1,100,6|2,0:3|0:3,0:0:0:0:
370,138,115825,1,0,0:0:0:0:
272,294,116138,6,0,P|214:343|177:371,1,100,6|2,0:0|0:0,0:0:0:0:
261,212,116919,1,2,0:0:0:0:
261,212,117075,2,0,P|295:186|335:156,2,66.6666666666667,6|0|2,0:3|0:0|0:0,0:0:0:0:
106,231,118013,6,0,P|47:259|24:269,2,66.6666666666667,6|2|2,0:3|0:0|0:0,0:0:0:0:
163,319,118794,1,2,0:0:0:0:
203,206,118950,2,0,P|190:139|186:112,1,66.6666666666667,4|0,0:3|0:0,0:0:0:0:
64,76,119419,1,4,0:3:0:0:
64,76,119575,1,2,0:3:0:0:
203,206,119888,6,0,P|304:200|327:198,1,125,6|2,0:0|0:3,0:0:0:0:
422,279,120669,1,0,0:0:0:0:
422,279,120825,2,0,L|426:345,2,41.6666666666667,2|0|2,0:0|0:0|0:3,0:0:0:0:
475,197,121294,2,0,L|470:144,2,41.6666666666667,2|4|4,0:3|0:3|0:3,0:0:0:0:
483,53,121763,6,0,P|379:71|339:77,1,125,4|2,0:3|0:0,0:0:0:0:
189,40,122544,1,6,0:3:0:0:
189,40,122700,2,0,L|239:32,1,41.6666666666667,2|0,0:0|0:0,0:0:0:0:
138,130,123013,2,0,L|66:138,1,41.6666666666667,0|2,0:0|0:0,0:0:0:0:
45,238,123325,1,4,0:3:0:0:
45,238,123481,1,2,0:0:0:0:
138,358,123638,6,0,P|134:264|130:218,1,125,6|4,0:0|0:3,0:0:0:0:
265,180,124419,1,0,0:0:0:0:
265,180,124575,2,0,L|190:188,2,41.6666666666667,4|2|4,0:3|0:0|0:3,0:0:0:0:
394,165,125044,1,2,0:0:0:0:
318,72,125200,1,4,0:3:0:0:
318,72,125356,1,4,0:3:0:0:
331,253,125513,6,0,P|334:348|335:393,1,125,6|4,0:0|0:3,0:0:0:0:
414,253,126138,1,2,0:0:0:0:
414,253,126294,1,2,0:0:0:0:
228,253,126450,2,0,P|167:255|136:254,2,83.3333333333333,4|0|2,0:3|0:0|0:0,0:0:0:0:
50,298,127388,6,0,P|51:199|49:154,1,125,6|6,0:0|0:3,0:0:0:0:
4,22,128169,1,4,0:3:0:0:
116,77,128325,2,0,P|173:77|213:19,1,125,4|2,0:3|0:3,0:0:0:0:
212,146,128950,2,0,L|217:203,1,41.6666666666667,2|0,0:0|0:0,0:0:0:0:
311,280,129263,6,0,P|304:182|303:144,1,125,4|6,0:3|0:3,0:0:0:0:
377,53,129888,2,0,L|315:58,1,41.6666666666667,2|2,0:0|0:0,0:0:0:0:
303,155,130200,2,0,L|372:153,2,41.6666666666667,4|0|4,0:3|0:0|0:3,0:0:0:0:
207,134,130669,2,0,L|140:136,1,41.6666666666667,2|4,0:3|0:3,0:0:0:0:
62,141,130981,1,2,0:0:0:0:
191,249,131138,6,0,P|278:245|338:242,1,125,4|6,0:3|0:3,0:0:0:0:
177,342,131919,1,0,0:0:0:0:
177,342,132075,2,0,P|117:259|88:222,1,125,4|6,0:3|0:3,0:0:0:0:
43,160,132700,1,2,0:0:0:0:
43,160,132856,1,4,0:3:0:0:
145,113,133013,6,0,P|183:130|233:101,1,83.3333333333333,12|0,0:3|0:0,0:0:0:0:
284,46,133481,2,0,P|324:37|362:59,1,83.3333333333333,14|0,0:3|0:0,0:0:0:0:
449,153,133950,2,0,P|446:227|376:263,1,125,12|6,0:3|0:3,0:0:0:0:
318,266,134575,1,4,0:3:0:0:
449,153,134888,6,0,P|464:50|468:20,1,125,4|6,0:3|0:3,0:0:0:0:
295,52,135669,1,4,0:3:0:0:
348,164,135825,2,0,P|309:250|332:279,1,125,4|6,0:3|0:3,0:0:0:0:
279,368,136450,2,0,L|212:366,1,41.6666666666667,2|2,0:0|0:0,0:0:0:0:
319,267,136763,6,0,P|421:267|456:268,1,125,4|6,0:3|0:3,0:0:0:0:
473,162,137388,1,2,0:0:0:0:
473,162,137544,1,2,0:0:0:0:
347,160,137700,2,0,P|339:110|335:76,1,83.3333333333333,4|4,0:3|0:3,0:0:0:0:
249,27,138169,1,2,0:3:0:0:
174,101,138325,1,4,0:3:0:0:
174,101,138481,1,2,0:0:0:0:
282,132,138638,6,0,P|368:95|403:80,1,125,4|6,0:3|0:3,0:0:0:0:
277,218,139419,1,0,0:0:0:0:
277,218,139575,2,0,P|179:255|134:271,1,125,4|6,0:3|0:3,0:0:0:0:
266,333,140200,1,2,0:0:0:0:
266,333,140356,1,4,0:3:0:0:
367,273,140513,6,0,L|443:197,1,83.3333333333333,14|0,0:3|0:0,0:0:0:0:
344,88,140981,2,0,L|255:119,1,83.3333333333333,14|0,0:3|0:0,0:0:0:0:
204,203,141450,2,0,L|262:290,1,83.3333333333333,14|0,0:3|0:0,0:0:0:0:
330,191,141919,2,0,L|417:130,1,83.3333333333333,14|0,0:3|0:0,0:0:0:0:
480,85,142388,6,0,P|446:66|489:69,1,100,4|2,0:0|0:3,0:0:0:0:
366,40,143169,1,2,0:0:0:0:
366,40,143325,2,0,P|291:47|257:38,1,100,2|2,0:0|0:3,0:0:0:0:
183,22,143950,1,2,0:0:0:0:
250,155,144263,6,0,P|331:154|350:154,1,100,2|2,0:0|0:3,0:0:0:0:
455,75,145044,1,2,0:0:0:0:
455,75,145200,2,0,P|458:22|460:-3,2,66.6666666666667,0|0|2,0:0|0:0|0:3,0:0:0:0:
428,195,146138,6,0,P|409:273|415:320,1,100,2|2,0:0|0:3,0:0:0:0:
269,340,146919,1,0,0:0:0:0:
269,340,147075,2,0,P|186:336|151:343,1,100,2|2,0:0|0:3,0:0:0:0:
92,355,147700,1,2,0:0:0:0:
92,355,147857,1,2,0:0:0:0:
67,243,148013,6,0,P|63:177|87:164,2,100,2|2|4,0:0|0:0|0:3,0:0:0:0:
183,239,149106,2,0,P|200:239|238:236,2,33.3333333333333,2|4|2,0:3|0:3|0:3,0:0:0:0:
85,164,149574,1,2,0:3:0:0:
85,164,149731,1,2,0:3:0:0:
241,150,149888,6,0,P|341:150|382:148,1,125,6|6,0:0|0:3,0:0:0:0:
469,251,150669,1,4,0:3:0:0:
469,251,150825,2,0,P|490:152|503:98,1,125,4|2,0:3|0:3,0:0:0:0:
373,33,151450,2,0,L|435:45,1,41.6666666666667,2|0,0:0|0:0,0:0:0:0:
365,148,151763,6,0,P|267:131|230:125,1,125,4|6,0:3|0:3,0:0:0:0:
145,119,152388,2,0,L|126:182,1,41.6666666666667,2|2,0:0|0:0,0:0:0:0:
241,126,152700,2,0,L|255:62,2,41.6666666666667,4|0|4,0:3|0:0|0:3,0:0:0:0:
195,221,153169,2,0,L|178:288,1,41.6666666666667,2|4,0:3|0:3,0:0:0:0:
150,366,153481,1,2,0:0:0:0:
284,295,153638,6,0,P|306:206|314:196,1,83.3333333333333,4|0,0:3|0:0,0:0:0:0:
408,229,154106,2,0,P|480:229|503:236,1,83.3333333333333,6|0,0:3|0:0,0:0:0:0:
413,134,154575,2,0,P|349:134|311:122,1,83.3333333333333,4|0,0:3|0:0,0:0:0:0:
236,94,155044,1,6,0:3:0:0:
236,94,155200,1,2,0:3:0:0:
285,296,155513,6,0,P|345:301|402:309,1,83.3333333333333,14|2,0:3|0:0,0:0:0:0:
226,227,155981,2,0,P|157:220|127:218,1,83.3333333333333,14|2,0:3|0:0,0:0:0:0:
300,163,156450,2,0,P|366:168|391:169,1,83.3333333333333,14|2,0:3|0:0,0:0:0:0:
182,99,156919,1,2,0:0:0:0:
286,297,157388,5,6,0:0:0:0:
383,168,157856,1,8,0:3:0:0:
263,79,158169,1,2,0:3:0:0:
263,79,158325,2,0,L|225:41,2,41.6666666666667,6|0|8,0:3|0:0|0:3,0:0:0:0:
376,65,158794,2,0,L|423:102,2,41.6666666666667,8|6|2,0:3|0:3|0:0,0:0:0:0:
263,79,159263,6,0,P|186:143|156:168,1,125,6|2,0:0|0:0,0:0:0:0:
289,227,160044,1,2,0:0:0:0:
289,227,160200,2,0,L|248:188,2,41.6666666666667,6|2|2,0:3|0:3|0:3,0:0:0:0:
361,190,160669,2,0,L|389:222,2,41.6666666666667,2|6|0,0:3|0:3|0:0,0:0:0:0:
400,304,161138,6,0,P|322:357|289:379,1,125,6|12,0:0|0:3,0:0:0:0:
203,283,161919,1,2,0:3:0:0:
203,283,162075,2,0,L|240:325,2,41.6666666666667,6|0|8,0:3|0:0|0:3,0:0:0:0:
111,321,162544,2,0,L|69:273,1,41.6666666666667,8|8,0:3|0:3,0:0:0:0:
30,210,162856,1,2,0:0:0:0:
58,84,163013,6,0,P|102:101|160:119,1,83.3333333333333,6|0,0:0|0:0,0:0:0:0:
222,59,163481,2,0,P|264:50|314:39,1,83.3333333333333,2|2,0:3|0:0,0:0:0:0:
271,144,163950,2,0,P|271:190|301:224,1,83.3333333333333,12|2,0:3|0:0,0:0:0:0:
404,241,164419,2,0,P|402:213|393:195,2,41.6666666666667,2|6|4,0:0|0:3|0:3,0:0:0:0:
369,350,164888,6,0,P|318:345|262:367,1,83.3333333333333,6|0,0:0|0:0,0:0:0:0:
198,348,165356,2,0,P|165:343|131:303,1,83.3333333333333,2|2,0:3|0:0,0:0:0:0:
112,211,165825,2,0,P|111:169|112:112,1,83.3333333333333,14|2,0:3|0:0,0:0:0:0:
197,105,166294,2,0,L|197:154,2,41.6666666666667,2|2|2,0:0|0:0|0:0,0:0:0:0:
200,24,166763,5,2,0:0:0:0:
200,24,170513,5,2,0:0:0:0:
200,24,170860,2,0,L|141:23,2,45.8333347320557,0|2|2,0:0|0:0|0:0,0:0:0:0:
205,102,171382,1,2,0:0:0:0:
205,102,171556,2,0,L|151:102,2,45.8333347320557,2|2|2,0:0|0:0|0:0,0:0:0:0:
284,102,172078,1,2,0:0:0:0:
283,19,172252,1,2,0:0:0:0:
365,15,172426,1,2,0:0:0:0:
366,104,172599,1,2,0:0:0:0:
205,102,172947,5,0,0:0:0:0:
205,102,173121,2,0,L|205:150,2,45.8333347320557,2|2|2,0:0|0:0|0:0,0:0:0:0:
285,105,173643,2,0,L|285:155,2,45.8333347320557,0|2|2,0:0|0:0|0:0,0:0:0:0:
368,104,174165,1,2,0:0:0:0:
369,186,174339,1,2,0:0:0:0:
282,185,174513,1,2,0:0:0:0:
285,105,174686,1,2,0:0:0:0:
369,186,175034,5,0,0:0:0:0:
369,186,175208,2,0,L|429:186,2,45.8333347320557,2|2|2,0:0|0:0|0:0,0:0:0:0:
368,266,175730,2,0,L|428:266,2,45.8333347320557,2|2|2,0:0|0:0|0:0,0:0:0:0:
279,267,176252,1,2,0:0:0:0:
279,184,176425,1,2,0:0:0:0:
364,184,176599,1,2,0:0:0:0:
446,184,176773,1,2,0:0:0:0:
446,270,176947,1,2,0:0:0:0:
276,353,177295,5,2,0:0:0:0:
445,353,177643,5,2,0:0:0:0:
445,353,177817,2,0,L|387:353,1,45.8333347320557,2|2,0:0|0:0,0:0:0:0:
277,183,178339,1,2,0:0:0:0:
276,353,178686,1,2,0:0:0:0:
366,355,178860,5,2,0:0:0:0:
448,354,179034,1,2,0:0:0:0:
446,184,179382,1,2,0:0:0:0:
280,271,179730,1,2,0:0:0:0:
278,183,179904,1,2,0:0:0:0:
358,183,180078,1,2,0:0:0:0:
448,354,180426,6,0,L|449:319,2,22.9166673660279,2|2|0,0:0|0:3|0:0,0:0:0:0:
