osu file format v14

[General]
AudioFilename: audio.mp3
AudioLeadIn: 0
PreviewTime: 126450
Countdown: 0
SampleSet: Soft
StackLeniency: 0.7
Mode: 0
LetterboxInBreaks: 0
WidescreenStoryboard: 1

[Editor]
DistanceSpacing: 1.2
BeatDivisor: 6
GridSize: 16
TimelineZoom: 1

[Metadata]
Title:Mythic set ~ Heart-Stirring Urban Legends
TitleUnicode:Mythic set 〜 心揺さぶる都市伝説
Artist:Rin
ArtistUnicode:凛
Creator:Hailie
Version:Advanced
Source:東方深秘録 ~ Urban Legend in Limbo.
Tags:touhou shinpiroku th14.5 心揺さぶる都市伝説 東方深秘録 ZUN
BeatmapID:1542301
BeatmapSetID:729705

[Difficulty]
HPDrainRate:4.5
CircleSize:3.3
OverallDifficulty:6
ApproachRate:7
SliderMultiplier:1.15
SliderTickRate:1

[Events]
//Background and Video events
0,0,"bg..jpg",0,0
//Break Periods
//Storyboard Layer 0 (Background)
//Storyboard Layer 1 (Fail)
//Storyboard Layer 2 (Pass)
//Storyboard Layer 3 (Foreground)
//Storyboard Sound Samples

[TimingPoints]
58740,540.540540540541,4,2,0,30,1,0
59100,-66.6666666666667,4,2,0,30,0,0
67388,468.75,4,2,0,50,1,0
89888,-100,4,2,0,60,0,1
90356,-100,4,2,0,60,0,0
104888,-100,4,2,0,45,0,1
105356,-100,4,2,0,45,0,0
119888,-100,4,2,0,60,0,1
120356,-100,4,2,0,60,0,0
127388,-100,4,2,0,70,0,1
142231,-100,4,2,0,70,0,0
142388,-100,4,2,0,50,0,1
142856,-100,4,2,0,50,0,0
149888,-100,4,2,0,70,0,1
156919,-100,4,2,0,70,0,0
157388,-100,4,2,0,60,0,1
157856,-100,4,2,0,60,0,0
166763,-100,4,2,0,60,0,0
170513,521.739130434783,4,2,0,20,1,0
170860,-76.9230769230769,4,2,0,20,0,0
180513,-76.9230769230769,4,2,0,70,0,0

[Colours]
Combo1 : 7,7,184
Combo2 : 142,6,142
Combo3 : 128,64,64
Combo4 : 250,5,5

[HitObjects]
65,62,58739,5,2,0:0:0:0:
202,39,59100,2,0,P|241:35|270:32,2,57.5,2|2|2,0:0|0:0|0:0,0:0:0:0:
164,97,59640,1,2,0:0:0:0:
164,97,59821,2,0,P|118:103|84:107,2,57.500002193451,2|2|2,0:0|0:0|0:0,0:0:0:0:
191,160,60361,1,2,0:0:0:0:
191,160,60541,2,0,P|206:258|211:284,1,115.000004386902,2|2,0:0|0:0,0:0:0:0:
362,212,61442,6,0,L|289:226,2,57.5,2|2|2,0:0|0:0|0:0,0:0:0:0:
404,157,61983,1,2,0:0:0:0:
404,157,62163,2,0,L|476:143,2,57.5,2|2|2,0:0|0:0|0:0,0:0:0:0:
341,128,62703,2,0,P|262:88|223:69,1,115,2|2,0:0|0:0,0:0:0:0:
133,218,63604,6,0,L|204:219,2,57.5,2|2|2,0:0|0:0|0:0,0:0:0:0:
80,262,64145,1,2,0:0:0:0:
80,262,64325,2,0,L|14:261,2,57.5,2|2|2,0:0|0:0|0:0,0:0:0:0:
127,312,64866,6,0,P|203:310|265:311,1,115,2|2,0:0|0:0,0:0:0:0:
299,309,65406,1,2,0:0:0:0:
304,193,65767,1,2,0:0:0:0:
185,189,66127,2,0,L|184:130,2,57.5,2|2|2,0:0|0:0|0:0,0:0:0:0:
304,193,66848,1,2,0:0:0:0:
306,78,67208,1,2,0:0:0:0:
306,78,67388,6,0,P|384:81|420:80,1,115,6|10,0:0|0:3,0:0:0:0:
443,169,68169,1,2,0:3:0:0:
443,214,68325,2,0,P|392:281|367:322,1,115,6|8,0:3|0:3,0:0:0:0:
347,343,68950,1,6,0:3:0:0:
255,350,69263,6,0,P|160:344|122:344,1,115,6|2,0:0|0:0,0:0:0:0:
27,263,70200,2,0,P|26:226|26:194,2,38.3333333333333,6|2|2,0:3|0:3|0:3,0:0:0:0:
72,271,70669,2,0,P|70:310|71:324,2,38.3333333333333,2|6|0,0:3|0:3|0:0,0:0:0:0:
117,265,71138,6,0,P|211:262|250:262,1,115,6|10,0:0|0:3,0:0:0:0:
310,308,71919,1,8,0:3:0:0:
317,262,72075,2,0,P|308:173|306:118,1,115,6|8,0:3|0:3,0:0:0:0:
336,112,72700,1,8,0:3:0:0:
256,65,73013,6,0,P|166:71|137:86,1,115,4|8,0:3|0:3,0:0:0:0:
75,141,73794,1,2,0:0:0:0:
113,158,73950,2,0,P|201:158|237:139,1,115,10|4,0:3|0:3,0:0:0:0:
259,124,74575,1,2,0:3:0:0:
278,214,74888,6,0,P|258:338|254:361,1,115,6|4,0:0|0:3,0:0:0:0:
168,338,75669,2,0,P|130:341|105:343,2,38.3333333333333,4|4|2,0:3|0:3|0:3,0:0:0:0:
259,327,76294,1,2,0:3:0:0:
195,260,76606,1,2,0:0:0:0:
195,260,76763,6,0,P|171:207|190:144,2,115,4|2|4,0:3|0:3|0:3,0:0:0:0:
279,223,78013,1,4,0:3:0:0:
364,189,78325,1,4,0:3:0:0:
452,161,78638,6,0,P|436:270|433:300,1,115,4|8,0:3|0:3,0:0:0:0:
356,322,79419,2,0,L|293:324,2,38.3333333333333,0|4|2,0:0|0:3|0:0,0:0:0:0:
435,274,80044,1,4,0:3:0:0:
350,238,80356,1,4,0:3:0:0:
350,238,80513,6,0,P|251:247|204:251,1,115,4|2,0:3|0:3,0:0:0:0:
152,207,81294,1,0,0:0:0:0:
151,161,81450,2,0,P|185:83|204:45,1,115,4|2,0:3|0:0,0:0:0:0:
242,40,82075,1,4,0:3:0:0:
291,118,82388,6,0,P|371:147|399:155,1,115,6|4,0:3|0:3,0:0:0:0:
483,193,83169,2,0,L|491:154,2,38.3333333333333,4|4|2,0:3|0:3|0:3,0:0:0:0:
484,239,83638,2,0,L|472:289,2,38.3333333333333,2|4|2,0:0|0:3|0:0,0:0:0:0:
391,240,84263,6,0,P|286:261|263:266,2,115,4|2|4,0:3|0:3|0:3,0:0:0:0:
342,161,85513,1,4,0:3:0:0:
290,84,85825,1,4,0:3:0:0:
237,8,86138,6,0,P|154:74|126:98,2,115,2|2|4,0:3|0:3|0:3,0:0:0:0:
317,53,87388,2,0,L|371:17,2,38.3333333333333,2|2|4,0:3|0:3|0:3,0:0:0:0:
260,125,88013,6,0,P|236:239|231:260,1,115,6|4,0:3|0:3,0:0:0:0:
159,287,88794,1,2,0:3:0:0:
159,287,88950,2,0,L|141:232,2,38.3333333333333,4|2|2,0:3|0:0|0:0,0:0:0:0:
127,320,89419,2,0,L|114:283,2,38.3333333333333,2|2|2,0:0|0:0|0:0,0:0:0:0:
84,337,89888,6,0,P|22:336|-12:271,1,115,6|2,0:0|0:3,0:0:0:0:
5,206,90669,2,0,P|32:204|67:204,2,38.3333333333333,4|2|4,0:3|0:3|0:3,0:0:0:0:
39,120,91294,2,0,L|144:114,1,76.6666666666667,2|2,0:3|0:0,0:0:0:0:
161,120,91763,6,0,P|181:202|191:239,2,115,4|2|12,0:3|0:3|0:3,0:0:0:0:
253,118,93013,1,4,0:3:0:0:
344,118,93325,1,10,0:3:0:0:
435,115,93638,6,0,P|459:29|472:-16,1,115,4|4,0:3|0:3,0:0:0:0:
373,4,94419,2,0,L|360:56,2,38.3333333333333,4|4|0,0:3|0:3|0:0,0:0:0:0:
280,5,95044,1,2,0:3:0:0:
298,95,95356,1,2,0:0:0:0:
298,95,95513,6,0,P|236:162|205:198,1,115,4|2,0:3|0:3,0:0:0:0:
130,182,96294,1,0,0:0:0:0:
116,226,96450,2,0,P|162:315|177:338,1,115,4|2,0:3|0:0,0:0:0:0:
209,350,97075,1,4,0:3:0:0:
298,373,97388,6,0,P|363:287|384:261,1,115,4|4,0:3|0:3,0:0:0:0:
432,216,98169,1,4,0:3:0:0:
432,216,98325,2,0,L|481:235,2,38.3333333333333,2|2|2,0:3|0:0|0:0,0:0:0:0:
418,171,98794,2,0,L|367:154,2,38.3333333333333,2|2|4,0:0|0:0|0:3,0:0:0:0:
450,137,99263,6,0,P|440:32|438:-1,2,115,4|2|4,0:3|0:3|0:3,0:0:0:0:
398,213,100513,1,4,0:3:0:0:
348,292,100825,1,4,0:3:0:0:
292,365,101138,6,0,P|214:332|171:336,2,115,4|2|4,0:3|0:3|0:3,0:0:0:0:
384,366,102388,1,2,0:0:0:0:
384,366,102544,2,0,P|412:366|447:366,2,38.3333333333333,2|2|4,0:3|0:0|0:3,0:0:0:0:
358,327,103013,6,0,P|332:220|324:185,1,115,4|2,0:3|0:3,0:0:0:0:
242,185,103794,1,0,0:0:0:0:
242,185,103950,2,0,L|196:194,2,38.3333333333333,2|2|2,0:0|0:0|0:0,0:0:0:0:
211,150,104419,2,0,L|155:162,2,38.3333333333333,2|2|2,0:0|0:0|0:0,0:0:0:0:
241,120,104888,6,0,P|222:69|250:18,1,115,6|0,0:0|0:0,0:0:0:0:
333,19,105669,1,2,0:0:0:0:
333,19,105825,2,0,P|395:10|430:2,2,76.6666666666667,4|2|2,0:3|0:0|0:0,0:0:0:0:
358,99,106763,2,0,P|332:200|326:225,1,115,6|2,0:0|0:0,0:0:0:0:
332,252,107388,1,2,0:0:0:0:
247,249,107700,2,0,P|183:317|154:349,1,115,14|2,0:3|0:0,0:0:0:0:
48,290,108638,6,0,P|20:245|61:202,1,115,6|2,0:0|0:0,0:0:0:0:
135,177,109419,1,2,0:0:0:0:
135,177,109575,2,0,P|191:194|224:203,2,76.6666666666667,14|2|2,0:3|0:0|0:0,0:0:0:0:
180,110,110513,2,0,P|272:133|318:143,1,115,14|4,0:3|0:3,0:0:0:0:
374,120,111294,1,2,0:0:0:0:
396,155,111450,2,0,P|347:263|340:280,1,115,6|2,0:0|0:3,0:0:0:0:
352,301,112075,1,2,0:0:0:0:
277,341,112388,6,0,P|186:336|161:345,1,115,6|2,0:0|0:0,0:0:0:0:
96,294,113169,1,2,0:0:0:0:
96,294,113325,2,0,P|71:239|55:197,2,76.6666666666667,4|0|2,0:3|0:0|0:0,0:0:0:0:
167,249,114263,2,0,P|248:247|301:248,1,115,6|4,0:0|0:3,0:0:0:0:
316,271,114888,1,2,0:0:0:0:
351,194,115200,2,0,P|311:122|290:82,1,115,6|2,0:3|0:3,0:0:0:0:
256,78,115825,1,0,0:0:0:0:
172,63,116138,6,0,P|113:80|51:58,1,115,6|2,0:0|0:0,0:0:0:0:
28,41,116763,1,0,0:0:0:0:
13,122,117075,2,0,B|-19:200,2,76.6666666666667,6|0|2,0:3|0:0|0:0,0:0:0:0:
97,117,118013,2,0,P|185:143|208:150,1,115,6|2,0:3|0:0,0:0:0:0:
248,133,118638,1,2,0:0:0:0:
298,199,118950,2,0,P|329:260|346:285,1,76.6666666666667,6|0,0:0|0:0,0:0:0:0:
365,293,119419,1,4,0:3:0:0:
413,163,119888,6,0,P|368:90|335:41,2,115,6|2|2,0:0|0:3|0:0,0:0:0:0:
365,241,121138,1,2,0:3:0:0:
308,313,121450,1,4,0:3:0:0:
255,384,121763,2,0,P|186:328|142:294,1,115,4|2,0:3|0:0,0:0:0:0:
96,250,122544,1,6,0:3:0:0:
67,214,122700,2,0,P|56:148|53:124,1,76.6666666666667,2|0,0:0|0:0,0:0:0:0:
48,92,123169,1,2,0:0:0:0:
48,92,123325,1,4,0:3:0:0:
130,88,123638,6,0,P|220:90|264:91,2,115,6|4|4,0:0|0:3|0:3,0:0:0:0:
156,176,124888,1,4,0:3:0:0:
184,263,125200,1,4,0:3:0:0:
214,349,125513,2,0,P|137:367|76:382,1,115,6|4,0:0|0:3,0:0:0:0:
47,248,126450,6,0,P|24:184|11:144,2,76.6666666666667,4|0|2,0:3|0:0|0:0,0:0:0:0:
150,217,127388,6,0,P|214:273|255:308,1,115,6|6,0:0|0:3,0:0:0:0:
333,338,128169,1,4,0:3:0:0:
386,330,128325,2,0,P|425:248|447:199,1,115,4|2,0:3|0:3,0:0:0:0:
488,220,128950,1,2,0:0:0:0:
473,113,129263,6,0,P|428:35|403:-8,1,115,4|6,0:3|0:3,0:0:0:0:
365,33,129888,2,0,P|334:72|311:98,1,76.6666666666667,2|4,0:0|0:3,0:0:0:0:
208,102,130513,1,4,0:3:0:0:
101,112,130825,1,4,0:3:0:0:
46,204,131138,6,0,P|98:274|117:302,1,115,4|6,0:3|0:3,0:0:0:0:
206,351,131919,1,0,0:0:0:0:
259,350,132075,2,0,P|285:256|299:214,1,115,4|6,0:3|0:3,0:0:0:0:
317,192,132700,1,2,0:0:0:0:
317,192,132856,1,4,0:3:0:0:
317,192,133013,6,0,P|229:164|202:177,2,115,12|14|12,0:3|0:3|0:3,0:0:0:0:
421,165,134263,1,4,0:3:0:0:
344,90,134575,1,4,0:3:0:0:
316,190,134888,6,0,P|269:272|247:308,1,115,4|6,0:3|0:3,0:0:0:0:
168,348,135669,1,4,0:3:0:0:
144,299,135825,2,0,P|77:244|44:217,1,115,4|6,0:3|0:3,0:0:0:0:
4,244,136450,1,2,0:0:0:0:
44,145,136763,6,0,P|95:58|105:38,1,115,4|6,0:3|0:3,0:0:0:0:
155,49,137388,2,0,P|185:107|200:133,1,76.6666666666667,2|4,0:0|0:3,0:0:0:0:
296,142,138013,1,4,0:3:0:0:
401,160,138325,1,4,0:3:0:0:
505,183,138638,6,0,P|440:242|399:276,2,115,4|6|4,0:3|0:3|0:3,0:0:0:0:
467,82,139888,1,0,0:0:0:0:
417,60,140044,2,0,P|341:60|319:58,1,76.6666666666667,6|4,0:3|0:3,0:0:0:0:
288,45,140513,2,0,L|259:165,2,115,14|14|14,0:3|0:3|0:3,0:0:0:0:
127,54,141919,1,14,0:3:0:0:
84,209,142388,6,0,P|156:269|184:291,1,115,4|2,0:0|0:3,0:0:0:0:
243,329,143169,1,2,0:0:0:0:
243,329,143325,2,0,P|288:301|346:333,1,115,2|2,0:0|0:3,0:0:0:0:
368,351,143950,1,2,0:0:0:0:
435,322,144263,6,0,P|443:226|447:198,2,115,2|2|2,0:0|0:3|0:0,0:0:0:0:
358,320,145513,1,0,0:0:0:0:
281,312,145825,1,2,0:3:0:0:
206,294,146138,6,0,P|115:349|90:361,2,115,2|2|2,0:0|0:3|0:0,0:0:0:0:
258,191,147544,1,2,0:3:0:0:
311,125,147856,1,2,0:0:0:0:
311,125,148013,6,0,P|252:108|196:134,1,115,2|2,0:0|0:0,0:0:0:0:
249,231,148950,2,0,P|247:287|247:329,1,76.6666666666667,4|4,0:3|0:3,0:0:0:0:
246,346,149419,1,2,0:3:0:0:
337,352,149731,1,2,0:3:0:0:
380,367,149888,6,0,P|461:349|511:337,1,115,6|6,0:0|0:3,0:0:0:0:
509,235,150669,1,4,0:3:0:0:
508,181,150825,2,0,P|487:77|478:33,1,115,4|2,0:3|0:3,0:0:0:0:
508,19,151450,1,2,0:0:0:0:
403,41,151763,6,0,P|302:58|256:65,1,115,4|6,0:3|0:3,0:0:0:0:
237,49,152388,2,0,P|176:24|156:16,1,76.6666666666667,2|4,0:0|0:3,0:0:0:0:
164,127,153013,1,4,0:3:0:0:
163,234,153325,1,4,0:3:0:0:
163,341,153638,6,0,P|258:307|291:296,1,115,4|6,0:3|0:3,0:0:0:0:
374,332,154419,1,0,0:0:0:0:
427,339,154575,2,0,P|443:256|452:204,1,115,4|6,0:3|0:3,0:0:0:0:
487,187,155200,1,2,0:3:0:0:
400,123,155513,5,14,0:3:0:0:
260,203,155981,1,14,0:3:0:0:
125,116,156450,1,14,0:3:0:0:
36,176,156763,1,2,0:0:0:0:
36,176,156919,1,2,0:0:0:0:
132,274,157388,6,0,P|193:223|227:193,1,115,6|8,0:0|0:3,0:0:0:0:
281,130,158169,1,2,0:3:0:0:
323,148,158325,2,0,P|356:249|371:288,1,115,6|8,0:3|0:3,0:0:0:0:
395,286,158950,1,6,0:3:0:0:
477,244,159263,6,0,P|485:149|489:112,1,115,6|2,0:0|0:0,0:0:0:0:
367,59,160200,2,0,P|336:58|304:58,2,38.3333333333333,6|2|2,0:3|0:3|0:3,0:0:0:0:
345,100,160669,2,0,P|305:98|283:98,2,38.3333333333333,2|6|0,0:3|0:3|0:0,0:0:0:0:
344,146,161138,6,0,P|322:233|310:279,1,115,6|12,0:0|0:3,0:0:0:0:
301,352,161919,1,2,0:3:0:0:
259,372,162075,2,0,P|155:370|130:370,1,115,6|8,0:3|0:3,0:0:0:0:
106,342,162700,1,8,0:3:0:0:
32,263,163013,6,0,P|12:185|23:142,1,115,6|2,0:0|0:3,0:0:0:0:
107,92,163794,1,2,0:0:0:0:
145,66,163950,2,0,P|237:51|268:59,1,115,12|2,0:3|0:0,0:0:0:0:
300,70,164575,1,6,0:3:0:0:
345,150,164888,6,0,P|338:240|337:282,1,115,6|2,0:0|0:3,0:0:0:0:
275,333,165669,1,2,0:0:0:0:
232,351,165825,2,0,P|139:332|111:324,1,115,14|2,0:3|0:0,0:0:0:0:
32,295,166606,1,2,0:0:0:0:
32,295,166763,1,2,0:0:0:0:
55,291,170513,5,2,0:0:0:0:
34,173,170860,2,0,P|31:135|28:111,2,49.8333310521445,2|2|2,0:0|0:0|0:0,0:0:0:0:
89,174,171382,1,2,0:0:0:0:
89,174,171556,2,0,P|95:220|96:232,2,49.8333310521445,2|2|2,0:0|0:0|0:0,0:0:0:0:
141,156,172078,2,0,P|239:141|266:135,1,99.6666621042889,2|2,0:0|0:0,0:0:0:0:
294,132,172600,1,2,0:0:0:0:
388,266,173121,6,0,L|398:325,2,49.8333310521445,2|2|2,0:0|0:0|0:0,0:0:0:0:
416,218,173643,1,2,0:0:0:0:
416,218,173817,2,0,L|404:151,2,49.8333310521445,2|2|2,0:0|0:0|0:0,0:0:0:0:
362,230,174339,2,0,P|272:240|241:243,1,99.6666621042889,2|2,0:0|0:0,0:0:0:0:
108,187,175208,6,0,L|105:134,2,49.8333310521445,2|2|2,0:0|0:0|0:0,0:0:0:0:
150,221,175730,1,2,0:0:0:0:
150,221,175904,2,0,L|153:278,2,49.8333310521445,2|2|2,0:0|0:0|0:0,0:0:0:0:
179,174,176426,6,0,P|255:172|305:172,1,99.6666621042889,2|2,0:0|0:0,0:0:0:0:
333,172,176947,1,2,0:0:0:0:
334,281,177295,1,2,0:0:0:0:
224,280,177643,2,0,L|156:280,2,49.8333310521445,2|0|2,0:0|0:0|0:0,0:0:0:0:
299,360,178339,2,0,P|373:359|429:357,1,99.6666621042889,2|2,0:0|0:0,0:0:0:0:
453,357,178860,5,2,0:0:0:0:
453,357,179034,1,2,0:0:0:0:
482,251,179382,2,0,P|475:168|474:136,1,99.6666621042889,2|2,0:0|0:0,0:0:0:0:
467,96,179904,1,2,0:0:0:0:
467,96,180078,1,2,0:0:0:0:
357,105,180426,6,0,L|319:108,2,24.9166655260722,2|2|0,0:0|0:3|0:0,0:0:0:0:
