osu file format v14

[General]
AudioFilename: audio.mp3
AudioLeadIn: 0
PreviewTime: 52864
Countdown: 0
SampleSet: Soft
StackLeniency: 0.7
Mode: 0
LetterboxInBreaks: 0
WidescreenStoryboard: 0

[Editor]
Bookmarks: 52982
DistanceSpacing: 1
BeatDivisor: 1
GridSize: 16
TimelineZoom: 1.5

[Metadata]
Title:Mythic set ~ Hanahazama no Battlefield
TitleUnicode:Mythic set 〜 華狭間のバトルフィールド
Artist:Rin
ArtistUnicode:凛
Creator:Aeril
Version:Lunatic
Source:東方深秘録 ~ Urban Legend in Limbo.
Tags:touhou project mappers’ guild featured artist fa kasen ibaraki theme zun shinpiroku osu!
BeatmapID:2121524
BeatmapSetID:1013620

[Difficulty]
HPDrainRate:6
CircleSize:4.5
OverallDifficulty:8
ApproachRate:8.7
SliderMultiplier:1.8
SliderTickRate:1

[Events]
//Background and Video events
0,0,"dot dot.jpg",0,0
//Break Periods
//Storyboard Layer 0 (Background)
//Storyboard Layer 1 (Fail)
//Storyboard Layer 2 (Pass)
//Storyboard Layer 3 (Foreground)
//Storyboard Layer 4 (Overlay)
//Storyboard Sound Samples

[TimingPoints]
482,468.75,4,2,1,55,1,0
14544,-100,4,2,1,55,0,0
15482,-125,4,2,1,60,0,0
29544,-125,4,2,1,55,0,0
30482,-100,4,2,1,65,0,0
37513,-250,4,2,1,65,0,0
37982,-100,4,2,1,65,0,0
45013,-76.9230769230769,4,2,1,65,0,0
45482,-100,4,2,1,70,0,0
46419,-83.3333333333333,4,2,1,70,0,0
47122,-100,4,2,1,70,0,0
50169,-83.3333333333333,4,2,1,70,0,0
50872,-100,4,2,1,70,0,0
52044,-50,4,2,1,65,0,0
52982,-83.3333333333333,4,2,1,60,0,0
58607,-111.111111111111,4,2,1,60,0,0
59075,-83.3333333333333,4,2,1,60,0,0
73607,-111.111111111111,4,2,1,60,0,0
74075,-83.3333333333333,4,2,1,60,0,0
82982,-100,4,2,1,65,0,0
90013,-250,4,2,1,65,0,0
90482,-100,4,2,1,65,0,0
97513,-76.9230769230769,4,2,1,65,0,0
97982,-83.3333333333333,4,2,1,70,0,0
105013,-250,4,2,1,70,0,0
105482,-83.3333333333333,4,2,1,70,0,0
112513,-250,4,2,1,70,0,0
112982,-90.9090909090909,4,2,1,75,0,0
113919,-71.4285714285714,4,2,1,75,0,0
118372,-100,4,2,1,75,0,0
119544,-50,4,2,1,70,0,0
120482,-83.3333333333333,4,2,1,65,0,0
126107,-111.111111111111,4,2,1,65,0,0
126575,-83.3333333333333,4,2,1,65,0,0
141107,-111.111111111111,4,2,1,65,0,0
141575,-83.3333333333333,4,2,1,65,0,0
150482,-166.666666666667,4,2,1,50,0,0
165482,-125,4,2,1,55,0,0
192435,-100,4,2,1,60,0,0
192903,-125,4,2,1,55,0,0
193607,-125,4,2,1,50,0,0
194544,-71.4285714285714,4,2,1,55,0,0
195482,-100,4,2,1,60,0,0
207669,-100,4,2,1,65,0,0
208607,-100,4,2,1,70,0,0
209544,-125,4,2,1,65,0,0
210013,-40,4,2,1,65,0,0
210482,-83.3333333333333,4,2,1,70,0,0
217513,-250,4,2,1,70,0,0
217982,-83.3333333333333,4,2,1,70,0,0
225013,-250,4,2,1,70,0,0
225482,-100,4,2,1,65,0,0
232513,-250,4,2,1,65,0,0
232982,-100,4,2,1,65,0,0
240013,-76.9230769230769,4,2,1,65,0,0
240482,-100,4,2,1,70,0,0
241419,-83.3333333333333,4,2,1,70,0,0
242122,-100,4,2,1,70,0,0
245169,-83.3333333333333,4,2,1,70,0,0
245872,-100,4,2,1,70,0,0
247044,-50,4,2,1,65,0,0
247982,-125,4,2,1,55,0,0
262982,-125,4,2,1,50,0,0
277044,-125,4,2,1,40,0,0

[Colours]
Combo1 : 194,50,151
Combo2 : 247,153,227
Combo3 : 198,26,73

[HitObjects]
412,30,14544,5,8,3:0:0:0:
446,243,14778,1,0,3:0:0:0:
400,263,14896,1,0,0:0:0:0:
404,273,15013,1,0,0:0:0:0:
445,253,15130,1,0,3:0:0:0:
418,323,15247,1,0,1:0:0:0:
475,92,15482,6,0,P|456:39|451:7,2,72,4|0|0,3:2|0:0|3:0,0:0:0:0:
346,158,16185,2,0,P|356:102|367:72,1,72,2|0,0:0|0:0,0:0:0:0:
499,318,16653,1,2,0:0:0:0:
499,318,16888,2,0,L|362:292,1,108,0|0,3:0|0:0,0:0:0:0:
401,286,17357,6,0,P|412:341|408:386,2,72,2|0|0,3:2|0:0|3:0,0:0:0:0:
284,221,18060,2,0,P|282:256|273:291,1,72,2|0,0:0|0:0,0:0:0:0:
111,255,18528,1,2,0:0:0:0:
111,255,18763,2,0,L|-7:276,1,108,0|0,3:0|0:0,0:0:0:0:
13,263,19232,6,0,P|15:318|6:359,1,72,2|0,3:0|0:0,0:0:0:0:
91,344,19583,2,0,L|128:353,1,36,2|0,0:0|0:0,0:0:0:0:
90,145,19935,2,0,P|125:206|131:232,1,72,0|0,3:0|0:0,0:0:0:0:
48,52,20403,1,2,0:0:0:0:
48,52,20638,2,0,L|167:36,1,108,0|0,3:0|0:0,0:0:0:0:
147,29,21107,6,0,P|138:72|138:103,2,72,2|0|0,3:2|0:0|3:0,0:0:0:0:
239,260,21810,1,2,0:0:0:0:
235,154,22044,2,0,P|249:111|276:79,1,72,2|0,3:0|0:0,0:0:0:0:
450,33,22513,2,0,L|402:41,1,36,0|0,3:0|0:0,0:0:0:0:
376,65,22747,2,0,L|327:60,1,36,0|0,3:0|0:0,0:0:0:0:
182,20,22982,6,0,P|128:30|109:44,2,72,4|0|0,3:1|0:0|3:0,0:0:0:0:
132,162,23685,2,0,P|80:144|56:147,1,72,2|0,0:0|0:0,0:0:0:0:
169,291,24153,1,2,3:2:0:0:
140,273,24271,1,0,1:0:0:0:
95,307,24388,2,0,L|111:386,1,72,0|0,3:0|0:0,0:0:0:0:
272,373,24857,6,0,P|292:332|301:290,2,72,2|0|0,3:2|0:0|3:0,0:0:0:0:
223,204,25560,2,0,P|217:168|203:135,1,72,2|0,0:0|0:0,0:0:0:0:
333,42,26028,1,2,3:2:0:0:
348,37,26146,1,0,1:0:0:0:
306,17,26263,2,0,L|299:101,1,72,0|0,3:0|0:0,0:0:0:0:
409,282,26732,5,2,3:0:0:0:
332,161,26966,2,0,L|373:172,1,36,2|0,0:0|0:0,0:0:0:0:
454,187,27200,2,0,P|405:191|367:209,2,72,0|0|0,3:0|1:0|3:0,0:0:0:0:
292,338,27903,1,2,0:0:0:0:
292,338,28138,2,0,L|283:210,1,108,0|0,3:0|0:0,0:0:0:0:
274,238,28607,6,0,L|279:321,1,72,0|0,3:0|0:0,0:0:0:0:
263,25,29310,1,2,0:0:0:0:
192,87,29544,5,4,3:0:0:0:
138,73,29661,1,8,3:0:0:0:
195,131,29778,1,8,3:0:0:0:
214,126,29896,1,4,3:0:0:0:
329,100,30013,5,4,3:1:0:0:
62,54,30247,1,4,3:0:0:0:
3,0,30482,2,0,B|18:70|18:70|0:111|0:111|6:185,1,180,4|2,3:1|0:0,0:0:0:0:
69,363,31185,1,0,3:0:0:0:
69,363,31419,2,0,P|49:305|58:256,1,90,4|0,3:0|0:0,0:0:0:0:
39,264,31771,2,0,P|70:312|162:289,1,135,2|0,0:0|3:0,0:0:0:0:
500,332,32357,6,0,B|436:336|436:336|401:366|401:366|319:359,1,180,8|2,3:0|0:2,0:0:0:0:
254,183,33060,1,0,3:0:0:0:
254,183,33294,2,0,P|230:238|235:282,1,90,4|0,3:0|1:0,0:0:0:0:
225,284,33646,2,0,P|278:253|380:278,1,135,2|2,3:2|0:3,0:0:0:0:
472,99,34232,6,0,P|488:47|491:6,1,90,4|0,3:1|3:0,0:0:0:0:
460,110,34583,2,0,P|461:134|465:154,1,45,0|0,1:0|3:0,0:0:0:0:
407,315,34935,1,2,0:0:0:0:
363,168,35169,6,0,P|328:116|293:92,1,90,4|0,3:0|3:0,0:0:0:0:
330,72,35521,2,0,P|329:108|333:135,1,45,0|0,1:0|3:0,0:0:0:0:
399,319,35872,1,2,0:0:0:0:
306,265,36107,6,0,P|274:267|205:292,1,90,8|0,3:0|3:0,0:0:0:0:
226,301,36458,2,0,P|253:306|282:301,1,45,0|0,1:0|3:0,0:0:0:0:
389,318,36810,1,2,0:0:0:0:
379,320,37044,2,0,P|435:334|483:331,1,90,0|0,3:0|0:0,0:0:0:0:
132,280,37513,2,2,P|94:296|76:312,1,54,4|0,3:2|0:0,0:0:0:0:
127,380,37982,6,0,B|137:308|137:308|162:275|162:275|167:196,1,180,4|2,3:1|0:0,0:0:0:0:
56,6,38685,1,0,3:0:0:0:
0,80,38919,2,0,P|32:97|101:98,1,90,4|0,3:0|0:0,0:0:0:0:
51,127,39271,2,0,P|117:111|215:108,1,135,2|0,0:0|3:0,0:0:0:0:
486,46,39857,6,0,B|422:47|422:47|371:65|371:65|299:52,1,180,8|2,3:0|0:0,0:0:0:0:
397,225,40560,1,0,3:0:0:0:
424,138,40794,2,0,P|415:118|395:94,1,45,2|0,3:3|0:0,0:0:0:0:
351,228,41028,1,2,1:3:0:0:
398,266,41146,1,0,3:0:0:0:
369,233,41263,2,0,P|369:296|357:340,1,90,4|0,3:0|0:0,0:0:0:0:
125,339,41732,6,0,P|90:349|41:379,2,60,4|2|0,0:1|0:0|0:0,0:0:0:0:
255,319,42200,2,0,L|138:299,1,90,2|0,3:0|0:0,0:0:0:0:
177,123,42669,6,0,P|158:97|146:41,1,60,2|0,3:2|0:0,0:0:0:0:
238,2,42982,1,2,0:0:0:0:
205,111,43138,2,0,L|217:236,1,120,2|2,3:0|0:0,0:0:0:0:
400,197,43607,5,0,3:0:0:0:
301,176,43763,1,2,0:0:0:0:
333,273,43919,1,0,0:0:0:0:
285,213,44075,2,0,B|385:200,1,90,2|0,3:3|3:0,0:0:0:0:
419,225,44427,1,2,0:0:0:0:
447,279,44544,5,0,1:0:0:0:
447,279,44661,1,0,3:0:0:0:
447,279,44778,1,0,1:0:0:0:
447,279,44896,1,0,3:0:0:0:
404,344,45013,2,2,B|400:311|400:311|422:206|422:206|414:129,1,175.499991966248,4|0,3:2|0:0,0:0:0:0:
390,50,45482,6,0,L|379:148,1,90,4|0,3:1|0:0,0:0:0:0:
246,24,45833,1,0,1:0:0:0:
266,0,45950,2,0,L|280:97,1,90,8|0,3:0|3:0,0:0:0:0:
102,263,46419,6,0,L|27:282,1,53.9999983520508,4|0,3:2|0:0,0:0:0:0:
187,224,46653,1,2,0:0:0:0:
176,309,46771,2,0,L|99:301,2,53.9999983520508,4|0|0,3:2|0:0|0:0,0:0:0:0:
36,358,47122,2,0,B|103:322|103:322|199:379,1,180,4|0,3:1|3:0,0:0:0:0:
336,298,47825,2,0,L|323:196,1,90,2|0,3:2|0:0,0:0:0:0:
317,201,48177,1,0,0:0:0:0:
310,192,48294,2,0,B|295:240|295:240|303:285,1,90,2|0,3:2|0:0,0:0:0:0:
253,51,48646,2,0,L|247:-15,1,45,2|4,0:0|0:0,0:0:0:0:
234,138,48997,1,0,3:0:0:0:
14,121,49232,5,4,3:0:0:0:
114,95,49466,1,0,3:0:0:0:
114,95,49583,1,0,1:0:0:0:
114,95,49700,1,8,3:0:0:0:
180,170,49935,1,0,3:0:0:0:
426,58,50169,6,0,L|415:-14,1,53.9999983520508,4|0,3:2|0:0,0:0:0:0:
337,96,50403,1,2,0:0:0:0:
366,183,50521,2,0,L|377:111,2,53.9999983520508,4|0|0,3:2|0:0|0:0,0:0:0:0:
393,43,50872,2,0,B|404:104|404:104|432:142|432:142|427:219,1,180,4|0,0:1|0:0,0:0:0:0:
18,352,52044,6,0,B|55:339|55:339|58:343|58:343|96:330|96:330|100:334|100:334|152:319,1,135,2|0,3:0|0:0,0:0:0:0:
154,327,52278,2,0,L|159:266,2,45,0|0|0,3:0|3:0|3:0,0:0:0:0:
24,201,52513,5,8,3:0:0:0:
127,162,52747,1,4,3:0:0:0:
511,297,52982,6,0,B|419:287|459:331|326:311,1,161.999995056153,4|0,0:0|0:0,0:0:0:0:
280,256,53450,2,0,P|351:274|392:308,1,107.999996704102,2|0,3:2|0:0,0:0:0:0:
470,168,53919,2,0,P|484:143|485:102,1,53.9999983520508,0|0,3:0|0:0,0:0:0:0:
400,65,54153,2,0,P|386:40|385:-1,1,53.9999983520508,2|0,0:0|3:0,0:0:0:0:
439,193,54388,2,0,L|432:328,1,107.999996704102,0|0,3:2|0:0,0:0:0:0:
126,378,54857,2,0,P|189:346|218:304,1,107.999996704102,0|0,3:0|0:0,0:0:0:0:
211,317,55208,1,0,0:0:0:0:
211,317,55325,1,2,3:2:0:0:
100,344,55560,1,2,0:0:0:0:
148,270,55794,1,0,3:0:0:0:
29,25,56028,6,0,L|40:88,1,53.9999983520508,4|0,3:0|3:0,0:0:0:0:
59,207,56263,2,0,L|48:270,1,53.9999983520508,8|0,3:0|1:0,0:0:0:0:
40,268,56497,1,0,3:0:0:0:
301,376,56732,6,0,B|302:363|292:349|292:349|301:361|301:361|321:332|261:307|294:225,1,161.999995056153,2|0,3:0|0:0,0:0:0:0:
320,259,57200,2,0,P|318:290|287:348,1,53.9999983520508,2|0,3:2|0:0,0:0:0:0:
177,349,57435,1,0,3:0:0:0:
262,153,57669,2,0,P|242:100|197:57,1,107.999996704102,0|0,3:0|0:0,0:0:0:0:
109,113,58021,1,0,3:0:0:0:
109,113,58138,2,0,P|172:109|236:66,1,107.999996704102,2|0,3:2|0:0,0:0:0:0:
501,54,58607,6,2,B|471:66|447:55|447:55|483:49|509:12,1,121.499996292114,2|0,0:3|0:0,0:0:0:0:
493,7,59075,2,0,L|476:271,1,215.999993408203,4|4,3:2|3:0,0:0:0:0:
266,312,59778,1,8,3:0:0:0:
424,324,60013,5,0,1:0:0:0:
413,326,60130,1,0,1:0:0:0:
426,334,60247,1,0,3:0:0:0:
416,337,60364,1,0,3:0:0:0:
352,384,60482,6,0,B|353:290|387:337|378:181,1,161.999995056153,4|0,3:2|0:0,0:0:0:0:
314,151,60950,2,0,P|359:188|414:200,1,107.999996704102,2|0,3:2|0:0,0:0:0:0:
276,44,61419,2,0,P|249:41|222:47,1,53.9999983520508,0|0,3:0|0:0,0:0:0:0:
90,102,61653,2,0,P|67:91|31:55,1,53.9999983520508,2|0,0:0|3:0,0:0:0:0:
189,27,61888,2,0,L|208:159,1,107.999996704102,0|0,3:0|0:0,0:0:0:0:
125,379,62357,2,0,P|149:311|150:254,1,107.999996704102,0|0,3:0|0:0,0:0:0:0:
151,275,62708,1,0,0:0:0:0:
151,275,62825,1,2,3:2:0:0:
77,370,63060,1,0,0:0:0:0:
392,379,63294,5,2,3:0:0:0:
381,320,63411,1,2,0:1:0:0:
377,349,63528,6,0,P|395:368|420:378,1,53.9999983520508,4|0,3:0|3:0,0:0:0:0:
489,338,63763,2,0,L|420:351,1,53.9999983520508,8|0,3:0|1:0,0:0:0:0:
196,294,63997,2,0,L|125:288,1,53.9999983520508,0|0,3:0|0:0,0:0:0:0:
70,346,64232,5,4,3:0:0:0:
21,57,64466,1,0,3:0:0:0:
21,57,64583,1,0,3:0:0:0:
2,135,64700,1,4,3:1:0:0:
63,301,64935,1,2,0:0:0:0:
176,363,65169,5,8,3:0:0:0:
231,311,65403,2,0,P|261:302|295:306,1,53.9999983520508,0|0,3:0|3:0,0:0:0:0:
474,378,65638,2,0,L|362:355,1,107.999996704102,4|0,0:0|0:0,0:0:0:0:
388,158,66107,6,0,P|406:182|421:244,1,71.9999978027344,2|0,3:2|0:0,0:0:0:0:
255,87,66419,1,2,0:0:0:0:
385,14,66575,5,4,3:1:0:0:
346,81,66732,1,2,0:0:0:0:
356,157,66888,1,2,0:0:0:0:
324,109,67044,5,0,3:0:0:0:
346,183,67278,1,0,3:0:0:0:
33,375,67513,6,0,P|38:349|30:298,1,53.9999983520508,4|0,3:0|0:0,0:0:0:0:
92,259,67747,2,0,P|83:233|50:193,1,53.9999983520508,8|0,3:0|0:0,0:0:0:0:
5,17,67982,6,0,B|5:114|45:61|38:201,1,161.999995056153,4|0,0:0|0:0,0:0:0:0:
104,106,68450,2,0,P|39:106|-13:83,1,107.999996704102,2|0,3:2|0:0,0:0:0:0:
213,68,68919,2,0,P|248:62|289:67,1,53.9999983520508,0|0,3:0|0:0,0:0:0:0:
423,125,69153,2,0,P|456:105|478:76,1,53.9999983520508,2|0,0:0|3:0,0:0:0:0:
296,32,69388,2,0,L|310:149,1,107.999996704102,0|0,3:2|0:0,0:0:0:0:
365,371,69857,2,0,P|374:288|399:240,1,107.999996704102,0|0,3:0|0:0,0:0:0:0:
383,266,70208,1,0,0:0:0:0:
383,266,70325,1,2,3:2:0:0:
318,384,70560,1,0,0:0:0:0:
410,362,70794,1,0,3:0:0:0:
434,19,71028,6,0,L|443:91,1,53.9999983520508,4|0,3:0|3:0,0:0:0:0:
487,210,71263,2,0,L|478:282,1,53.9999983520508,8|0,3:0|1:0,0:0:0:0:
472,272,71497,1,0,3:0:0:0:
236,48,71732,6,0,B|247:35|243:19|243:19|255:26|253:44|253:44|250:121|320:148,1,161.999995056153,2|0,3:0|0:0,0:0:0:0:
284,217,72200,2,0,P|279:189|265:158,1,53.9999983520508,2|0,3:2|0:0,0:0:0:0:
140,79,72435,1,0,3:0:0:0:
20,241,72669,2,0,P|93:217|140:179,1,107.999996704102,0|0,3:0|0:0,0:0:0:0:
41,276,73021,1,0,3:0:0:0:
41,276,73138,2,0,P|41:345|52:395,1,107.999996704102,2|0,3:2|0:0,0:0:0:0:
372,361,73607,6,2,B|384:331|376:293|376:293|367:332|320:349,1,121.499996292114,2|0,0:3|0:0,0:0:0:0:
361,347,74075,2,0,L|129:357,1,215.999993408203,4|4,3:2|3:0,0:0:0:0:
63,152,74778,1,8,3:0:0:0:
54,307,75013,5,0,1:0:0:0:
65,309,75130,1,0,1:0:0:0:
52,317,75247,1,0,3:0:0:0:
62,320,75364,1,0,3:0:0:0:
0,245,75482,6,0,B|90:245|58:287|157:281,1,161.999995056153,4|0,3:2|0:0,0:0:0:0:
170,146,75950,2,0,P|146:222|117:256,1,107.999996704102,2|0,3:2|0:0,0:0:0:0:
322,346,76419,2,0,P|353:338|397:341,1,53.9999983520508,0|0,3:0|0:0,0:0:0:0:
460,254,76653,2,0,P|491:262|535:259,1,53.9999983520508,2|0,0:0|3:0,0:0:0:0:
298,322,76888,2,0,L|170:313,1,107.999996704102,0|0,3:0|0:0,0:0:0:0:
125,153,77357,2,0,P|108:103|110:28,1,107.999996704102,0|0,3:0|0:0,0:0:0:0:
106,48,77708,1,0,0:0:0:0:
106,48,77825,1,2,3:2:0:0:
165,170,78060,1,0,0:0:0:0:
41,377,78294,5,2,3:0:0:0:
97,358,78411,1,2,0:1:0:0:
71,378,78528,6,0,P|79:341|75:307,1,53.9999983520508,4|0,3:0|3:0,0:0:0:0:
0,296,78763,2,0,L|91:317,1,53.9999983520508,8|0,3:0|1:0,0:0:0:0:
273,355,78997,2,0,L|364:334,1,53.9999983520508,0|0,3:0|0:0,0:0:0:0:
409,381,79232,5,4,3:0:0:0:
469,87,79466,1,0,3:0:0:0:
469,87,79583,1,0,3:0:0:0:
427,10,79700,1,4,3:1:0:0:
423,158,79935,1,2,0:0:0:0:
325,304,80169,5,8,3:0:0:0:
268,248,80403,2,0,P|260:207|267:163,1,53.9999983520508,0|0,3:0|3:0,0:0:0:0:
286,14,80638,2,0,L|304:141,1,107.999996704102,4|0,0:0|0:0,0:0:0:0:
153,319,81107,5,2,3:2:0:0:
95,255,81263,1,0,0:0:0:0:
11,275,81419,1,2,0:0:0:0:
119,297,81575,5,4,3:1:0:0:
55,262,81732,1,2,0:0:0:0:
117,224,81888,1,2,0:0:0:0:
100,268,82044,5,0,3:0:0:0:
100,268,82278,1,0,3:0:0:0:
50,59,82513,1,2,3:0:0:0:
50,59,82747,1,8,3:0:0:0:
0,212,82982,6,0,B|51:219|51:219|99:246|99:246|178:238,1,180,4|2,3:1|0:0,0:0:0:0:
420,365,83685,1,0,3:0:0:0:
420,365,83919,2,0,P|399:312|405:248,1,90,4|0,3:0|0:0,0:0:0:0:
407,293,84271,2,0,P|373:324|270:313,1,135,2|0,0:0|3:0,0:0:0:0:
282,9,84857,6,0,B|295:62|295:62|326:110|326:110|315:202,1,180,8|2,3:0|0:2,0:0:0:0:
38,211,85560,1,0,3:0:0:0:
38,211,85794,2,0,P|98:191|144:199,1,90,4|0,3:0|1:0,0:0:0:0:
143,186,86146,2,0,P|115:238|117:325,1,135,2|2,3:2|0:3,0:0:0:0:
245,98,86732,6,0,P|229:73|173:30,1,90,4|0,3:1|3:0,0:0:0:0:
289,84,87083,2,0,P|314:95|356:95,1,45,0|0,1:0|3:0,0:0:0:0:
492,40,87435,1,2,0:0:0:0:
386,188,87669,6,0,P|356:246|347:284,1,90,4|0,3:0|3:0,0:0:0:0:
376,348,88021,2,0,P|375:318|370:285,1,45,0|0,1:0|3:0,0:0:0:0:
359,108,88372,1,2,0:0:0:0:
239,184,88607,6,0,P|273:197|338:198,1,90,8|0,3:0|3:0,0:0:0:0:
315,216,88958,2,0,P|342:221|374:237,1,45,0|0,1:0|3:0,0:0:0:0:
478,297,89310,1,2,0:0:0:0:
462,284,89544,1,0,3:0:0:0:
359,315,89778,1,0,0:0:0:0:
444,67,90013,2,2,P|446:39|435:1,1,54,4|0,3:2|0:0,0:0:0:0:
506,110,90482,6,0,B|436:105|436:105|386:129|386:129|313:121,1,180,4|2,3:1|0:0,0:0:0:0:
64,98,91185,1,0,3:0:0:0:
153,37,91419,2,0,P|155:96|141:135,1,90,4|0,3:0|0:0,0:0:0:0:
169,131,91771,2,0,P|115:175|82:255,1,135,2|0,0:0|3:0,0:0:0:0:
318,384,92357,6,0,B|306:331|306:331|326:264|326:264|306:185,1,180,8|2,3:0|0:0,0:0:0:0:
87,290,93060,1,0,3:0:0:0:
163,337,93294,2,0,P|192:328|219:304,1,45,2|0,3:3|0:0,0:0:0:0:
411,299,93528,1,2,1:3:0:0:
356,278,93646,1,0,3:0:0:0:
394,309,93763,2,0,P|436:310|497:271,1,90,4|0,3:0|0:0,0:0:0:0:
416,120,94232,6,0,P|404:86|407:39,1,60,4|2,0:1|0:0,0:0:0:0:
479,5,94544,1,0,0:0:0:0:
451,151,94700,2,0,L|445:249,1,90,2|0,3:0|0:0,0:0:0:0:
281,147,95169,5,2,3:2:0:0:
208,183,95325,1,0,0:0:0:0:
133,150,95482,1,2,0:0:0:0:
247,159,95638,2,0,L|258:292,1,120,2|2,3:0|0:0,0:0:0:0:
119,384,96107,5,0,3:0:0:0:
24,335,96263,1,2,0:0:0:0:
110,359,96419,1,0,0:0:0:0:
165,237,96575,2,0,L|176:127,1,90,2|0,3:3|3:0,0:0:0:0:
169,93,96927,1,2,0:0:0:0:
133,75,97044,5,0,1:0:0:0:
133,75,97161,1,0,3:0:0:0:
133,75,97278,1,0,1:0:0:0:
133,75,97396,1,0,3:0:0:0:
157,0,97513,2,2,B|166:33|166:33|147:135|147:135|169:210,1,175.499991966248,4|0,3:2|0:0,0:0:0:0:
115,260,97982,6,0,B|52:274|52:274|8:256,1,107.999996704102,4|0,3:1|0:0,0:0:0:0:
134,189,98333,1,0,0:0:0:0:
141,181,98450,2,0,L|153:319,1,107.999996704102,2|0,0:0|3:0,0:0:0:0:
342,364,98919,2,0,P|351:304|331:240,1,107.999996704102,4|0,3:0|0:0,0:0:0:0:
309,131,99271,2,0,L|304:193,1,53.9999983520508,2|0,0:0|0:0,0:0:0:0:
187,319,99622,1,0,3:0:0:0:
435,366,99857,6,0,B|446:294|446:294|487:257,1,107.999996704102,8|0,3:0|0:0,0:0:0:0:
504,141,100208,1,0,0:0:0:0:
511,150,100325,2,0,L|385:168,1,107.999996704102,2|0,0:2|3:0,0:0:0:0:
223,97,100794,2,0,P|282:83|335:38,1,107.999996704102,4|0,3:0|1:0,0:0:0:0:
473,24,101146,2,0,L|395:13,1,53.9999983520508,2|0,0:2|3:0,0:0:0:0:
258,136,101497,1,2,0:3:0:0:
392,295,101732,6,0,P|432:228|432:179,1,107.999996704102,4|0,3:1|3:0,0:0:0:0:
347,310,102083,1,0,1:0:0:0:
351,325,102200,1,0,3:0:0:0:
245,107,102435,1,2,0:0:0:0:
236,242,102669,6,0,P|197:185|153:159,1,107.999996704102,4|0,3:0|3:0,0:0:0:0:
9,211,103021,1,0,1:0:0:0:
15,226,103138,1,0,3:0:0:0:
219,256,103372,1,2,0:0:0:0:
62,325,103607,6,0,P|106:335|177:321,1,107.999996704102,8|0,3:0|3:0,0:0:0:0:
294,369,103958,1,0,1:0:0:0:
303,382,104075,1,0,3:0:0:0:
152,359,104310,1,2,0:0:0:0:
250,304,104544,5,0,3:0:0:0:
172,17,104778,1,0,0:0:0:0:
96,72,105013,2,2,P|97:98|103:125,1,54,4|0,3:2|0:0,0:0:0:0:
6,53,105482,6,0,B|71:69|71:69|133:46,1,107.999996704102,4|0,3:1|0:0,0:0:0:0:
239,154,105833,1,0,0:0:0:0:
225,165,105950,2,0,L|210:22,1,107.999996704102,2|0,0:0|3:0,0:0:0:0:
459,70,106419,2,0,P|385:73|344:49,1,107.999996704102,4|0,3:0|0:0,0:0:0:0:
351,205,106771,2,0,L|358:151,1,53.9999983520508,2|0,0:0|0:0,0:0:0:0:
237,23,107122,1,0,3:0:0:0:
312,132,107357,5,8,3:0:0:0:
101,251,107591,1,0,0:0:0:0:
101,251,107708,1,0,0:0:0:0:
101,251,107825,2,0,B|151:224|151:224|214:228,1,107.999996704102,2|0,0:0|3:0,0:0:0:0:
414,383,108294,2,0,P|408:311|423:260,1,107.999996704102,4|0,3:0|1:0,0:0:0:0:
277,330,108646,2,0,L|353:321,1,53.9999983520508,2|0,0:0|3:0,0:0:0:0:
457,244,108997,1,0,0:0:0:0:
341,29,109232,6,0,P|332:71|339:124,1,71.9999978027344,4|2,0:1|0:0,0:0:0:0:
427,158,109544,1,0,0:0:0:0:
351,45,109700,2,0,L|236:55,1,107.999996704102,2|0,3:0|0:0,0:0:0:0:
64,322,110169,5,2,3:2:0:0:
102,240,110325,1,0,0:0:0:0:
48,167,110482,1,2,0:0:0:0:
79,294,110638,2,0,L|206:277,1,107.999996704102,2|0,3:0|0:0,0:0:0:0:
485,196,111107,5,0,3:0:0:0:
409,179,111263,1,2,0:0:0:0:
344,221,111419,1,0,0:0:0:0:
512,158,111575,2,0,L|505:283,1,107.999996704102,2|0,3:3|3:0,0:0:0:0:
257,384,112044,5,0,1:0:0:0:
257,384,112161,1,0,3:0:0:0:
257,384,112278,1,0,1:0:0:0:
257,384,112396,1,0,3:0:0:0:
204,302,112513,2,2,P|228:282|259:272,1,54,4|0,3:2|0:0,0:0:0:0:
161,384,112982,6,0,L|152:257,1,99.0000030212403,4|0,3:1|0:0,0:0:0:0:
92,73,113333,1,0,1:0:0:0:
126,101,113450,2,0,L|117:228,1,99.0000030212403,8|0,3:0|3:0,0:0:0:0:
464,356,113919,6,0,L|379:333,1,62.9999980773926,4|0,3:2|0:0,0:0:0:0:
262,306,114153,1,2,0:0:0:0:
365,313,114271,2,0,L|280:336,2,62.9999980773926,4|0|0,3:2|0:0|0:0,0:0:0:0:
490,383,114622,2,0,B|502:311|502:311|475:249|475:249|486:159,1,188.999994232178,4|0,3:1|0:0,0:0:0:0:
496,210,115091,2,0,L|476:115,1,62.9999980773926,0|0,3:0|0:0,0:0:0:0:
493,27,115325,1,2,3:2:0:0:
493,27,115560,1,0,0:0:0:0:
450,61,115677,1,0,0:0:0:0:
397,47,115794,2,0,P|369:48|275:83,1,125.999996154785,2|0,3:2|0:0,0:0:0:0:
292,184,116146,2,0,P|302:164|303:100,1,62.9999980773926,2|4,0:0|0:0,0:0:0:0:
118,69,116497,1,0,3:0:0:0:
210,1,116732,6,0,L|221:131,1,125.999996154785,4|0,3:0|3:0,0:0:0:0:
122,238,117083,1,0,1:0:0:0:
159,204,117200,2,0,L|148:334,1,125.999996154785,8|0,3:0|3:0,0:0:0:0:
0,126,117669,6,0,L|79:138,1,62.9999980773926,4|0,3:2|0:0,0:0:0:0:
208,172,117903,1,2,0:0:0:0:
153,91,118021,2,0,L|91:101,2,62.9999980773926,4|0|0,3:2|0:0|0:0,0:0:0:0:
189,6,118372,2,0,B|174:77|174:77|194:127|194:127|198:209,1,180,4|0,0:1|0:0,0:0:0:0:
494,352,119544,6,0,B|457:339|457:339|454:343|454:343|416:330|416:330|412:334|412:334|360:319,1,135,2|0,3:0|0:0,0:0:0:0:
358,327,119778,2,0,L|353:266,2,45,0|0|0,3:0|3:0|3:0,0:0:0:0:
172,375,120013,5,8,3:0:0:0:
315,359,120247,1,4,3:0:0:0:
510,81,120482,6,0,B|418:71|458:115|325:95,1,161.999995056153,4|0,0:0|0:0,0:0:0:0:
274,174,120950,2,0,P|306:120|307:67,1,107.999996704102,2|0,3:2|0:0,0:0:0:0:
101,41,121419,2,0,P|56:64|-13:70,1,107.999996704102,0|2,3:0|0:0,0:0:0:0:
205,66,121771,2,0,P|234:72|264:86,1,53.9999983520508,0|0,3:0|3:2,0:0:0:0:
84,1,122122,1,0,0:0:0:0:
155,205,122357,2,0,L|148:322,1,107.999996704102,0|0,3:0|0:0,0:0:0:0:
148,312,122708,1,0,0:0:0:0:
148,312,122825,1,2,3:2:0:0:
9,360,123060,1,2,0:0:0:0:
110,294,123294,1,0,3:0:0:0:
83,363,123528,6,0,L|31:347,1,53.9999983520508,4|0,3:0|3:0,0:0:0:0:
121,325,123763,2,0,P|158:338|194:336,1,53.9999983520508,8|0,3:0|1:0,0:0:0:0:
234,281,123997,2,0,P|263:255|280:223,1,53.9999983520508,0|0,3:0|0:0,0:0:0:0:
284,0,124232,6,0,B|289:34|302:36|302:36|274:47|336:88|297:160,1,161.999995056153,2|0,3:0|0:0,0:0:0:0:
250,205,124700,2,0,P|267:162|292:136,1,53.9999983520508,2|0,3:2|0:0,0:0:0:0:
385,60,124935,1,0,3:0:0:0:
96,23,125169,1,0,3:0:0:0:
106,9,125286,2,0,L|123:139,1,107.999996704102,2|0,0:0|3:0,0:0:0:0:
14,198,125638,2,0,P|24:178|59:142,1,53.9999983520508,2|0,3:2|0:0,0:0:0:0:
149,25,125872,1,0,0:0:0:0:
61,306,126107,6,2,B|73:336|62:360|62:360|56:324|19:298,1,121.499996292114,2|0,0:3|0:0,0:0:0:0:
17,322,126575,2,0,L|271:347,1,215.999993408203,4|4,3:2|3:0,0:0:0:0:
482,203,127278,1,8,3:0:0:0:
397,356,127513,5,0,1:0:0:0:
386,358,127630,1,0,1:0:0:0:
399,366,127747,1,0,3:0:0:0:
389,369,127864,1,0,3:0:0:0:
472,291,127982,6,0,B|384:289|424:333|308:323,1,161.999995056153,4|0,3:2|0:0,0:0:0:0:
399,223,128450,2,0,P|459:233|525:276,1,107.999996704102,2|0,3:2|0:0,0:0:0:0:
234,108,128919,2,0,P|223:44|228:-12,1,107.999996704102,0|2,3:0|0:0,0:0:0:0:
302,233,129271,2,0,P|289:274|274:291,1,53.9999983520508,0|0,3:0|3:0,0:0:0:0:
253,124,129622,1,0,0:0:0:0:
48,204,129857,2,0,L|165:211,1,107.999996704102,0|0,3:0|0:0,0:0:0:0:
155,211,130208,1,0,0:0:0:0:
155,211,130325,1,2,3:2:0:0:
26,100,130560,1,0,0:0:0:0:
26,100,130794,1,2,3:0:0:0:
107,74,131028,6,0,L|50:81,1,53.9999983520508,4|0,3:0|3:0,0:0:0:0:
141,39,131263,2,0,L|217:50,1,53.9999983520508,8|0,3:0|1:0,0:0:0:0:
397,89,131497,2,0,L|473:80,1,53.9999983520508,0|0,3:0|0:0,0:0:0:0:
486,12,131732,5,4,3:0:0:0:
435,326,131966,1,0,3:0:0:0:
435,326,132083,1,0,3:0:0:0:
400,245,132200,1,4,3:1:0:0:
428,71,132435,1,2,0:0:0:0:
478,190,132669,5,8,3:0:0:0:
220,113,132903,2,0,P|250:120|285:137,1,53.9999983520508,0|0,3:0|3:0,0:0:0:0:
345,191,133138,2,0,L|335:52,1,107.999996704102,4|0,0:0|0:0,0:0:0:0:
24,110,133607,5,2,3:2:0:0:
120,124,133763,1,0,0:0:0:0:
186,53,133919,1,2,0:0:0:0:
45,120,134075,5,4,3:1:0:0:
127,103,134232,1,2,0:0:0:0:
183,165,134388,1,2,0:0:0:0:
272,146,134544,6,0,P|247:149|217:141,1,53.9999983520508,0|0,3:0|0:0,0:0:0:0:
262,129,134778,2,0,P|286:116|311:109,1,53.9999983520508,0|0,3:0|0:0,0:0:0:0:
122,344,135013,1,4,3:0:0:0:
122,344,135130,1,0,3:0:0:0:
122,344,135247,1,8,3:0:0:0:
122,344,135364,1,0,1:0:0:0:
29,280,135482,6,0,B|126:281|90:314|198:312,1,161.999995056153,4|0,0:0|0:0,0:0:0:0:
153,196,135950,2,0,P|107:241|59:257,1,107.999996704102,2|0,3:2|0:0,0:0:0:0:
389,296,136419,2,0,P|426:308|491:349,1,107.999996704102,0|2,3:0|0:0,0:0:0:0:
329,213,136771,2,0,P|318:179|320:137,1,53.9999983520508,0|0,3:0|3:2,0:0:0:0:
217,336,137122,1,0,0:0:0:0:
280,190,137357,2,0,L|287:73,1,107.999996704102,0|0,3:0|0:0,0:0:0:0:
287,83,137708,1,0,0:0:0:0:
287,83,137825,1,2,3:2:0:0:
154,29,138060,1,2,0:0:0:0:
241,99,138294,1,0,3:0:0:0:
164,57,138528,6,0,L|112:41,1,53.9999983520508,4|0,3:0|3:0,0:0:0:0:
90,23,138763,2,0,P|83:69|93:103,1,53.9999983520508,8|0,3:0|1:0,0:0:0:0:
26,140,138997,2,0,P|32:171|51:201,1,53.9999983520508,0|0,3:0|0:0,0:0:0:0:
199,339,139232,6,0,B|210:352|211:367|211:367|216:354|216:343|216:343|209:270|267:216,1,161.999995056153,2|0,3:0|0:0,0:0:0:0:
181,175,139700,2,0,P|198:218|223:244,1,53.9999983520508,2|0,3:2|0:0,0:0:0:0:
334,316,139935,1,0,3:0:0:0:
29,326,140169,1,0,3:0:0:0:
15,316,140286,2,0,L|145:299,1,107.999996704102,2|0,0:0|3:0,0:0:0:0:
245,375,140638,2,0,P|235:355|200:319,1,53.9999983520508,2|0,3:2|0:0,0:0:0:0:
43,282,140872,1,0,3:0:0:0:
194,73,141107,6,2,B|206:43|195:19|195:19|189:55|152:81,1,121.499996292114,2|0,0:3|0:0,0:0:0:0:
145,64,141575,2,0,L|170:318,1,215.999993408203,4|4,3:2|3:0,0:0:0:0:
354,310,142278,1,8,3:0:0:0:
283,351,142513,6,0,L|217:331,3,53.9999983520508,0|0|0|0,2:0|2:0|2:0|2:0,0:0:0:0:
201,377,142982,2,0,B|199:289|243:329|233:221,1,161.999995056153,4|0,3:2|0:0,0:0:0:0:
94,216,143450,2,0,P|154:226|220:269,1,107.999996704102,2|0,3:2|0:0,0:0:0:0:
444,127,143919,2,0,P|384:137|318:180,1,107.999996704102,0|2,3:0|0:0,0:0:0:0:
480,49,144271,2,0,P|493:25|499:0,1,53.9999983520508,0|0,3:0|3:0,0:0:0:0:
447,166,144622,1,0,0:0:0:0:
305,36,144857,2,0,L|312:153,1,107.999996704102,0|0,3:0|0:0,0:0:0:0:
312,143,145208,1,0,0:0:0:0:
312,143,145325,1,2,3:2:0:0:
375,308,145560,1,0,0:0:0:0:
375,308,145794,1,2,3:0:0:0:
286,330,146028,6,0,L|343:337,1,53.9999983520508,4|0,3:0|3:0,0:0:0:0:
348,360,146263,2,0,L|294:367,1,53.9999983520508,8|0,3:0|1:0,0:0:0:0:
87,265,146497,2,0,L|-1:232,1,53.9999983520508,0|0,3:0|0:0,0:0:0:0:
4,165,146732,5,4,3:0:0:0:
332,89,146966,1,0,3:0:0:0:
332,89,147083,1,0,3:0:0:0:
238,55,147200,1,4,3:1:0:0:
80,152,147435,1,2,0:0:0:0:
237,85,147669,5,8,3:0:0:0:
454,189,147903,2,0,P|429:199|402:205,1,53.9999983520508,0|0,3:0|3:0,0:0:0:0:
348,122,148138,2,0,L|358:261,1,107.999996704102,4|0,0:0|0:0,0:0:0:0:
45,317,148607,5,2,3:2:0:0:
141,303,148763,1,0,0:0:0:0:
207,374,148919,1,2,0:0:0:0:
360,367,149075,5,4,3:1:0:0:
289,384,149232,1,2,0:0:0:0:
235,335,149388,1,2,0:0:0:0:
258,208,149544,5,0,3:0:0:0:
258,208,149661,1,0,3:0:0:0:
258,208,149778,1,0,3:0:0:0:
220,177,150013,5,2,0:0:0:0:
292,177,150247,1,2,0:0:0:0:
419,74,150482,5,6,0:0:0:0:
419,74,150716,1,0,0:0:0:0:
366,86,150950,1,2,0:0:0:0:
292,151,151185,1,2,0:0:0:0:
283,141,151653,1,0,0:0:0:0:
128,53,151888,5,2,0:0:0:0:
124,346,152357,1,2,0:0:0:0:
111,363,152825,5,0,0:0:0:0:
119,259,153294,1,0,0:0:0:0:
212,147,153763,1,2,0:0:0:0:
452,53,154232,5,2,0:0:0:0:
452,53,154466,1,0,3:0:0:0:
423,119,154700,1,0,3:0:0:0:
431,343,154935,1,2,0:0:0:0:
363,200,155638,5,2,0:0:0:0:
185,335,156107,1,0,0:0:0:0:
59,357,156575,1,0,0:0:0:0:
192,85,157044,1,2,0:0:0:0:
293,108,157513,1,0,0:0:0:0:
227,66,157982,6,0,P|257:37|265:17,1,35.9999989013672,2|0,0:0|0:0,0:0:0:0:
118,121,158294,1,0,0:0:0:0:
108,129,158450,2,0,P|90:112|78:88,1,35.9999989013672,2|0,0:0|0:0,0:0:0:0:
164,329,158763,1,2,0:0:0:0:
87,284,158919,6,0,P|68:281|36:283,1,35.9999989013672,2|0,0:0|0:0,0:0:0:0:
290,355,159232,1,0,0:0:0:0:
284,365,159388,2,0,P|306:363|333:351,1,35.9999989013672,2|0,0:0|0:0,0:0:0:0:
429,221,159700,1,0,0:0:0:0:
416,87,159857,5,2,0:0:0:0:
382,153,160013,2,0,L|393:210,1,35.9999989013672,0|0,0:0|0:0,0:0:0:0:
217,59,160325,1,2,0:0:0:0:
228,31,160482,1,0,0:0:0:0:
226,1,160638,1,2,0:0:0:0:
307,116,160794,6,0,L|374:127,1,35.9999989013672,2|0,0:0|0:0,0:0:0:0:
120,279,161107,1,0,0:0:0:0:
45,222,161263,2,0,L|-22:233,1,35.9999989013672,2|0,0:0|0:0,0:0:0:0:
101,272,161575,1,0,0:0:0:0:
231,185,161732,6,0,P|258:190|271:196,2,35.9999989013672,6|0|0,0:0|0:0|0:0,0:0:0:0:
194,362,162200,1,2,0:0:0:0:
140,309,162357,2,0,P|145:330|158:352,1,35.9999989013672,2|0,0:0|0:0,0:0:0:0:
335,242,162669,1,2,0:0:0:0:
345,230,162825,2,0,P|351:208|349:176,1,35.9999989013672,0|0,0:0|0:0,0:0:0:0:
308,85,163138,1,2,0:0:0:0:
298,65,163294,1,0,0:0:0:0:
301,43,163450,1,2,0:0:0:0:
377,19,163607,6,0,P|395:14|424:14,2,35.9999989013672,2|0|0,0:0|0:0|0:0,0:0:0:0:
252,90,164075,2,0,P|223:89|188:77,1,35.9999989013672,2|0,0:0|0:0,0:0:0:0:
97,303,164388,5,2,0:0:0:0:
31,253,164544,2,0,P|50:253|75:261,1,35.9999989013672,0|0,0:0|0:0,0:0:0:0:
198,337,164857,1,0,0:0:0:0:
186,347,165013,2,0,P|216:359|242:363,1,35.9999989013672,2|0,0:0|0:0,0:0:0:0:
351,284,165325,1,2,0:0:0:0:
454,324,165482,6,0,P|402:306|355:310,1,72,4|0,0:0|0:0,0:0:0:0:
376,314,165833,2,0,L|388:356,1,36,0|0,1:0|3:0,0:0:0:0:
426,204,166185,1,2,0:0:0:0:
417,192,166653,5,0,0:0:0:0:
388,318,166888,1,2,0:0:0:0:
388,318,167122,1,0,0:0:0:0:
106,326,167357,6,0,L|22:346,1,72,2|0,0:3|0:0,0:0:0:0:
157,251,167825,2,0,L|74:226,1,72,0|0,0:0|0:0,0:0:0:0:
237,216,168294,1,2,0:0:0:0:
198,15,168763,1,2,0:0:0:0:
14,148,169232,6,0,P|51:156|106:138,1,72,2|0,3:2|0:0,0:0:0:0:
96,157,169583,2,0,L|101:114,1,36,0|0,1:0|3:0,0:0:0:0:
132,279,169935,1,2,0:0:0:0:
115,293,170638,5,2,0:0:0:0:
75,74,170872,1,2,0:0:0:0:
315,9,171107,6,0,L|307:163,1,144,2|0,0:3|0:0,0:0:0:0:
424,384,171810,1,2,0:0:0:0:
347,360,172044,2,0,P|360:321|383:293,1,72,0|0,3:0|0:0,0:0:0:0:
501,109,172513,1,2,0:0:0:0:
256,192,172982,5,2,0:0:0:0:
256,192,173099,12,0,180364,0:0:0:0:
84,325,180482,6,0,P|78:255|109:168,1,144,4|0,2:1|0:0,0:0:0:0:
7,96,181185,2,0,B|32:162|106:171|151:142|139:78|95:72,1,216,0|0,0:0|0:0,0:0:0:0:
98,72,182122,1,0,0:0:0:0:
310,3,182357,2,0,P|308:58|299:91,1,72,4|0,0:1|0:0,0:0:0:0:
414,87,182825,2,0,P|397:139|380:169,1,72,0|0,0:0|0:0,0:0:0:0:
256,192,183294,1,2,3:2:0:0:
253,203,183763,2,0,L|257:231,7,18,0|0|0|0|0|0|0|0,0:0|0:0|0:0|0:0|0:0|0:0|0:0|0:0,0:0:0:0:
228,317,184232,6,0,P|271:300|381:304,1,144,4|0,2:1|0:0,0:0:0:0:
468,365,184935,2,0,B|505:330|513:262|467:207|467:207|425:247,1,216,0|0,0:0|0:0,0:0:0:0:
73,269,186107,1,4,0:1:0:0:
87,358,186341,1,0,0:0:0:0:
79,368,186810,1,0,0:0:0:0:
256,256,187044,1,2,3:2:0:0:
264,242,187513,2,0,L|260:214,7,18
209,142,187982,6,0,P|244:131|330:43,1,144,4|0,0:1|0:0,0:0:0:0:
452,25,188685,2,0,B|378:4|322:59|322:59|379:137,1,216,0|0,0:0|0:0,0:0:0:0:
415,363,189857,2,0,P|444:303|430:196,1,144,4|0,0:1|0:0,0:0:0:0:
256,187,190560,2,0,P|299:237|313:344,1,144,0|0,0:0|0:0,0:0:0:0:
204,359,191263,2,0,L|176:355,7,18,0|0|0|0|0|0|0|0,0:0|0:0|0:0|0:0|0:0|0:0|0:0|0:0,0:0:0:0:
123,314,191732,5,2,3:2:0:0:
48,53,192435,6,0,L|35:103,2,45,0|2|0,0:0|0:0|0:0,0:0:0:0:
149,133,192903,2,0,L|123:177,2,36,0|2|0,0:0|0:0|0:0,0:0:0:0:
171,245,193372,1,0,0:0:0:0:
256,64,193607,5,4,3:1:0:0:
91,139,194544,6,0,L|17:123,3,41.9999987182618,0|0|0|0,3:0|3:0|3:0|3:0,0:0:0:0:
268,75,195013,1,0,3:0:0:0:
268,75,195091,1,0,1:0:0:0:
268,75,195169,1,0,3:0:0:0:
268,75,195247,1,0,1:0:0:0:
463,130,195482,6,0,L|368:150,1,90,4|0,3:0|0:0,0:0:0:0:
427,245,195950,2,0,L|330:240,1,90,0|0,3:0|0:0,0:0:0:0:
362,346,196419,2,0,L|270:316,1,90,0|0,3:0|0:0,0:0:0:0:
268,75,196888,1,0,3:0:0:0:
283,160,197122,1,2,0:0:0:0:
114,261,197357,6,0,L|19:281,1,90,0|0,3:0|0:0,0:0:0:0:
203,189,197825,2,0,L|110:158,1,90,0|0,3:0|0:0,0:0:0:0:
306,34,198294,1,0,3:0:0:0:
294,141,198528,1,0,3:0:0:0:
282,248,198763,1,0,3:0:0:0:
81,15,198997,5,0,0:0:0:0:
66,18,199114,1,2,0:0:0:0:
53,26,199232,2,0,L|25:130,1,90,4|0,3:0|0:0,0:0:0:0:
176,181,199700,1,0,3:0:0:0:
144,59,199935,1,0,3:0:0:0:
176,206,200169,2,0,L|122:299,1,90,0|0,3:0|0:0,0:0:0:0:
252,321,200638,2,0,L|175:396,1,90,0|0,3:0|0:0,0:0:0:0:
414,195,201107,5,0,3:0:0:0:
334,258,201341,2,0,L|441:230,1,90,0|0,0:0|3:0,0:0:0:0:
219,42,201810,1,2,0:0:0:0:
270,123,202044,1,0,3:0:0:0:
391,134,202278,1,0,3:0:0:0:
512,145,202513,1,2,3:0:0:0:
512,145,202747,2,0,L|505:207,1,45,0|0,3:0|0:0,0:0:0:0:
444,345,202982,6,0,L|422:227,1,90,4|0,3:0|0:0,0:0:0:0:
306,292,203333,1,2,0:0:0:0:
299,299,203450,2,0,L|308:179,1,90,0|0,3:0|0:0,0:0:0:0:
178,211,203802,1,2,0:0:0:0:
170,217,203919,2,0,L|209:103,1,90,0|0,3:0|0:0,0:0:0:0:
87,19,204271,1,2,0:0:0:0:
84,27,204388,2,0,L|95:88,3,45,0|0|0|0,3:0|1:0|1:0|1:0,0:0:0:0:
29,141,204857,5,8,3:0:0:0:
38,161,204974,1,0,1:0:0:0:
45,182,205091,1,0,1:0:0:0:
49,204,205208,1,0,1:0:0:0:
50,226,205325,1,8,3:0:0:0:
48,248,205442,1,0,1:0:0:0:
6,305,205560,1,2,1:2:0:0:
25,316,205677,1,0,1:0:0:0:
39,333,205794,6,0,L|52:392,1,45,4|0,3:0|3:0,0:0:0:0:
152,244,206028,2,0,L|149:304,1,45,4|0,3:0|3:0,0:0:0:0:
314,214,206263,2,0,L|295:271,3,45,4|0|0|0,3:0|3:0|3:0|3:0,0:0:0:0:
359,336,206732,5,4,3:2:0:0:
256,192,206849,12,0,209427,0:0:0:0:
395,103,209544,6,0,L|425:97,3,18,2|0|0|0,3:2|0:0|0:0|0:0,0:0:0:0:
481,77,209778,2,0,L|463:73,3,18,2|0|0|0,3:0|0:0|0:0|0:0,0:0:0:0:
434,0,210013,2,0,B|465:136|391:84|437:260,1,225,4|0,3:2|0:0,0:0:0:0:
100,303,210482,6,0,B|57:315|57:315|-19:279,1,107.999996704102,4|0,3:1|0:0,0:0:0:0:
192,292,210833,1,0,0:0:0:0:
202,277,210950,2,0,L|214:415,1,107.999996704102,2|0,0:0|3:0,0:0:0:0:
44,152,211419,2,0,P|104:161|168:141,1,107.999996704102,4|0,3:0|0:0,0:0:0:0:
228,12,211771,2,0,L|223:74,1,53.9999983520508,2|0,0:0|0:0,0:0:0:0:
137,182,212122,1,0,3:0:0:0:
300,337,212357,6,0,B|289:265|289:265|310:211,1,107.999996704102,8|0,3:0|0:0,0:0:0:0:
486,284,212708,1,0,0:0:0:0:
500,277,212825,2,0,L|484:403,1,107.999996704102,2|0,0:2|3:0,0:0:0:0:
377,188,213294,2,0,P|436:174|489:129,1,107.999996704102,4|0,3:0|1:0,0:0:0:0:
398,15,213646,2,0,L|406:85,1,53.9999983520508,2|0,3:2|0:0,0:0:0:0:
361,220,213997,1,2,0:3:0:0:
200,124,214232,6,0,P|160:57|160:8,1,107.999996704102,4|0,3:1|3:0,0:0:0:0:
274,188,214583,1,0,1:0:0:0:
278,203,214700,1,0,3:0:0:0:
276,34,214935,1,2,0:0:0:0:
141,264,215169,6,0,P|72:225|48:183,1,107.999996704102,4|0,3:0|3:0,0:0:0:0:
106,45,215520,1,0,1:0:0:0:
103,62,215637,1,0,3:0:0:0:
169,227,215872,1,2,0:0:0:0:
17,380,216107,6,0,P|61:390|132:376,1,107.999996704102,8|0,3:0|3:0,0:0:0:0:
233,287,216458,1,0,1:0:0:0:
242,300,216575,1,0,3:0:0:0:
94,353,216810,1,2,0:0:0:0:
100,341,217044,5,0,3:0:0:0:
191,368,217278,1,0,0:0:0:0:
436,308,217513,2,2,P|435:282|429:255,1,54,4|0,3:2|0:0,0:0:0:0:
512,333,217982,6,0,B|447:317|447:317|385:340,1,107.999996704102,4|0,3:1|0:0,0:0:0:0:
447,147,218333,1,0,0:0:0:0:
461,136,218450,2,0,L|476:279,1,107.999996704102,2|0,0:0|3:0,0:0:0:0:
166,290,218919,2,0,P|240:293|281:269,1,107.999996704102,4|0,3:0|0:0,0:0:0:0:
331,106,219271,2,0,L|324:160,1,53.9999983520508,2|0,0:0|0:0,0:0:0:0:
278,315,219622,1,0,3:0:0:0:
123,117,219857,5,8,3:0:0:0:
63,341,220091,1,0,0:0:0:0:
63,341,220208,1,0,0:0:0:0:
63,341,220325,2,0,B|36:291|36:291|40:228,1,107.999996704102,2|0,0:0|3:0,0:0:0:0:
153,29,220794,2,0,P|159:101|144:152,1,107.999996704102,4|0,3:3|1:0,0:0:0:0:
5,154,221146,2,0,L|81:145,1,53.9999983520508,2|0,0:0|3:0,0:0:0:0:
195,236,221497,1,0,0:0:0:0:
439,177,221732,5,4,0:1:0:0:
396,91,221888,1,2,0:0:0:0:
439,5,222044,1,0,0:0:0:0:
461,141,222200,2,0,L|481:271,1,107.999996704102,2|0,3:0|0:0,0:0:0:0:
64,322,222669,5,2,3:2:0:0:
100,245,222825,1,0,0:0:0:0:
61,169,222982,1,2,0:0:0:0:
35,291,223138,2,0,L|162:274,1,107.999996704102,2|0,3:0|0:0,0:0:0:0:
450,312,223607,5,0,3:0:0:0:
401,259,223763,1,2,0:0:0:0:
329,273,223919,1,0,0:0:0:0:
435,355,224075,2,0,L|428:230,1,107.999996704102,2|0,3:3|3:0,0:0:0:0:
235,29,224544,5,0,1:0:0:0:
235,29,224661,1,0,3:0:0:0:
235,29,224778,1,0,1:0:0:0:
235,29,224896,1,0,3:0:0:0:
279,125,225013,2,2,P|299:101|309:70,1,54,4|0,3:2|0:0,0:0:0:0:
169,10,225482,6,0,B|176:70|176:70|201:120|201:120|199:201,1,180,4|2,3:1|0:0,0:0:0:0:
117,362,226185,1,0,3:0:0:0:
117,362,226419,2,0,P|124:301|153:246,1,90,4|0,3:0|0:0,0:0:0:0:
147,281,226771,2,0,P|88:301|18:272,1,135,2|0,0:0|3:0,0:0:0:0:
312,230,227357,6,0,B|370:241|370:241|419:268|419:268|517:262,1,180,8|2,3:0|0:2,0:0:0:0:
367,4,228060,1,0,3:0:0:0:
367,4,228294,2,0,P|354:62|357:86,1,45,4|0,3:0|0:0,0:0:0:0:
440,242,228528,1,0,1:0:0:0:
425,185,228646,1,2,3:2:0:0:
421,226,228763,2,0,P|447:161|448:116,1,90,0|2,0:0|0:3,0:0:0:0:
238,277,229232,6,0,P|238:338|256:378,1,90,4|0,3:1|3:0,0:0:0:0:
254,264,229583,2,0,P|267:239|268:207,1,45,0|0,1:0|3:0,0:0:0:0:
230,96,229935,1,2,0:0:0:0:
133,201,230169,6,0,P|102:253|98:297,1,90,4|0,3:0|3:0,0:0:0:0:
107,312,230520,2,0,P|123:294|139:263,1,45,0|0,1:0|3:0,0:0:0:0:
213,110,230872,1,2,0:0:0:0:
74,42,231107,6,0,P|21:71|-11:110,1,90,8|0,3:0|3:0,0:0:0:0:
17,102,231458,2,0,P|37:107|73:97,1,45,0|0,1:0|3:0,0:0:0:0:
195,95,231810,1,2,0:0:0:0:
183,78,232044,2,0,P|170:127|173:172,1,90,0|0,3:0|0:0,0:0:0:0:
469,129,232513,2,2,P|459:102|442:73,1,54,4|0,3:2|0:0,0:0:0:0:
404,7,232982,6,0,B|397:78|397:78|373:119|373:119|380:199,1,180,4|2,3:1|0:0,0:0:0:0:
327,381,233685,1,0,3:0:0:0:
399,329,233919,2,0,P|373:272|344:246,1,90,4|0,3:0|0:0,0:0:0:0:
344,265,234271,2,0,P|394:269|476:232,1,135,2|0,0:0|3:0,0:0:0:0:
198,300,234857,6,0,B|147:305|147:305|94:337|94:337|15:331,1,180,8|2,3:0|0:0,0:0:0:0:
86,60,235560,1,0,3:0:0:0:
146,116,235794,2,0,P|154:149|153:187,1,45,2|0,3:3|0:0,0:0:0:0:
64,308,236028,1,2,1:3:0:0:
83,252,236146,1,0,3:0:0:0:
51,292,236263,2,0,P|45:344|74:408,1,90,4|0,3:0|0:0,0:0:0:0:
449,261,236732,6,0,P|439:221|423:193,1,60,4|2,0:1|0:0,0:0:0:0:
344,152,237044,1,0,0:0:0:0:
421,281,237200,2,0,L|407:393,1,90,2|0,3:0|0:0,0:0:0:0:
113,221,237669,5,2,3:2:0:0:
194,211,237825,1,0,0:0:0:0:
240,279,237982,1,2,0:0:0:0:
126,245,238138,2,0,L|145:115,1,120,2|2,3:0|0:0,0:0:0:0:
289,61,238607,5,0,3:0:0:0:
367,84,238763,1,2,0:0:0:0:
348,5,238919,1,0,0:0:0:0:
348,101,239075,2,0,L|356:205,1,90,2|0,3:3|3:0,0:0:0:0:
384,231,239427,1,2,0:0:0:0:
441,257,239544,5,0,1:0:0:0:
441,257,239661,1,0,3:0:0:0:
441,257,239778,1,0,1:0:0:0:
441,257,239896,1,0,3:0:0:0:
499,306,240013,2,2,B|465:300|465:300|359:324|359:324|292:312,1,175.499991966248,4|0,3:2|0:0,0:0:0:0:
228,375,240482,6,0,L|221:270,1,90,4|0,3:1|0:0,0:0:0:0:
72,169,240833,1,0,1:0:0:0:
88,198,240950,2,0,L|108:94,1,90,8|0,3:0|3:0,0:0:0:0:
408,69,241419,6,0,L|470:56,1,53.9999983520508,4|0,3:2|0:0,0:0:0:0:
282,49,241653,1,2,0:0:0:0:
371,95,241771,2,0,L|309:82,2,53.9999983520508,4|0|0,3:2|0:0|0:0,0:0:0:0:
483,104,242122,2,0,B|396:129|396:129|352:213,1,180,4|0,3:1|3:0,0:0:0:0:
76,110,242825,2,0,L|64:4,1,90,2|0,3:2|0:0,0:0:0:0:
196,23,243177,1,0,0:0:0:0:
205,15,243294,2,0,B|214:64|214:64|194:131,1,90,2|0,3:2|0:0,0:0:0:0:
161,276,243646,2,0,L|171:340,1,45,2|4,0:0|0:0,0:0:0:0:
82,156,243997,1,0,3:0:0:0:
9,358,244232,5,4,3:0:0:0:
125,328,244466,1,0,3:0:0:0:
125,328,244583,1,0,1:0:0:0:
125,328,244700,1,8,3:0:0:0:
215,383,244935,1,0,3:0:0:0:
68,140,245169,6,0,L|4:151,1,53.9999983520508,4|0,3:2|0:0,0:0:0:0:
192,177,245403,1,2,0:0:0:0:
103,106,245521,2,0,L|167:117,2,53.9999983520508,4|0|0,3:2|0:0|0:0,0:0:0:0:
155,12,245872,2,0,B|156:75|156:75|177:130|177:130|164:205,1,180,4|0,0:1|0:0,0:0:0:0:
256,384,247044,6,0,B|258:344|258:344|254:343|254:343|257:302|257:302|252:300|252:300|253:246,1,135,2|0,3:0|0:0,0:0:0:0:
244,165,247278,2,0,L|252:104,2,45,0|0|0,3:0|3:0|3:0,0:0:0:0:
140,74,247513,5,8,3:0:0:0:
347,56,247747,1,4,3:0:0:0:
506,12,247982,6,0,L|490:110,1,72,4|0,3:1|0:0,0:0:0:0:
484,95,248333,2,0,L|491:158,1,36,0|0,1:0|0:0,0:0:0:0:
445,335,248685,2,0,B|459:229|459:229|417:258,1,144,0|0,3:0|0:0,0:0:0:0:
428,250,249271,1,2,0:0:0:0:
428,250,249388,1,2,0:3:0:0:
329,234,249622,1,0,0:0:0:0:
219,303,249857,6,0,L|129:291,1,72,0|0,3:0|0:0,0:0:0:0:
136,306,250208,2,0,L|178:314,1,36,0|0,1:0|0:0,0:0:0:0:
46,379,250560,2,0,B|36:301|73:325|56:219,1,144,0|0,3:0|0:0,0:0:0:0:
26,163,251146,2,0,L|34:216,1,36,2|2,0:0|0:3,0:0:0:0:
84,82,251497,1,0,0:0:0:0:
228,23,251732,6,0,L|218:116,1,72,2|0,3:2|0:0,0:0:0:0:
220,94,252083,1,0,1:0:0:0:
220,94,252200,1,0,0:0:0:0:
62,164,252435,2,0,B|126:151|126:151|207:194,1,144,0|2,3:0|0:0,0:0:0:0:
264,333,253138,2,0,L|251:248,1,72,2|0,3:3|0:0,0:0:0:0:
275,128,253607,6,0,L|359:110,1,72,0|0,3:0|0:0,0:0:0:0:
345,112,253958,1,0,1:0:0:0:
345,112,254075,1,0,0:0:0:0:
436,155,254310,1,0,3:0:0:0:
473,4,254544,2,0,L|466:58,1,36,2|0,3:0|0:0,0:0:0:0:
436,155,254778,1,2,0:0:0:0:
436,155,255013,2,0,L|449:253,1,72,0|0,3:3|3:0,0:0:0:0:
267,332,255482,6,0,L|347:322,1,72,4|0,3:2|0:0,0:0:0:0:
356,310,255833,2,0,L|406:321,1,36,0|0,1:0|0:0,0:0:0:0:
178,368,256185,2,0,B|156:259|156:259|201:291,1,144,0|0,3:0|0:0,0:0:0:0:
182,278,256771,1,2,0:0:0:0:
182,278,256888,1,2,0:3:0:0:
276,251,257122,1,0,0:0:0:0:
344,121,257357,6,0,L|325:34,1,72,0|0,3:0|0:0,0:0:0:0:
312,41,257708,2,0,L|311:84,1,36,0|0,1:0|0:0,0:0:0:0:
131,162,258060,2,0,B|197:176|197:176|282:116,1,144,0|0,3:0|0:0,0:0:0:0:
259,131,258646,1,2,0:0:0:0:
259,131,258763,1,2,0:3:0:0:
217,37,258997,1,0,0:0:0:0:
92,135,259232,6,0,L|103:226,1,72,2|0,3:2|0:0,0:0:0:0:
100,206,259583,1,0,1:0:0:0:
100,206,259700,1,0,0:0:0:0:
0,304,259935,2,0,B|74:288|57:330|163:303,1,144,0|0,3:0|0:0,0:0:0:0:
214,338,260521,2,0,L|159:328,1,36,2|2,0:0|0:3,0:0:0:0:
305,289,260872,1,0,0:0:0:0:
438,384,261107,6,0,L|422:290,1,72,0|0,3:0|0:0,0:0:0:0:
425,313,261458,1,0,1:0:0:0:
425,313,261575,1,0,0:0:0:0:
465,230,261810,1,0,0:0:0:0:
339,157,262044,2,0,L|390:167,1,36,2|0,3:0|0:0,0:0:0:0:
494,126,262278,1,2,0:0:0:0:
494,126,262513,2,0,L|480:43,1,72,0|0,3:0|3:0,0:0:0:0:
294,5,262982,6,0,L|285:98,1,72,4|0,3:1|0:0,0:0:0:0:
161,36,263450,2,0,L|176:128,1,72,2|0,3:2|0:0,0:0:0:0:
72,106,263919,1,0,3:0:0:0:
36,364,264388,1,0,3:0:0:0:
107,291,264622,6,0,L|118:238,1,36,2|0,0:3|0:0,0:0:0:0:
26,351,264857,2,0,L|118:329,1,72,2|0,3:2|0:0,0:0:0:0:
248,361,265325,2,0,L|316:295,1,72,0|0,3:2|0:0,0:0:0:0:
413,263,265794,1,0,3:0:0:0:
370,4,266263,2,0,P|366:43|384:125,1,108,8|0,3:0|0:0,0:0:0:0:
391,126,266732,6,0,L|302:113,1,72,4|0,3:0|0:0,0:0:0:0:
422,269,267200,2,0,L|339:233,1,72,2|0,3:2|0:0,0:0:0:0:
441,367,267669,1,0,3:0:0:0:
234,320,267903,2,0,L|320:304,1,72,2|0,0:0|0:0,0:0:0:0:
44,225,268607,5,0,3:0:0:0:
148,193,268841,1,0,0:0:0:0:
148,193,268958,1,2,0:0:0:0:
148,193,269075,2,0,L|161:283,1,72,0|0,3:0|0:0,0:0:0:0:
85,84,269544,2,0,L|140:72,1,36,2|0,3:0|0:0,0:0:0:0:
214,0,269778,2,0,L|207:89,1,72,2|0,3:2|0:0,0:0:0:0:
164,160,270247,1,0,3:0:0:0:
74,321,270482,6,0,L|179:304,1,72,4|0,3:1|0:0,0:0:0:0:
20,194,270950,2,0,L|125:204,1,72,2|0,3:2|0:0,0:0:0:0:
0,82,271419,1,0,3:0:0:0:
266,71,271888,1,0,3:0:0:0:
183,3,272122,6,0,L|190:48,1,36,2|0,0:3|0:0,0:0:0:0:
235,116,272357,2,0,L|230:212,1,72,2|0,3:2|0:0,0:0:0:0:
371,76,272825,2,0,L|341:167,1,72,0|0,3:0|0:0,0:0:0:0:
457,48,273294,1,0,3:0:0:0:
447,356,273763,2,0,P|455:309|491:223,1,108,8|0,3:0|0:0,0:0:0:0:
493,266,274232,6,0,L|391:275,1,72,4|0,3:0|0:0,0:0:0:0:
419,127,274700,2,0,L|322:162,1,72,2|0,3:2|0:0,0:0:0:0:
440,38,275169,1,0,3:0:0:0:
260,47,275403,2,0,L|363:59,1,72,2|0,0:0|0:0,0:0:0:0:
71,172,276107,5,0,3:0:0:0:
169,120,276341,1,0,0:0:0:0:
169,120,276458,1,2,0:0:0:0:
169,120,276575,2,0,L|176:206,1,72,0|0,3:0|0:0,0:0:0:0:
37,349,277044,5,2,0:3:0:0:
159,304,277396,1,0,3:0:0:0:
162,297,277513,1,2,0:0:0:0:
229,345,277747,1,0,0:0:0:0:
