osu file format v14

[General]
AudioFilename: audio.mp3
AudioLeadIn: 0
PreviewTime: 74888
Countdown: 0
SampleSet: Soft
StackLeniency: 0.7
Mode: 0
LetterboxInBreaks: 0
WidescreenStoryboard: 1

[Editor]
Bookmarks: -118,58740,67388,74888,89888,104888,119888,127388,137231,142388,149888,157388,166763
DistanceSpacing: 0.9
BeatDivisor: 3
GridSize: 16
TimelineZoom: 1.3

[Metadata]
Title:Mythic set ~ Heart-Stirring Urban Legends
TitleUnicode:Mythic set 〜 心揺さぶる都市伝説
Artist:Rin
ArtistUnicode:凛
Creator:yaspo
Version:Normal
Source:東方深秘録 ~ Urban Legend in Limbo.
Tags:touhou shinpiroku th14.5 心揺さぶる都市伝説 東方深秘録 sdafsf mithew
BeatmapID:1429980
BeatmapSetID:676064

[Difficulty]
HPDrainRate:3
CircleSize:3
OverallDifficulty:3
ApproachRate:4
SliderMultiplier:1.7
SliderTickRate:1

[Events]
//Background and Video events
0,0,"Toho Reimu scaled.jpg",0,0
//Break Periods
//Storyboard Layer 0 (Background)
//Storyboard Layer 1 (Fail)
//Storyboard Layer 2 (Pass)
//Storyboard Layer 3 (Foreground)
//Storyboard Sound Samples

[TimingPoints]
58740,720.720720720721,3,2,1,30,1,0
67388,468.75,4,2,1,60,1,0
67388,-133.333333333333,4,2,1,60,0,0
72700,-133.333333333333,4,2,1,60,0,0
74888,-133.333333333333,4,2,2,70,0,0
89888,-133.333333333333,4,2,2,80,0,0
104888,-133.333333333333,4,2,2,50,0,0
117075,-133.333333333333,4,2,2,55,0,0
118013,-133.333333333333,4,2,2,60,0,0
118950,-133.333333333333,4,2,1,65,0,0
118979,-133.333333333333,4,2,2,65,0,0
119888,-133.333333333333,4,2,2,50,0,0
121763,-133.333333333333,4,2,2,50,0,0
123638,-133.333333333333,4,2,1,50,0,0
123667,-133.333333333333,4,2,2,50,0,0
125513,-133.333333333333,4,2,2,50,0,0
126450,-133.333333333333,4,2,2,60,0,0
126763,-133.333333333333,4,2,2,60,0,0
127075,-133.333333333333,4,2,2,60,0,0
127388,-133.333333333333,4,2,2,80,0,1
141294,-133.333333333333,4,2,2,80,0,0
141450,-133.333333333333,4,2,2,70,0,0
142075,-133.333333333333,4,2,2,50,0,0
142388,-133.333333333333,4,2,2,50,0,0
148013,-133.333333333333,4,2,2,80,0,0
149888,-133.333333333333,4,2,2,80,0,1
156919,-133.333333333333,4,2,2,80,0,0
157388,-133.333333333333,4,2,1,60,0,0
162700,-133.333333333333,4,2,1,60,0,0
166606,-133.333333333333,4,2,1,60,0,0
166763,-133.333333333333,4,2,1,5,0,0
166919,-133.333333333333,4,2,1,60,0,0
170513,695.652173913044,3,2,2,100,1,0

[Colours]
Combo1 : 116,100,207
Combo2 : 227,104,150
Combo3 : 189,51,85
Combo4 : 200,184,255

[HitObjects]
77,271,58740,5,2,0:0:0:0:
133,334,59100,2,0,L|244:344,1,85,2|0,0:0|0:0,0:0:0:0:
302,340,59821,2,0,L|413:329,1,85,2|0,0:0|0:0,0:0:0:0:
459,287,60541,2,0,L|458:236,1,42.5,2|0,0:0|0:0,0:0:0:0:
457,201,60902,21,2,0:0:0:0:
377,229,61262,2,0,L|265:239,1,85,2|0,0:0|0:0,0:0:0:0:
208,235,61983,2,0,L|96:224,1,85,2|0,0:0|0:0,0:0:0:0:
46,191,62703,2,0,L|45:140,1,42.5,2|0,0:0|0:0,0:0:0:0:
44,105,63064,21,2,0:0:0:0:
126,126,63424,2,0,L|238:136,1,85,2|0,0:0|0:0,0:0:0:0:
295,132,64145,2,0,L|407:121,1,85,2|0,0:0|0:0,0:0:0:0:
461,102,64866,2,0,L|460:51,1,42.5,2|0,0:0|0:0,0:0:0:0:
420,44,65226,22,0,L|348:35,1,42.5,2|0,0:0|0:0,0:0:0:0:
293,25,65767,1,2,0:0:0:0:
236,88,66127,2,0,L|192:145,1,42.5,2|0,0:0|0:0,0:0:0:0:
184,155,66487,1,2,0:0:0:0:
129,220,66848,2,0,L|44:212,1,85,2|0,0:0|0:0,0:0:0:0:
18,170,67388,37,12,3:3:0:0:
110,83,67856,1,0,3:0:0:0:
202,171,68325,2,0,P|267:186|353:163,1,127.500004863739,2|2,3:3|3:3,3:3:0:0:
364,156,68950,2,0,L|415:156,1,42.5000016212464,8|0,0:3|0:0,0:0:0:0:
449,156,69263,21,12,3:3:0:0:
410,277,69731,1,0,3:0:0:0:
299,341,70200,2,0,P|256:347|214:339,1,85.0000032424928,2|0,3:0|3:0,3:0:0:0:
176,323,70669,2,0,P|134:314|91:321,1,85.0000032424928,2|0,3:0|3:0,3:0:0:0:
53,337,71138,21,12,3:3:0:0:
113,225,71606,1,0,3:0:0:0:
229,173,72075,2,0,P|294:158|380:181,1,127.500004863739,2|2,3:0|3:0,3:0:0:0:
437,160,72856,1,2,3:0:0:0:
441,117,73013,22,0,P|385:80|296:72,1,127.500004863739,12|2,3:3|0:0,0:0:0:0:
240,69,73794,1,2,3:0:0:0:
211,100,73950,2,0,P|155:136|66:144,1,127.500004863739,10|2,3:3|3:0,0:0:0:0:
12,129,74731,1,2,3:0:0:0:
12,171,74888,21,4,1:1:0:0:
30,296,75356,2,0,P|11:310|0:324,2,42.5000016212464,10|0|2,0:3|0:0|0:0,0:0:0:0:
65,272,75825,2,0,P|127:250|215:266,1,127.500004863739,10|8,0:3|0:3,0:0:0:0:
258,303,76606,1,2,0:3:0:0:
294,324,76763,2,0,P|356:328|416:307,1,127.500004863739,10|8,0:3|0:3,0:0:0:0:
508,248,77700,2,0,L|509:354,2,85.0000032424928,8|8|8,3:3|3:3|3:3,0:0:0:0:
505,162,78638,21,4,1:0:0:0:
471,39,79106,2,0,P|485:28|501:10,2,42.5000016212464,10|0|2,0:3|0:0|0:0,0:0:0:0:
436,63,79575,2,0,P|373:84|285:68,1,127.500004863739,10|8,0:3|0:3,0:0:0:0:
232,52,80356,1,2,0:0:0:0:
217,92,80513,2,0,P|175:140|118:167,1,127.500004863739,8|8,0:3|0:3,0:0:0:0:
0,122,81450,2,0,L|0:29,2,85.0000032424928,8|8|8,3:3|3:3|3:3,0:0:0:0:
0,207,82388,21,4,1:0:0:0:
29,330,82856,2,0,P|11:342|-1:358,2,42.5000016212464,10|0|2,0:3|0:0|0:3,0:0:0:0:
62,305,83325,2,0,B|88:302|122:283|122:283|156:291|185:287,1,127.500004863739,10|10,0:3|0:3,0:0:0:0:
251,343,84106,1,2,0:0:0:0:
288,363,84263,2,0,P|349:355|405:324,1,127.500004863739,10|8,0:3|0:3,0:0:0:0:
512,257,85200,2,0,B|506:299|506:299|516:363,2,85.0000032424928,8|8|8,3:3|3:3|3:3,0:0:0:0:
506,171,86138,22,0,P|446:192|383:188,1,127.500004863739,4|8,1:0|0:3,0:0:0:0:
299,170,86919,1,2,0:0:0:0:
275,205,87075,2,0,P|233:210|191:203,1,85.0000032424928,10|8,0:3|0:3,0:0:0:0:
113,168,87700,1,10,0:3:0:0:
58,103,88013,21,8,0:3:0:0:
167,38,88481,1,8,0:3:0:0:
258,126,88950,2,0,B|300:133|300:133|341:126,1,85.0000032424928,6|2,0:0|0:0,0:0:0:0:
361,87,89419,2,0,B|402:80|402:80|444:87,1,85.0000032424928,6|2,0:0|0:0,0:0:0:0:
461,126,89888,21,4,1:0:0:0:
464,253,90356,2,0,P|480:264|494:281,2,42.5000016212464,10|0|2,0:3|0:0|0:3,0:0:0:0:
429,229,90825,2,0,P|367:207|279:223,1,127.500004863739,10|8,0:3|0:3,0:0:0:0:
275,241,91450,2,0,L|258:302,1,42.5000016212464,2|2,0:3|0:3,0:0:0:0:
247,321,91763,2,0,P|181:326|100:287,1,127.500004863739,8|8,0:3|0:3,0:0:0:0:
75,235,92544,1,2,0:0:0:0:
39,260,92700,2,0,L|38:366,2,85.0000032424928,8|8|8,3:3|3:3|3:3,0:0:0:0:
10,178,93638,21,4,1:1:0:0:
28,72,94106,2,0,P|11:60|-2:44,2,42.5000016212464,10|0|2,0:3|0:0|0:3,0:0:0:0:
63,96,94575,2,0,P|125:118|213:102,1,127.500004863739,10|8,0:3|0:3,0:0:0:0:
225,98,95200,2,0,L|236:56,1,42.5000016212464,2|2,0:0|0:0,0:0:0:0:
246,15,95513,2,0,P|307:31|370:94,1,127.500004863739,10|8,0:3|0:3,0:0:0:0:
416,131,96294,1,2,0:0:0:0:
450,106,96450,2,0,L|451:0,2,85.0000032424928,8|8|8,3:3|3:3|3:3,0:0:0:0:
478,186,97388,21,4,1:1:0:0:
482,313,97856,2,0,P|498:324|512:341,2,42.5000016212464,10|0|2,0:3|0:0|0:0,0:0:0:0:
446,289,98325,2,0,B|420:286|386:267|386:267|352:275|323:271,1,127.500004863739,10|8,0:3|0:3,0:3:0:0:
281,262,98950,2,0,L|264:323,1,42.5000016212464,2|2,0:0|0:0,0:0:0:0:
253,342,99263,2,0,P|187:347|106:308,1,127.500004863739,10|8,0:3|0:3,0:0:0:0:
79,258,100044,1,2,0:0:0:0:
43,281,100200,2,0,B|46:321|46:321|38:387,2,85.0000032424928,8|8|8,3:3|3:3|3:3,0:0:0:0:
20,198,101138,21,4,1:1:0:0:
137,150,101606,1,10,0:3:0:0:
206,199,101919,1,8,0:3:0:0:
243,219,102075,2,0,P|284:225|326:220,1,85.0000032424928,10|8,0:3|0:3,0:0:0:0:
368,230,102544,2,0,P|362:253|352:273,2,42.5000016212464,10|0|10,0:3|0:0|0:3,0:0:0:0:
407,212,103013,21,6,0:0:0:0:
463,97,103481,1,8,0:3:0:0:
335,104,103950,2,0,B|293:111|293:111|252:104,1,85.0000032424928,6|2,0:0|0:0,0:0:0:0:
230,66,104419,2,0,B|189:59|189:59|147:66,1,85.0000032424928,6|2,0:0|0:0,0:0:0:0:
104,76,104888,6,0,P|34:46|-6:-30,2,127.500004863739,6|0|8,3:2|3:0|3:3,0:0:0:0:
138,155,106138,2,0,P|177:161|222:155,1,85.0000032424928,2|2,3:0|3:0,0:0:0:0:
295,112,106763,2,0,P|355:128|400:172,2,127.500004863739,6|0|6,3:2|3:0|3:2,0:0:0:0:
407,342,108638,22,0,P|478:318|526:245,2,127.500004863739,6|0|12,3:2|3:0|3:3,0:0:0:0:
321,338,109888,2,0,P|288:313|260:277,1,85.0000032424928,2|2,3:0|3:0,0:0:0:0:
240,196,110513,1,6,3:2:0:0:
355,142,110981,2,0,P|327:106|289:87,1,85.0000032424928,2|0,3:3|3:3,0:0:0:0:
251,77,111450,2,0,P|176:87|117:150,1,127.500004863739,6|8,3:2|3:3,0:0:0:0:
121,246,112388,22,0,P|50:270|2:343,2,127.500004863739,6|0|8,3:2|3:0|3:3,0:0:0:0:
205,233,113638,2,0,P|210:276|234:312,1,85.0000032424928,2|2,3:0|3:0,0:0:0:0:
292,370,114263,1,6,3:2:0:0:
310,244,114731,2,0,P|351:256|393:250,1,85.0000032424928,2|0,3:0|3:0,0:0:0:0:
432,238,115200,2,0,P|485:186|498:99,1,127.500004863739,6|0,3:2|3:3,0:0:0:0:
405,53,116138,22,0,P|331:38|253:77,1,127.500004863739,6|0,3:2|0:0,0:0:0:0:
278,181,117075,2,0,P|306:143|362:133,2,85.0000032424928,10|10|10,3:3|3:3|3:3,0:0:0:0:
238,256,118013,2,0,P|266:293|322:303,2,85.0000032424928,10|10|10,3:3|3:3|3:3,0:0:0:0:
191,184,118950,2,0,P|196:137|240:100,2,85.0000032424928,10|10|10,3:3|3:3|3:3,0:0:0:0:
150,259,119888,37,6,2:2:0:0:
256,329,120356,1,8,3:3:0:0:
362,259,120825,2,0,L|362:355,2,85.0000032424928,8|8|8,3:3|3:3|3:3,0:0:0:0:
362,173,121763,21,6,0:0:0:0:
257,245,122231,1,8,3:3:0:0:
150,174,122700,2,0,L|150:270,2,85.0000032424928,10|8|10,3:3|3:3|3:3,0:0:0:0:
150,87,123638,21,6,0:0:0:0:
255,159,124106,1,8,3:3:0:0:
362,88,124575,2,0,L|362:184,2,85.0000032424928,8|8|8,3:3|3:3|3:3,0:0:0:0:
358,2,125513,21,10,3:3:0:0:
253,74,125981,1,10,3:3:0:0:
147,2,126450,1,10,3:3:0:0:
75,47,126763,2,0,P|66:18|62:-22,2,42.5000016212464,2|0|0,0:0|0:0|0:0,0:0:0:0:
82,131,127388,21,4,1:0:0:0:
33,248,127856,2,0,P|78:261|132:247,1,85.0000032424928,10|8,0:3|0:3,0:0:0:0:
154,238,128325,1,2,0:3:0:0:
209,123,128794,1,8,0:3:0:0:
247,105,128951,2,0,P|289:100|330:113,1,85.0000032424928,8|10,0:3|0:3,0:0:0:0:
445,163,129731,2,0,P|428:147|402:94,2,42.5000016212464,10|0|2,0:3|0:0|0:0,0:0:0:0:
482,143,130200,2,0,L|482:31,2,85.0000032424928,8|8|8,3:3|3:3|3:3,0:0:0:0:
510,223,131138,21,4,1:1:0:0:
395,277,131606,1,10,0:3:0:0:
275,232,132075,1,10,0:3:0:0:
158,283,132544,2,0,P|116:288|75:275,1,85.0000032424928,10|8,0:3|0:3,0:0:0:0:
40,251,133013,21,6,0:0:0:0:
131,162,133481,1,6,0:0:0:0:
258,166,133950,1,6,0:0:0:0:
326,216,134263,1,2,0:0:0:0:
363,235,134419,2,0,P|405:240|446:227,1,85.0000032424928,6|0,2:2|0:0,0:0:0:0:
479,203,134888,21,4,1:1:0:0:
394,107,135356,2,0,P|381:66|352:35,1,85.0000032424928,10|8,0:3|0:3,0:0:0:0:
315,14,135825,1,2,0:0:0:0:
287,138,136294,1,10,0:3:0:0:
255,166,136451,2,0,P|215:181|173:180,1,85.0000032424928,10|10,0:3|0:3,0:0:0:0:
48,165,137231,2,0,P|65:149|91:96,2,42.5000016212464,10|0|2,0:3|0:0|0:0,0:0:0:0:
12,145,137700,2,0,L|12:33,2,85.0000032424928,8|8|8,3:3|3:3|3:3,0:0:0:0:
0,229,138638,21,4,1:1:0:0:
93,315,139106,2,0,P|138:328|192:314,1,85.0000032424928,10|8,0:3|0:3,0:0:0:0:
214,305,139575,1,2,0:0:0:0:
340,319,140044,2,0,P|385:332|439:318,1,85.0000032424928,10|8,0:3|0:3,0:0:0:0:
462,311,140513,21,6,0:0:0:0:
391,204,140981,1,2,0:0:0:0:
268,238,141450,2,0,P|223:251|169:237,1,85.0000032424928,6|0,0:0|0:0,0:0:0:0:
150,221,141919,2,0,P|108:215|67:228,1,85.0000032424928,6|0,0:0|0:0,0:0:0:0:
28,244,142388,5,6,0:0:0:0:
103,126,142856,2,0,P|142:109|184:111,1,85.0000032424928,2|0,3:0|3:0,0:0:0:0:
223,126,143325,1,2,3:0:0:0:
333,190,143794,21,0,3:0:0:0:
353,152,143950,2,0,P|359:109|345:68,1,85.0000032424928,2|0,3:0|3:0,0:0:0:0:
225,29,144731,2,0,P|183:20|142:29,1,85.0000032424928,2|0,3:0|0:0,0:0:0:0:
103,45,145200,2,0,P|49:122|54:212,1,170.000006484986,2|0,3:0|3:0,0:0:0:0:
74,276,146138,21,2,3:0:0:0:
193,320,146606,1,2,3:0:0:0:
316,286,147075,1,2,3:0:0:0:
422,356,147544,2,0,P|441:318|442:276,1,85.0000032424928,2|0,3:0|3:0,0:0:0:0:
432,234,148013,1,0,3:2:0:0:
470,75,148950,22,8,L|534:75,2,42.5000016212464,8|8|8,0:3|0:3|0:3,0:3:0:0:
438,47,149419,2,8,L|438:-17,2,42.5000016212464,8|8|8,0:3|0:3|0:3,0:3:0:0:
406,75,149888,5,4,1:1:0:0:
459,190,150356,2,0,P|419:205|377:203,1,85.0000032424928,8|8,0:3|0:3,0:0:0:0:
336,193,150825,1,2,0:0:0:0:
294,72,151294,1,2,0:0:0:0:
265,103,151450,2,0,L|223:146,1,42.5000016212464
200,158,151763,2,0,P|158:163|118:150,1,85.0000032424928,8|8,0:3|0:3,0:0:0:0:
95,113,152231,2,0,P|112:97|138:44,2,42.5000016212464,10|0|2,0:3|0:0|0:3,0:0:0:0:
58,93,152700,2,0,L|58:-19,2,85.0000032424928,8|8|8,3:3|3:3|3:3,0:0:0:0:
38,176,153638,21,4,1:1:0:0:
149,236,154106,2,0,P|194:249|248:235,1,85.0000032424928,8|8,0:3|0:3,0:0:0:0:
270,226,154575,1,2,0:0:0:0:
350,251,154887,1,2,0:0:0:0:
390,236,155044,2,0,P|423:209|443:171,1,85.0000032424928,8|10,0:3|0:3,0:0:0:0:
437,130,155513,22,0,B|393:118|393:118|325:130,1,85.0000032424928,6|2,0:0|0:0,0:0:0:0:
333,161,155981,2,0,B|294:167|294:167|250:155,1,85.0000032424928,6|2,0:0|0:0,0:0:0:0:
229,117,156450,2,0,B|185:105|185:105|146:111,1,85.0000032424928,6|2,0:0|0:0,0:0:0:0:
105,123,156919,1,6,0:0:0:0:
18,214,157388,21,12,3:3:0:0:
110,301,157856,1,0,3:0:0:0:
202,213,158325,2,0,P|267:198|353:221,1,127.500004863739,2|2,3:0|3:0,3:0:0:0:
364,228,158950,2,0,L|415:228,1,42.5000016212464,8|0,3:0|3:0,3:0:0:0:
449,228,159263,21,12,3:3:0:0:
410,107,159731,1,0,3:0:0:0:
299,43,160200,2,0,P|256:37|214:45,1,85.0000032424928,2|0,3:0|3:0,3:0:0:0:
176,61,160669,2,0,P|134:70|91:63,1,85.0000032424928,2|0,3:0|3:0,3:0:0:0:
53,47,161138,21,12,3:3:0:0:
113,159,161606,1,0,3:0:0:0:
229,211,162075,2,0,P|294:226|380:203,1,127.500004863739,2|2,3:0|3:0,3:0:0:0:
437,224,162856,1,2,3:0:0:0:
441,267,163013,22,0,P|385:304|296:312,1,127.500004863739,6|0,3:3|3:0,0:0:0:0:
240,315,163794,1,2,3:0:0:0:
211,284,163950,2,0,P|155:248|66:240,1,127.500004863739,2|2,3:0|3:0,0:0:0:0:
22,193,164731,21,2,3:0:0:0:
51,162,164887,2,0,P|107:126|196:118,1,127.500004863739,6|2,3:0|3:0,0:0:0:0:
251,122,165669,1,2,3:0:0:0:
280,153,165825,2,0,P|336:189|425:197,1,127.500004863739,2|2,3:0|3:0,0:0:0:0:
479,185,166606,37,0,3:0:0:0:
