osu file format v14

[General]
AudioFilename: audio.mp3
AudioLeadIn: 0
PreviewTime: 74888
Countdown: 0
SampleSet: Soft
StackLeniency: 0.7
Mode: 0
LetterboxInBreaks: 0
WidescreenStoryboard: 1

[Editor]
Bookmarks: -118,58740,67388,74888,89888,104888,119888,127388,137231,142388,149888,157388,166763
DistanceSpacing: 1.5
BeatDivisor: 3
GridSize: 16
TimelineZoom: 1.3

[Metadata]
Title:Mythic set ~ Heart-Stirring Urban Legends
TitleUnicode:Mythic set 〜 心揺さぶる都市伝説
Artist:Rin
ArtistUnicode:凛
Creator:yaspo
Version:Hard
Source:東方深秘録 ~ Urban Legend in Limbo.
Tags:touhou shinpiroku th14.5 心揺さぶる都市伝説 東方深秘録 sdafsf mithew
BeatmapID:1429977
BeatmapSetID:676064

[Difficulty]
HPDrainRate:5
CircleSize:3.7
OverallDifficulty:5
ApproachRate:7
SliderMultiplier:2
SliderTickRate:1

[Events]
//Background and Video events
0,0,"Toho Reimu scaled.jpg",0,0
//Break Periods
//Storyboard Layer 0 (Background)
//Storyboard Layer 1 (Fail)
//Storyboard Layer 2 (Pass)
//Storyboard Layer 3 (Foreground)
//Storyboard Sound Samples

[TimingPoints]
58740,720.720720720721,3,2,1,30,1,0
67388,468.75,4,2,1,60,1,0
67388,-133.333333333333,4,2,1,60,0,0
72700,-133.333333333333,4,2,1,60,0,0
74888,-133.333333333333,4,2,2,70,0,0
89888,-133.333333333333,4,2,2,80,0,0
104888,-133.333333333333,4,2,2,50,0,0
117075,-133.333333333333,4,2,2,55,0,0
118013,-133.333333333333,4,2,2,60,0,0
118950,-133.333333333333,4,2,1,65,0,0
118979,-133.333333333333,4,2,2,65,0,0
119888,-133.333333333333,4,2,2,50,0,0
121763,-133.333333333333,4,2,2,50,0,0
123638,-133.333333333333,4,2,1,50,0,0
123667,-133.333333333333,4,2,2,50,0,0
125513,-133.333333333333,4,2,2,50,0,0
126450,-133.333333333333,4,2,2,60,0,0
126763,-133.333333333333,4,2,2,60,0,0
127075,-133.333333333333,4,2,2,60,0,0
127388,-133.333333333333,4,2,2,80,0,1
141294,-133.333333333333,4,2,2,80,0,0
141450,-133.333333333333,4,2,2,70,0,0
142075,-133.333333333333,4,2,2,50,0,0
142388,-133.333333333333,4,2,2,50,0,0
148013,-133.333333333333,4,2,2,80,0,0
149888,-133.333333333333,4,2,2,80,0,1
156919,-133.333333333333,4,2,2,80,0,0
157388,-133.333333333333,4,2,1,60,0,0
162700,-133.333333333333,4,2,1,60,0,0
166606,-133.333333333333,4,2,1,60,0,0
166763,-133.333333333333,4,2,1,5,0,0
166919,-133.333333333333,4,2,1,60,0,0
170513,695.652173913044,3,2,2,100,1,0

[Colours]
Combo1 : 116,100,207
Combo2 : 227,104,150
Combo3 : 189,51,85
Combo4 : 200,184,255

[HitObjects]
17,367,58740,5,2,0:0:0:0:
110,332,59100,2,0,L|219:373,1,100
296,332,59821,1,0,0:0:0:0:
389,367,60181,1,0,0:0:0:0:
482,332,60541,1,2,0:0:0:0:
482,282,60721,1,2,0:0:0:0:
482,231,60902,21,2,0:0:0:0:
389,196,61262,2,0,L|280:237,1,100
203,196,61983,1,0,0:0:0:0:
109,231,62343,1,0,0:0:0:0:
17,196,62703,1,2,0:0:0:0:
17,146,62883,1,2,0:0:0:0:
17,95,63064,21,2,0:0:0:0:
110,60,63424,2,0,L|219:101,1,100
296,60,64145,1,0,0:0:0:0:
389,95,64505,1,0,0:0:0:0:
482,60,64865,1,2,0:0:0:0:
482,109,65045,1,2,0:0:0:0:
482,159,65226,21,2,0:0:0:0:
446,193,65406,1,2,0:0:0:0:
351,160,65767,1,2,0:0:0:0:
276,226,66127,1,2,0:0:0:0:
229,243,66307,1,2,0:0:0:0:
181,226,66487,1,2,0:0:0:0:
86,259,66848,1,2,0:0:0:0:
0,208,67208,1,2,0:0:0:0:
0,295,67388,37,12,3:0:0:0:
217,359,67856,1,2,3:2:0:0:
240,210,68169,1,2,3:2:0:0:
188,263,68325,2,0,P|158:254|128:235,2,50.0000019073487,2|0|2,3:2|2:0|3:2,3:3:0:0:
260,282,68794,1,0,2:0:0:0:
314,230,68950,2,0,P|344:222|379:224,1,50.0000019073487,10|10,3:3|3:3,0:0:0:0:
435,242,69263,21,12,3:0:0:0:
310,54,69731,1,2,3:2:0:0:
224,177,70044,1,2,3:2:0:0:
187,111,70200,2,0,P|218:102|253:104,2,50.0000019073487,2|0|2,3:2|3:0|3:2,0:0:0:0:
111,106,70669,2,0,P|110:74|99:41,2,50.0000019073487,2|0|8,3:2|3:0|3:0,0:0:0:0:
62,163,71138,21,12,3:0:0:0:
198,341,71606,1,2,3:2:0:0:
280,215,71919,1,2,3:2:0:0:
228,268,72075,2,0,P|198:259|168:240,2,50.0000019073487,2|0|2,3:2|0:0|3:2,3:0:0:0:
300,287,72544,1,0,0:0:0:0:
354,235,72700,2,0,P|384:227|419:229,1,50.0000019073487,2|10,3:2|3:3,0:0:0:0:
482,236,73013,21,8,3:0:0:0:
482,236,73169,1,2,3:2:0:0:
406,105,73481,2,0,P|362:104|293:126,1,100.000003814697,2|2,3:0|3:0,0:0:0:0:
244,157,73950,1,10,3:3:0:0:
244,157,74106,1,2,0:0:0:0:
189,296,74419,2,0,P|139:296|90:283,1,100.000003814697,2|0,3:2|3:0,0:0:0:0:
20,254,74888,22,0,P|50:216|102:208,1,100.000003814697,4|0,1:0|0:0,0:0:0:0:
172,219,75356,2,0,P|221:219|270:206,1,100.000003814697,10|10,2:3|2:3,0:3:0:0:
327,157,75825,2,0,P|374:143|418:118,1,100.000003814697,6|0,2:3|0:0,0:3:0:0:
455,52,76294,2,0,P|480:58|518:79,2,50.0000019073487,8|2|10,2:3|0:0|0:3,0:0:0:0:
379,55,76763,22,0,P|330:67|280:67,1,100.000003814697,6|0,3:0|0:0,0:3:0:0:
207,54,77231,1,10,2:3:0:0:
98,157,77544,1,2,0:0:0:0:
33,118,77700,2,0,L|33:18,2,100.000003814697,10|8|8,2:3|0:3|0:3,0:0:0:0:
4,265,78638,22,0,P|34:303|86:311,1,100.000003814697,6|0,2:3|0:0,0:0:0:0:
153,286,79106,2,0,P|199:298|250:298,1,100.000003814697,10|10,2:3|2:3,0:3:0:0:
322,325,79575,2,0,P|356:290|382:246,1,100.000003814697,6|0,2:3|0:0,0:3:0:0:
423,183,80044,2,0,P|445:195|476:225,2,50.0000019073487,10|2|10,2:3|0:0|2:3,0:0:0:0:
347,180,80513,22,0,P|312:145|286:101,1,100.000003814697,6|0,2:3|0:0,0:3:0:0:
258,32,80981,1,10,2:3:0:0:
150,136,81294,1,10,2:3:0:0:
84,99,81450,2,0,L|84:-19,2,100.000003814697,10|10|8,2:3|2:3|0:3,0:0:0:0:
39,243,82388,22,0,P|69:281|121:289,1,100.000003814697,6|0,2:3|0:0,0:0:0:0:
190,273,82856,2,0,P|238:260|288:259,1,100.000003814697,10|10,2:3|2:3,0:3:0:0:
361,278,83325,2,0,P|354:303|333:341,2,50.0000019073487,6|2|2,2:3|0:3|0:3,0:0:0:0:
419,230,83794,2,0,P|444:236|482:257,2,50.0000019073487,10|2|10,0:3|0:3|2:3,0:0:0:0:
348,202,84263,22,0,P|301:185|251:180,1,100.000003814697,6|0,2:3|0:0,0:3:0:0:
176,182,84731,1,10,2:3:0:0:
36,237,85044,1,2,2:3:0:0:
102,270,85200,2,0,L|102:382,2,100.000003814697,10|10|8,2:3|2:3|2:3,0:0:0:0:
105,119,86138,22,0,P|150:98|199:89,1,100.000003814697,6|0,0:3|0:0,0:3:0:0:
273,97,86606,1,10,2:3:0:0:
214,235,86919,1,10,2:3:0:0:
288,242,87075,2,0,P|337:233|382:212,1,100.000003814697,10|10,0:3|0:3,0:3:0:0:
489,107,87700,1,10,0:3:0:0:
366,19,88013,22,0,P|288:11|181:12,1,150.000005722046,6|6,0:3|0:3,0:0:0:0:
286,224,88950,2,0,L|218:190,1,50.0000019073487,10|10,0:3|0:3,0:0:0:0:
167,185,89263,1,2,0:0:0:0:
167,185,89419,2,0,L|103:222,1,50.0000019073487,2|10,1:3|1:3,0:0:0:0:
59,247,89731,1,2,1:3:0:0:
29,316,89888,22,0,P|59:354|111:362,1,100.000003814697,4|0,1:0|0:0,0:0:0:0:
181,349,90356,1,10,2:3:0:0:
225,288,90513,2,0,P|249:280|293:279,1,50.0000019073487,2|10,2:3|2:3,0:0:0:0:
334,321,90825,2,0,P|380:337|429:341,1,100.000003814697,6|0,2:3|0:0,0:3:0:0:
494,301,91294,1,10,2:3:0:0:
494,301,91450,2,0,P|501:276|502:232,1,50.0000019073487,2|10,2:3|2:3,0:0:0:0:
484,179,91763,22,0,P|434:175|386:183,1,100.000003814697,6|0,2:3|0:0,0:3:0:0:
315,212,92231,1,10,0:3:0:0:
255,74,92544,1,2,0:0:0:0:
255,74,92700,1,6,2:3:0:0:
196,212,93013,1,8,0:3:0:0:
68,291,93325,1,8,0:3:0:0:
41,143,93638,22,0,P|60:98|108:77,1,100.000003814697,6|0,0:3|0:0,0:0:0:0:
175,103,94106,1,10,0:3:0:0:
235,148,94263,2,0,P|260:147|301:133,1,50.0000019073487,2|10,0:3|0:3,0:0:0:0:
332,83,94575,2,0,P|381:79|429:87,1,100.000003814697,6|0,0:3|0:0,0:3:0:0:
492,140,95044,1,10,0:3:0:0:
492,140,95200,2,0,P|499:165|500:209,1,50.0000019073487,2|10,0:3|0:3,0:0:0:0:
466,255,95513,22,0,P|423:230|376:217,1,100.000003814697,6|0,0:3|0:0,0:3:0:0:
299,216,95981,1,10,0:3:0:0:
230,349,96294,1,10,0:3:0:0:
230,349,96450,1,10,0:3:0:0:
159,216,96763,1,10,0:3:0:0:
48,115,97075,1,8,0:3:0:0:
1,258,97388,22,0,P|20:302|68:323,1,100.000003814697,6|0,0:3|0:0,0:0:0:0:
129,285,97856,1,10,0:3:0:0:
159,216,98013,2,0,P|183:210|226:213,1,50.0000019073487,2|10,0:3|0:3,0:0:0:0:
282,217,98325,2,0,L|318:266,1,50.0000019073487,6|2,0:3|0:3,0:0:0:0:
370,313,98638,1,2,0:3:0:0:
370,313,98794,2,0,L|400:273,1,50.0000019073487,10|2,0:3|0:3,0:0:0:0:
440,210,99106,1,10,0:3:0:0:
430,135,99263,22,0,P|403:92|368:59,1,100.000003814697,6|0,0:3|0:0,0:3:0:0:
300,24,99731,1,10,0:3:0:0:
256,167,100044,1,2,0:0:0:0:
256,167,100200,2,0,L|207:113,1,50.0000019073487,6|0,2:3|0:0,0:0:0:0:
172,73,100513,1,10,0:3:0:0:
25,40,100825,1,10,0:3:0:0:
1,188,101138,22,0,P|20:232|68:253,1,100.000003814697,6|0,0:3|0:0,0:0:0:0:
140,254,101606,1,10,0:3:0:0:
222,129,101919,1,8,2:3:0:0:
249,198,102075,2,0,P|275:240|311:274,1,100.000003814697,6|2,0:3|0:3,0:3:0:0:
390,289,102544,1,8,0:3:0:0:
390,289,102700,2,0,P|413:282|449:258,1,50.0000019073487,2|8,0:3|0:3,0:0:0:0:
461,199,103013,22,0,P|410:173|354:156,1,100.000003814697,6|0,2:3|0:0,0:0:0:0:
296,140,103481,1,6,2:3:0:0:
249,360,103950,2,0,L|200:303,1,50.0000019073487,6|2,2:3|2:3,0:0:0:0:
169,262,104263,1,10,2:3:0:0:
98,286,104419,2,0,L|82:205,1,50.0000019073487,2|10,1:3|1:3,0:0:0:0:
77,162,104731,1,2,1:3:0:0:
22,109,104888,6,0,P|91:74|175:65,1,150.000005722046,6|0,2:2|3:0,0:3:0:0:
387,64,105825,1,8,0:3:0:0:
321,199,106138,2,0,P|369:210|418:208,1,100.000003814697,2|2,0:3|0:3,0:3:0:0:
466,351,106763,22,0,P|389:365|306:353,1,150.000005722046,6|2,2:2|3:0,0:3:0:0:
257,140,107700,2,0,P|209:125|159:123,1,100.000003814697,6|0,2:2|3:0,0:3:0:0:
86,140,108169,1,0,3:0:0:0:
8,351,108638,22,0,P|84:365|167:353,1,150.000005722046,6|0,2:2|3:3,0:3:0:0:
378,330,109575,1,8,0:3:0:0:
307,197,109888,2,0,P|354:182|404:180,1,100.000003814697,2|2,0:0|0:0,0:3:0:0:
497,62,110513,22,0,P|427:27|343:18,1,150.000005722046,6|2,2:2|0:0,0:3:0:0:
238,110,111294,1,2,0:0:0:0:
188,165,111450,2,0,P|138:166|89:155,1,100.000003814697,6|8,2:2|0:3,0:3:0:0:
25,115,111919,1,8,0:3:0:0:
25,115,112075,1,4,0:3:0:0:
0,263,112388,22,0,P|70:298|154:307,1,150.000005722046,6|0,2:2|3:3,0:3:0:0:
363,280,113325,1,8,0:3:0:0:
466,171,113638,2,0,P|465:146|451:105,1,50.0000019073487,2|0,0:0|0:0,0:0:0:0:
509,67,113950,2,0,P|495:45|463:17,1,50.0000019073487,2|0,0:0|0:0,0:0:0:0:
411,62,114263,22,0,P|332:57|255:23,1,150.000005722046,6|2,2:2|0:0,0:3:0:0:
206,168,115044,1,2,0:0:0:0:
158,225,115200,2,0,P|108:226|59:215,1,100.000003814697,6|0,2:2|3:3,0:3:0:0:
0,167,115669,1,0,3:3:0:0:
100,368,116138,22,0,P|179:363|256:329,1,150.000005722046,6|0,0:2|3:3,0:3:0:0:
210,113,117075,2,0,P|260:112|309:123,1,100.000003814697,10|2,0:3|0:0,0:3:0:0:
449,173,117700,1,2,0:0:0:0:
354,289,118013,22,0,P|304:290|255:279,1,100.000003814697,10|2,0:3|0:0,0:3:0:0:
114,227,118638,1,2,0:0:0:0:
136,78,118950,22,0,P|186:77|235:88,1,100.000003814697,14|10,0:3|0:3,0:3:0:0:
308,122,119419,1,8,0:3:0:0:
308,122,119575,1,10,0:3:0:0:
449,72,119888,37,4,1:1:0:0:
452,296,120356,1,10,0:3:0:0:
301,299,120669,1,0,3:0:0:0:
301,299,120825,2,0,L|189:299,1,100.000003814697,10|8,0:3|0:3,0:0:0:0:
50,303,121450,1,8,0:3:0:0:
52,152,121763,21,6,0:3:0:0:
128,363,122231,1,10,0:3:0:0:
203,233,122544,1,0,3:0:0:0:
203,233,122700,2,0,L|311:261,1,100.000003814697,10|8,0:3|0:3,0:0:0:0:
442,305,123325,1,8,0:3:0:0:
445,154,123638,21,14,0:3:0:0:
308,332,124106,1,10,0:3:0:0:
289,183,124419,1,0,3:0:0:0:
289,183,124575,2,0,L|178:247,1,100.000003814697,10|8,0:3|0:3,0:0:0:0:
70,304,125200,1,8,0:3:0:0:
47,155,125513,22,0,L|157:219,1,100.000003814697,6|2,0:3|0:3,0:0:0:0:
202,232,125981,2,0,L|312:296,1,100.000003814697,6|2,0:3|0:3,0:0:0:0:
362,269,126450,1,10,0:3:0:0:
488,349,126763,1,2,3:3:0:0:
488,349,126919,2,0,P|503:302|505:252,1,100.000003814697,2|0,3:0|0:0,0:3:0:0:
500,176,127388,22,0,P|481:131|433:110,1,100.000003814697,4|0,1:0|0:0,0:0:0:0:
386,166,127856,2,0,P|338:181|288:183,1,100.000003814697,10|10,0:3|0:3,0:3:0:0:
250,118,128325,2,0,P|202:103|152:101,1,100.000003814697,6|0,0:3|0:0,0:3:0:0:
82,128,128794,1,10,0:3:0:0:
82,128,128950,2,0,P|65:144|46:183,1,50.0000019073487,2|10,0:0|0:3,0:0:0:0:
34,240,129263,22,0,P|82:255|132:257,1,100.000003814697,6|0,0:3|0:0,0:3:0:0:
205,244,129731,2,0,P|198:220|185:198,2,50.0000019073487,10|2|10,0:3|0:3|0:3,0:0:0:0:
249,304,130200,2,0,P|297:319|347:321,1,100.000003814697,10|10,0:3|0:3,0:3:0:0:
495,303,130825,1,10,0:3:0:0:
358,240,131138,21,6,0:3:0:0:
314,19,131606,1,6,0:3:0:0:
108,110,132075,1,6,0:3:0:0:
5,310,132544,2,0,P|-1:334|0:359,2,50.0000019073487,10|2|10,0:3|0:0|0:3,0:0:0:0:
34,240,133013,21,6,2:2:0:0:
253,286,133481,1,6,0:0:0:0:
472,235,133950,1,6,0:0:0:0:
484,85,134263,1,8,0:3:0:0:
484,85,134419,2,0,P|477:60|465:38,1,50.0000019073487,6|8,0:0|0:3,0:0:0:0:
411,90,134731,1,6,0:0:0:0:
411,90,134888,22,0,P|372:119|319:113,1,100.000003814697,4|0,1:0|0:0,0:0:0:0:
281,53,135356,2,0,P|233:38|183:36,1,100.000003814697,10|10,0:3|0:3,0:3:0:0:
111,12,135825,2,0,P|66:35|29:69,1,100.000003814697,6|0,0:3|0:0,0:3:0:0:
61,143,136294,1,10,0:3:0:0:
61,143,136450,2,0,P|67:168|68:193,1,50.0000019073487,2|0,0:0|0:0,0:0:0:0:
29,256,136763,22,0,P|77:271|127:273,1,100.000003814697,6|0,0:3|0:0,0:3:0:0:
197,248,137231,2,0,P|190:224|177:202,2,50.0000019073487,10|2|2,0:3|0:0|0:0,0:0:0:0:
253,297,137700,2,0,P|301:282|351:280,1,100.000003814697,10|10,0:3|0:3,0:3:0:0:
496,313,138325,1,10,0:3:0:0:
452,169,138638,21,6,0:3:0:0:
279,25,139106,1,10,0:3:0:0:
214,160,139419,1,2,0:0:0:0:
214,160,139575,1,6,0:3:0:0:
31,28,140044,1,10,0:3:0:0:
23,198,140356,1,2,0:0:0:0:
23,198,140513,22,0,P|76:238|182:250,1,150.000005722046,6|6,0:0|0:0,0:0:0:0:
362,345,141450,2,0,P|423:319|486:233,1,150.000005722046,6|6,0:2|0:0,0:0:0:0:
456,32,142388,6,0,P|404:105|325:135,1,150.000005722046,4|2,1:0|3:0,0:0:0:0:
128,104,143325,1,2,0:0:0:0:
32,307,143794,21,0,3:0:0:0:
32,307,143950,2,0,P|53:319|78:325,1,50.0000019073487,2|0,0:0|0:0,0:0:0:0:
153,323,144263,1,2,0:0:0:0:
196,102,144731,2,0,P|174:88|150:82,2,50.0000019073487,2|2|2,3:3|0:3|0:3,0:0:0:0:
256,146,145200,2,0,P|304:161|354:163,1,100.000003814697,2|2,0:0|0:0,0:3:0:0:
501,136,145825,1,2,3:0:0:0:
497,286,146138,22,0,P|419:241|334:248,1,150.000005722046,2|2,0:0|3:3,0:0:0:0:
146,312,147075,1,2,0:0:0:0:
39,113,147544,2,0,P|25:134|19:158,2,50.0000019073487,2|2|2,3:0|0:0|3:0,0:0:0:0:
13,42,148013,21,2,3:0:0:0:
108,245,148481,1,10,2:3:0:0:
320,319,148950,2,0,L|384:319,1,50.0000019073487,8|8,2:3|2:3,0:3:0:0:
445,317,149263,1,12,1:3:0:0:
445,317,149419,2,0,L|445:253,1,50.0000019073487,8|8,2:3|2:3,0:3:0:0:
445,192,149731,1,8,2:3:0:0:
502,143,149888,38,0,P|483:98|435:77,1,100.000003814697,4|0,1:0|0:0,0:0:0:0:
373,113,150356,2,0,P|355:130|333:141,1,50.0000019073487,10|0,0:3|0:0,0:0:0:0:
258,134,150669,1,10,0:3:0:0:
198,179,150825,2,0,P|147:182|98:171,1,100.000003814697,6|0,0:3|0:0,0:3:0:0:
29,142,151294,1,8,0:3:0:0:
29,142,151450,2,0,P|22:165|23:190,1,50.0000019073487,2|0,0:0|0:0,0:0:0:0:
18,265,151763,22,0,P|60:293|108:308,1,100.000003814697,6|0,0:3|0:0,0:3:0:0:
181,310,152231,2,0,P|204:303|228:304,1,50.0000019073487,10|2,0:3|0:3,0:0:0:0:
307,327,152544,1,2,0:3:0:0:
307,327,152700,1,10,0:3:0:0:
443,264,153013,1,10,0:3:0:0:
488,121,153325,2,0,P|489:96|480:71,1,50.0000019073487,10|0,0:3|0:0,0:0:0:0:
414,108,153638,22,0,P|368:126|319:107,1,100.000003814697,6|0,0:3|0:0,0:0:0:0:
291,41,154106,2,0,P|267:33|242:34,1,50.0000019073487,10|0,0:3|0:0,0:0:0:0:
191,89,154419,1,2,0:0:0:0:
127,49,154575,2,0,P|76:59|32:82,1,100.000003814697,10|2,0:3|0:0,0:3:0:0:
13,156,155044,1,10,0:3:0:0:
13,156,155200,2,0,P|11:180|18:204,1,50.0000019073487,2|8,0:0|0:3,0:0:0:0:
52,271,155513,22,0,L|129:250,1,50.0000019073487,10|2,0:3|0:3,0:0:0:0:
171,235,155825,1,2,0:3:0:0:
158,308,155981,2,0,L|235:328,1,50.0000019073487,10|2,0:3|0:3,0:0:0:0:
277,344,156293,1,2,0:3:0:0:
264,269,156450,2,0,L|341:248,1,50.0000019073487,10|2,0:3|0:3,0:0:0:0:
385,234,156762,1,2,0:3:0:0:
436,291,156919,1,6,0:2:0:0:
512,79,157388,21,12,3:0:0:0:
295,25,157856,1,2,3:0:0:0:
272,174,158169,1,2,3:0:0:0:
324,121,158325,2,0,P|354:130|384:149,2,50.0000019073487,2|0|2,3:0|3:0|3:0,3:0:0:0:
252,102,158794,1,0,3:0:0:0:
198,154,158950,2,0,P|168:162|133:160,1,50.0000019073487,8|8,3:3|3:3,0:0:0:0:
77,142,159263,21,12,3:3:0:0:
202,330,159731,1,2,3:0:0:0:
288,207,160044,1,2,3:0:0:0:
325,273,160200,2,0,P|294:282|259:280,2,50.0000019073487,2|0|2,3:0|3:0|3:0,0:0:0:0:
401,278,160669,2,0,P|402:310|413:343,2,50.0000019073487,2|0|8,3:0|3:0|3:0,0:0:0:0:
450,221,161138,21,12,3:0:0:0:
314,43,161606,1,2,3:0:0:0:
232,169,161919,1,2,3:0:0:0:
284,116,162075,2,0,P|314:125|344:144,2,50.0000019073487,2|0|2,3:0|0:0|3:0,3:0:0:0:
212,97,162544,1,0,0:0:0:0:
158,149,162700,2,0,P|128:157|93:155,1,50.0000019073487,2|2,3:2|3:2,0:0:0:0:
35,146,163013,21,8,3:0:0:0:
35,146,163169,1,2,3:2:0:0:
106,279,163481,2,0,P|150:280|219:258,1,100.000003814697,2|2,3:0|3:0,0:0:0:0:
268,227,163950,1,10,3:3:0:0:
268,227,164106,1,2,0:0:0:0:
323,88,164419,2,0,P|373:88|422:101,1,100.000003814697,2|0,3:2|3:0,0:0:0:0:
489,145,164888,21,14,0:3:0:0:
489,145,165044,1,2,3:2:0:0:
430,282,165356,2,0,P|380:282|331:269,1,100.000003814697,2|2,3:0|3:0,0:0:0:0:
268,227,165825,1,10,3:3:0:0:
268,227,165981,1,0,0:0:0:0:
117,223,166294,1,2,3:2:0:0:
39,350,166606,5,2,3:2:0:0:
