osu file format v14

[General]
AudioFilename: audio.mp3
AudioLeadIn: 0
PreviewTime: 74888
Countdown: 0
SampleSet: Soft
StackLeniency: 0.7
Mode: 0
LetterboxInBreaks: 0
WidescreenStoryboard: 1

[Editor]
Bookmarks: -118,58740,67388,74888,89888,104888,119888,127388,137231,142388,149888,157388,166763
DistanceSpacing: 0.9
BeatDivisor: 3
GridSize: 16
TimelineZoom: 1.1

[Metadata]
Title:Mythic set ~ Heart-Stirring Urban Legends
TitleUnicode:Mythic set 〜 心揺さぶる都市伝説
Artist:Rin
ArtistUnicode:凛
Creator:yaspo
Version:Easy
Source:東方深秘録 ~ Urban Legend in Limbo.
Tags:touhou shinpiroku th14.5 心揺さぶる都市伝説 東方深秘録 sdafsf mithew
BeatmapID:1429976
BeatmapSetID:676064

[Difficulty]
HPDrainRate:2
CircleSize:3
OverallDifficulty:2
ApproachRate:3
SliderMultiplier:1.7
SliderTickRate:1

[Events]
//Background and Video events
0,0,"Toho Reimu scaled.jpg",0,0
//Break Periods
//Storyboard Layer 0 (Background)
//Storyboard Layer 1 (Fail)
//Storyboard Layer 2 (Pass)
//Storyboard Layer 3 (Foreground)
//Storyboard Sound Samples

[TimingPoints]
58740,720.720720720721,3,2,3,30,1,0
67388,468.75,4,2,3,60,1,0
67388,-133.333333333333,4,2,3,60,0,0
72700,-133.333333333333,4,2,3,60,0,0
74888,-133.333333333333,4,2,2,70,0,0
89888,-133.333333333333,4,2,2,80,0,0
104888,-133.333333333333,4,2,2,50,0,0
117075,-133.333333333333,4,2,2,55,0,0
117388,-133.333333333333,4,2,2,5,0,0
117700,-133.333333333333,4,2,2,55,0,0
118013,-133.333333333333,4,2,2,60,0,0
118325,-133.333333333333,4,2,2,5,0,0
118638,-133.333333333333,4,2,2,60,0,0
118950,-133.333333333333,4,2,1,65,0,0
118979,-133.333333333333,4,2,2,65,0,0
119263,-133.333333333333,4,2,2,10,0,0
119575,-133.333333333333,4,2,2,65,0,0
119888,-133.333333333333,4,2,2,50,0,0
121138,-133.333333333333,4,2,2,5,0,0
121450,-133.333333333333,4,2,2,50,0,0
121763,-133.333333333333,4,2,2,50,0,0
123325,-133.333333333333,4,2,2,50,0,0
123638,-133.333333333333,4,2,1,50,0,0
123667,-133.333333333333,4,2,2,50,0,0
125513,-133.333333333333,4,2,2,50,0,0
126450,-133.333333333333,4,2,2,60,0,0
126763,-133.333333333333,4,2,2,60,0,0
127075,-133.333333333333,4,2,2,60,0,0
127388,-133.333333333333,4,2,2,80,0,1
141294,-133.333333333333,4,2,2,80,0,0
141450,-133.333333333333,4,2,2,70,0,0
142075,-133.333333333333,4,2,2,50,0,0
142388,-133.333333333333,4,2,2,50,0,0
148013,-133.333333333333,4,2,2,80,0,0
149888,-133.333333333333,4,2,2,80,0,1
156919,-133.333333333333,4,2,2,80,0,0
157388,-133.333333333333,4,2,3,60,0,0
162700,-133.333333333333,4,2,3,60,0,0
166606,-133.333333333333,4,2,3,60,0,0
166763,-133.333333333333,4,2,3,5,0,0
166919,-133.333333333333,4,2,3,60,0,0
170513,695.652173913044,3,2,2,100,1,0

[Colours]
Combo1 : 116,100,207
Combo2 : 227,104,150
Combo3 : 189,51,85
Combo4 : 200,184,255

[HitObjects]
42,305,58740,5,2,0:0:0:0:
125,323,59100,2,0,P|255:332|330:327,1,170,2|2,0:0|0:0,0:0:0:0:
379,324,60181,1,2,0:0:0:0:
512,218,60902,21,2,0:0:0:0:
429,236,61262,2,0,P|299:245|224:240,1,170,2|2,0:0|0:0,0:0:0:0:
175,237,62343,1,2,0:0:0:0:
41,131,63064,21,2,0:0:0:0:
124,149,63424,2,0,P|254:158|329:153,1,170,2|2,0:0|0:0,0:0:0:0:
463,146,64866,21,2,0:0:0:0:
463,61,65226,2,0,P|390:58|319:63,1,127.5,2|2,0:0|0:0,0:0:0:0:
252,78,66127,1,2,0:0:0:0:
81,79,66848,1,2,0:0:0:0:
52,223,67388,22,0,B|74:287|74:287|154:322,1,127.500004863739,12|0,3:3|0:0,0:0:0:0:
242,331,68325,2,0,P|303:328|378:289,1,127.500004863739,2|2,3:3|3:0,3:0:0:0:
461,241,69263,21,12,3:3:0:0:
364,179,69731,1,0,3:0:0:0:
255,216,70200,2,0,B|195:228|195:228|113:212,1,127.500004863739,2|2,3:3|3:3,3:3:0:0:
24,168,71138,21,12,3:3:0:0:
107,89,71606,1,0,3:3:0:0:
214,49,72075,2,0,P|275:51|350:90,1,127.500004863739,2|2,3:3|3:3,3:3:0:0:
408,165,73013,22,0,B|376:185|376:185|281:184,1,127.500004863739,12|2,0:3|3:0,0:0:0:0:
183,133,73950,2,0,B|152:113|152:113|49:118,1,127.500004863739,8|2,0:3|3:0,0:0:0:0:
11,223,74888,21,4,1:1:0:0:
41,333,75356,2,0,P|110:345|187:321,1,127.500004863739,10|2,0:3|0:0,0:0:0:0:
244,249,76294,2,0,P|313:236|390:260,1,127.500004863739,10|2,0:3|0:0,0:0:0:0:
434,342,77231,1,8,3:3:0:0:
505,252,77700,2,0,L|505:115,1,127.500004863739,8|8,3:3|3:3,0:0:0:0:
505,9,78638,21,4,1:1:0:0:
419,84,79106,2,0,P|349:96|272:72,1,127.500004863739,10|2,0:3|0:0,0:0:0:0:
179,89,80044,2,0,P|138:146|127:226,1,127.500004863739,10|2,0:3|0:0,0:0:0:0:
120,315,80981,1,8,3:3:0:0:
14,360,81450,2,0,L|14:222,1,127.500004863739,8|8,3:3|3:3,0:0:0:0:
14,117,82388,21,4,1:1:0:0:
89,30,82856,1,10,0:3:0:0:
170,111,83325,2,0,B|235:89|235:128|321:100,1,127.500004863739,6|2,0:3|0:0,0:0:0:0:
381,31,84263,1,10,0:3:0:0:
462,111,84731,1,8,3:3:0:0:
511,214,85200,2,0,L|511:349,1,127.500004863739,8|8,3:3|3:3,0:0:0:0:
398,316,86138,22,0,P|328:304|251:328,1,127.500004863739,10|2,3:3|0:0,0:0:0:0:
163,349,87075,2,0,P|110:361|56:354,2,85.0000032424928,10|8|8,3:3|3:3|3:3,0:0:0:0:
204,279,88013,2,0,P|229:212|219:131,1,127.500004863739,8|0,0:3|0:0,0:0:0:0:
224,42,88950,1,0,0:0:0:0:
19,147,89888,21,4,1:1:0:0:
9,261,90356,2,0,P|79:279|159:262,1,127.500004863739,10|2,0:3|0:0,0:0:0:0:
243,260,91294,2,0,P|313:246|391:269,1,127.500004863739,10|2,0:3|0:0,0:0:0:0:
432,351,92231,1,8,3:3:0:0:
510,269,92700,2,0,L|510:125,1,127.500004863739,8|8,3:3|3:3,0:0:0:0:
510,26,93638,21,4,1:1:0:0:
430,108,94106,2,0,P|379:145|318:160,1,127.500004863739,10|2,0:3|0:0,0:0:0:0:
202,155,95044,2,0,P|140:140|89:102,1,127.500004863739,10|2,0:3|0:0,0:0:0:0:
32,2,95981,1,8,3:3:0:0:
0,112,96450,2,0,L|-1:249,1,127.500004863739,8|8,3:3|3:3,0:0:0:0:
2,354,97388,21,4,1:1:0:0:
89,273,97856,1,10,0:3:0:0:
176,344,98325,2,0,B|241:366|241:327|327:355,1,127.500004863739,6|2,0:3|0:0,0:0:0:0:
387,273,99263,1,10,0:3:0:0:
472,349,99731,1,8,3:3:0:0:
510,240,100200,2,0,L|510:80,1,127.500004863739,8|8,3:3|3:3,0:0:0:0:
441,20,101138,22,0,P|378:6|316:18,1,127.500004863739,10|2,0:3|0:0,0:0:0:0:
202,28,102075,2,0,P|151:11|96:13,2,85.0000032424928,10|8|8,3:3|3:3|3:3,0:0:0:0:
264,79,103013,2,0,P|269:142|250:202,1,127.500004863739,8|0,0:3|0:0,0:0:0:0:
204,308,103950,1,0,0:0:0:0:
0,203,104888,22,0,P|117:185|261:205,1,255.000009727478,6|8,0:0|0:3,0:0:0:0:
331,215,106138,2,0,P|386:211|442:189,1,85.0000032424928,2|2,3:0|3:0,0:0:0:0:
460,136,106763,21,10,0:3:0:0:
350,102,107231,1,2,0:0:0:0:
239,71,107700,1,6,3:2:0:0:
20,172,108638,22,0,P|112:245|246:300,1,255.000009727478,6|8,2:2|0:3,0:0:0:0:
318,301,109888,2,0,P|370:282|418:247,1,85.0000032424928,2|2,3:0|3:0,0:0:0:0:
437,198,110513,21,10,0:3:0:0:
322,196,110981,1,2,0:0:0:0:
207,189,111450,2,0,P|141:172|68:124,1,127.500004863739,10|8,0:3|0:3,0:0:0:0:
35,41,112388,22,0,P|151:23|294:43,1,255.000009727478,6|8,0:0|0:3,0:0:0:0:
361,73,113638,2,0,P|403:107|437:157,1,85.0000032424928,2|2,3:0|3:0,0:0:0:0:
458,209,114263,21,10,0:3:0:0:
345,230,114731,1,2,0:0:0:0:
232,253,115200,1,6,3:2:0:0:
80,80,116138,21,6,0:0:0:0:
26,303,117075,2,0,P|110:328|210:287,1,170.000006484986,10|2,0:3|0:0,0:0:0:0:
204,226,118013,2,0,P|202:137|267:51,1,170.000006484986,10|2,0:3|0:0,0:0:0:0:
321,89,118950,2,0,P|401:111|481:86,1,170.000006484986,10|2,0:3|0:0,0:0:0:0:
512,12,119888,21,6,0:0:0:0:
397,19,120356,1,8,0:3:0:0:
282,25,120825,2,0,P|258:106|283:186,1,170.000006484986,8|8,0:3|0:3,0:0:0:0:
318,258,121763,1,6,0:0:0:0:
203,261,122231,1,8,0:3:0:0:
88,259,122700,2,0,P|64:177|89:97,1,170.000006484986,8|8,0:3|0:3,0:0:0:0:
161,62,123638,21,6,0:0:0:0:
162,180,124106,1,8,0:3:0:0:
165,294,124575,2,0,P|245:318|325:295,1,170.000006484986,8|8,0:3|0:3,0:0:0:0:
391,248,125513,1,6,0:0:0:0:
387,133,125981,1,8,0:3:0:0:
446,34,126450,2,0,P|494:103|474:214,1,170.000006484986,10|10,0:3|0:3,0:0:0:0:
460,261,127388,21,4,1:1:0:0:
392,353,127856,2,0,P|330:366|267:353,1,127.500004863739,10|2,0:3|0:0,0:0:0:0:
209,254,128794,1,8,0:3:0:0:
155,355,129263,1,10,0:3:0:0:
99,254,129731,1,0,0:0:0:0:
19,171,130200,2,0,L|19:75,2,85.0000032424928
0,250,131138,21,4,1:1:0:0:
102,300,131606,2,0,P|163:313|226:300,1,127.500004863739,10|2,0:3|0:0,0:0:0:0:
319,233,132544,1,10,0:3:0:0:
433,243,133013,2,0,B|449:304|449:304|429:379,2,127.500004863739,10|10|10,0:3|0:3|0:3,0:0:0:0:
411,165,134263,2,0,L|413:40,1,85.0000032424928,10|2,0:3|0:0,0:0:0:0:
460,14,134888,21,4,1:1:0:0:
345,2,135356,2,0,P|281:-12|220:0,1,127.500004863739,10|2,0:3|0:0,0:0:0:0:
173,104,136294,1,8,0:3:0:0:
119,3,136763,1,10,0:3:0:0:
63,104,137231,1,0,0:0:0:0:
10,206,137700,2,0,L|10:302,2,85.0000032424928
40,131,138638,21,4,1:1:0:0:
144,178,139106,2,0,P|206:192|268:179,1,127.500004863739,10|2,0:3|0:0,0:0:0:0:
374,136,140044,1,10,0:3:0:0:
477,184,140513,21,6,0:0:0:0:
379,243,140981,1,6,0:0:0:0:
265,223,141450,2,0,P|202:208|140:221,1,127.500004863739,10|2,0:3|0:0,0:0:0:0:
79,318,142388,22,0,B|138:285|251:357|338:316,1,255.000009727478,6|2,3:2|3:0,0:0:0:0:
442,296,143794,1,0,3:0:0:0:
442,181,144263,21,2,3:0:0:0:
329,159,144731,2,0,B|269:145|269:145|194:183|74:166,1,255.000009727478,2|2,3:0|3:0,0:0:0:0:
63,53,146138,22,0,P|190:11|334:51,1,255.000009727478,2|2,3:2|3:0,0:0:0:0:
405,92,147544,1,2,3:0:0:0:
407,206,148013,1,2,3:0:0:0:
178,181,148950,22,0,B|111:143|111:143|74:205,1,127.500004863739,12|12,0:3|0:3,0:0:0:0:
35,291,149888,21,4,1:1:0:0:
130,353,150356,2,0,P|192:366|255:353,1,127.500004863739,10|2,0:3|0:0,0:0:0:0:
307,251,151294,1,8,0:3:0:0:
361,352,151763,1,10,0:3:0:0:
417,251,152231,1,0,0:0:0:0:
490,163,152700,2,0,L|490:67,2,85.0000032424928
507,242,153638,21,4,1:1:0:0:
394,265,154106,2,0,P|332:278|269:265,1,127.500004863739,10|2,0:3|0:0,0:0:0:0:
155,258,155044,1,10,0:3:0:0:
96,159,155513,22,0,B|161:181|161:142|247:170,1,127.500004863739,10|2,0:3|0:0,0:0:0:0:
269,265,156450,2,0,B|334:243|334:282|420:254,1,127.500004863739,10|2,0:3|0:0,0:0:0:0:
460,161,157388,22,0,B|438:97|438:97|358:62,1,127.500004863739,12|0,3:3|0:0,0:0:0:0:
269,53,158325,2,0,P|208:56|133:95,1,127.500004863739,0|2,3:0|3:0,3:0:0:0:
51,143,159263,21,12,3:3:0:0:
148,205,159731,1,0,3:3:0:0:
257,168,160200,2,0,B|317:156|317:156|399:172,1,127.500004863739,0|2,3:3|3:3,3:3:0:0:
488,216,161138,21,12,3:3:0:0:
405,295,161606,1,0,3:3:0:0:
298,335,162075,2,0,P|237:333|162:294,1,127.500004863739,0|2,3:3|3:0,3:0:0:0:
97,225,163013,22,0,B|127:205|127:205|222:207,1,127.500004863739,12|2,3:3|3:0,0:0:0:0:
325,249,163950,2,0,B|345:268|345:268|449:264,1,127.500004863739,8|2,3:3|0:3,0:0:0:0:
498,162,164888,22,0,B|478:181|478:181|374:177,1,127.500004863739,12|2,3:3|3:3,0:0:0:0:
274,128,165825,2,0,B|254:109|254:109|150:113,1,127.500004863739,8|2,3:3|3:3,0:0:0:0:
73,118,166606,1,0,3:0:0:0:
