osu file format v14

[General]
AudioFilename: audio.mp3
AudioLeadIn: 0
PreviewTime: 39158
Countdown: 0
SampleSet: Normal
StackLeniency: 0.7
Mode: 1
LetterboxInBreaks: 0
WidescreenStoryboard: 0

[Editor]
Bookmarks: 758,5558,10358,15158,19958,24758,29558,34358,39158,43958,48758,53558,58358,63158,67958,72758,77558,82358,87158,91958,96158
DistanceSpacing: 1.1
BeatDivisor: 4
GridSize: 32
TimelineZoom: 1

[Metadata]
Title:Muenzuka set 09 ~ Hana wa Gensou no Mama ni
TitleUnicode:Muenzuka set 09 ~ 花は幻想のままに
Artist:Rin
ArtistUnicode:凛
Creator:eiri-
Version:Oni
Source:東方花映塚 ~ Phantasmagoria of Flower View.
Tags:Ayyri Instrumental Electronic Video Game Featured Artist FA 東方Project Touhou ZUN Team Shanghai Alice Kaeizuka Reflecting Mound TH 9 TH09 The Flower Like the Fantasy PoFV Ending Theme
BeatmapID:2650552
BeatmapSetID:1151630

[Difficulty]
HPDrainRate:6
CircleSize:2
OverallDifficulty:5
ApproachRate:10
SliderMultiplier:1.4
SliderTickRate:1

[Events]
//Background and Video events
0,0,"Reimu 783.jpg",0,80
//Break Periods
//Storyboard Layer 0 (Background)
//Storyboard Layer 1 (Fail)
//Storyboard Layer 2 (Pass)
//Storyboard Layer 3 (Foreground)
//Storyboard Layer 4 (Overlay)
//Storyboard Sound Samples

[TimingPoints]
758,600,4,1,0,50,1,0
19883,-100,4,1,0,70,0,0
39083,-100,4,1,0,50,0,0
47483,-100,4,1,0,40,0,0
47783,-100,4,1,0,35,0,0
48083,-100,4,1,0,30,0,0
48383,-100,4,1,0,25,0,0
48683,-100,4,1,0,50,0,0
58283,-100,4,1,0,75,0,0
77483,-100,4,1,0,50,0,0

[HitObjects]
256,192,758,5,12,0:0:0:0:
256,192,1958,1,0,0:0:0:0:
256,192,3158,1,8,0:0:0:0:
256,192,4358,1,0,0:0:0:0:
256,192,5558,1,12,0:0:0:0:
256,192,6758,1,0,0:0:0:0:
256,192,7958,1,8,0:0:0:0:
256,192,9158,1,0,0:0:0:0:
256,192,9758,1,0,0:0:0:0:
256,192,10358,1,12,0:0:0:0:
256,192,11558,1,0,0:0:0:0:
256,192,12758,1,8,0:0:0:0:
256,192,13958,1,0,0:0:0:0:
256,192,15158,1,12,0:0:0:0:
256,192,16358,1,0,0:0:0:0:
256,192,17558,1,8,0:0:0:0:
256,192,18758,1,0,0:0:0:0:
256,192,19358,1,0,0:0:0:0:
256,192,19958,1,12,0:0:0:0:
256,192,20858,1,0,0:0:0:0:
256,192,21158,1,8,0:0:0:0:
256,192,21458,1,0,0:0:0:0:
256,192,21758,1,0,0:0:0:0:
256,192,22058,1,0,0:0:0:0:
256,192,22358,1,8,0:0:0:0:
256,192,23258,1,0,0:0:0:0:
256,192,23558,1,8,0:0:0:0:
256,192,23858,1,8,0:0:0:0:
256,192,24158,1,0,0:0:0:0:
256,192,24458,1,0,0:0:0:0:
256,192,24758,1,12,0:0:0:0:
256,192,25658,1,0,0:0:0:0:
256,192,25958,1,8,0:0:0:0:
256,192,26258,1,0,0:0:0:0:
256,192,26558,1,0,0:0:0:0:
256,192,26858,1,0,0:0:0:0:
256,192,27158,1,8,0:0:0:0:
256,192,28058,1,0,0:0:0:0:
256,192,28358,1,8,0:0:0:0:
256,192,28808,1,0,0:0:0:0:
256,192,28958,1,8,0:0:0:0:
256,192,29258,1,0,0:0:0:0:
256,192,29558,1,12,0:0:0:0:
256,192,30458,1,0,0:0:0:0:
256,192,30758,1,8,0:0:0:0:
256,192,31058,1,0,0:0:0:0:
256,192,31358,1,0,0:0:0:0:
256,192,31658,1,0,0:0:0:0:
256,192,31958,1,8,0:0:0:0:
256,192,32858,1,0,0:0:0:0:
256,192,33158,1,8,0:0:0:0:
256,192,33458,1,8,0:0:0:0:
256,192,33758,1,0,0:0:0:0:
256,192,34058,1,0,0:0:0:0:
256,192,34358,1,12,0:0:0:0:
256,192,35258,1,0,0:0:0:0:
256,192,35558,1,8,0:0:0:0:
256,192,35858,1,0,0:0:0:0:
256,192,36158,1,0,0:0:0:0:
256,192,36458,1,0,0:0:0:0:
256,192,36758,1,8,0:0:0:0:
256,192,37658,1,0,0:0:0:0:
256,192,37958,1,8,0:0:0:0:
256,192,38408,1,0,0:0:0:0:
256,192,38558,1,8,0:0:0:0:
256,192,38858,1,0,0:0:0:0:
256,192,39158,1,12,0:0:0:0:
256,192,39758,1,0,0:0:0:0:
256,192,40058,1,0,0:0:0:0:
256,192,40358,1,8,0:0:0:0:
256,192,40958,1,0,0:0:0:0:
256,192,41258,1,0,0:0:0:0:
256,192,41558,1,8,0:0:0:0:
256,192,41858,1,0,0:0:0:0:
256,192,42158,1,8,0:0:0:0:
256,192,42458,1,0,0:0:0:0:
256,192,42758,1,8,0:0:0:0:
256,192,43058,1,0,0:0:0:0:
256,192,43358,1,0,0:0:0:0:
256,192,43658,1,8,0:0:0:0:
256,192,43958,1,0,0:0:0:0:
256,192,44258,1,0,0:0:0:0:
256,192,44558,1,8,0:0:0:0:
256,192,44858,1,0,0:0:0:0:
256,192,45158,1,8,0:0:0:0:
256,192,45458,1,8,0:0:0:0:
256,192,45758,1,0,0:0:0:0:
256,192,46058,1,0,0:0:0:0:
256,192,46358,1,8,0:0:0:0:
256,192,46958,1,8,0:0:0:0:
256,192,47258,1,0,0:0:0:0:
256,192,47558,1,8,0:0:0:0:
256,192,47858,1,0,0:0:0:0:
256,192,48158,1,8,0:0:0:0:
256,192,48458,1,8,0:0:0:0:
256,192,48758,1,0,0:0:0:0:
256,192,49358,1,0,0:0:0:0:
256,192,49658,1,0,0:0:0:0:
256,192,49958,1,8,0:0:0:0:
256,192,50558,1,0,0:0:0:0:
256,192,50858,1,0,0:0:0:0:
256,192,51158,1,8,0:0:0:0:
256,192,51458,1,0,0:0:0:0:
256,192,51758,1,8,0:0:0:0:
256,192,52058,1,0,0:0:0:0:
256,192,52358,1,8,0:0:0:0:
256,192,52658,1,0,0:0:0:0:
256,192,52958,1,8,0:0:0:0:
256,192,53258,1,8,0:0:0:0:
256,192,53558,1,0,0:0:0:0:
256,192,53858,1,0,0:0:0:0:
256,192,54158,1,8,0:0:0:0:
256,192,54458,1,0,0:0:0:0:
256,192,54758,1,8,0:0:0:0:
256,192,55058,1,8,0:0:0:0:
256,192,55358,1,0,0:0:0:0:
256,192,55658,1,0,0:0:0:0:
256,192,55958,1,8,0:0:0:0:
256,192,57158,1,8,0:0:0:0:
256,192,57458,1,0,0:0:0:0:
256,192,57758,1,8,0:0:0:0:
256,192,58058,1,8,0:0:0:0:
256,192,58358,1,0,0:0:0:0:
256,192,58808,1,0,0:0:0:0:
256,192,58958,1,8,0:0:0:0:
256,192,59258,1,0,0:0:0:0:
256,192,59558,1,8,0:0:0:0:
256,192,59708,1,8,0:0:0:0:
256,192,59858,1,0,0:0:0:0:
256,192,60158,1,0,0:0:0:0:
256,192,60458,1,0,0:0:0:0:
256,192,60758,1,8,0:0:0:0:
256,192,61058,1,0,0:0:0:0:
256,192,61358,1,8,0:0:0:0:
256,192,61658,1,0,0:0:0:0:
256,192,61808,1,0,0:0:0:0:
256,192,61958,1,8,0:0:0:0:
256,192,62258,1,0,0:0:0:0:
256,192,62558,1,8,0:0:0:0:
256,192,62708,1,0,0:0:0:0:
256,192,62858,1,8,0:0:0:0:
256,192,63158,1,0,0:0:0:0:
256,192,63458,1,0,0:0:0:0:
256,192,63758,1,8,0:0:0:0:
256,192,64058,1,0,0:0:0:0:
256,192,64208,1,0,0:0:0:0:
256,192,64358,1,8,0:0:0:0:
256,192,64658,1,8,0:0:0:0:
256,192,64958,1,0,0:0:0:0:
256,192,65258,1,0,0:0:0:0:
256,192,65558,1,8,0:0:0:0:
256,192,66158,1,8,0:0:0:0:
256,192,66458,1,0,0:0:0:0:
256,192,66758,1,8,0:0:0:0:
256,192,67058,1,0,0:0:0:0:
256,192,67358,1,8,0:0:0:0:
256,192,67508,1,0,0:0:0:0:
256,192,67658,1,8,0:0:0:0:
256,192,67958,1,0,0:0:0:0:
256,192,68558,1,0,0:0:0:0:
256,192,68858,1,0,0:0:0:0:
256,192,69008,1,0,0:0:0:0:
256,192,69158,1,8,0:0:0:0:
256,192,69458,1,0,0:0:0:0:
256,192,69758,1,0,0:0:0:0:
256,192,70058,1,0,0:0:0:0:
256,192,70358,1,8,0:0:0:0:
256,192,70658,1,0,0:0:0:0:
256,192,70958,1,8,0:0:0:0:
256,192,71258,1,0,0:0:0:0:
256,192,71408,1,0,0:0:0:0:
256,192,71558,1,8,0:0:0:0:
256,192,71858,1,0,0:0:0:0:
256,192,72158,1,8,0:0:0:0:
256,192,72308,1,0,0:0:0:0:
256,192,72458,1,8,0:0:0:0:
256,192,72758,1,0,0:0:0:0:
256,192,73058,1,0,0:0:0:0:
256,192,73358,1,8,0:0:0:0:
256,192,73658,1,0,0:0:0:0:
256,192,73808,1,0,0:0:0:0:
256,192,73958,1,8,0:0:0:0:
256,192,74258,1,8,0:0:0:0:
256,192,74558,1,0,0:0:0:0:
256,192,74858,1,0,0:0:0:0:
256,192,75158,1,8,0:0:0:0:
256,192,75458,1,0,0:0:0:0:
256,192,75758,1,0,0:0:0:0:
256,192,76058,1,0,0:0:0:0:
256,192,76358,1,8,0:0:0:0:
256,192,76658,1,0,0:0:0:0:
256,192,76958,1,0,0:0:0:0:
256,192,77258,1,0,0:0:0:0:
256,192,77558,1,8,0:0:0:0:
256,192,78458,1,8,0:0:0:0:
256,192,78758,1,0,0:0:0:0:
256,192,79958,1,8,0:0:0:0:
256,192,81158,1,0,0:0:0:0:
256,192,82358,1,8,0:0:0:0:
256,192,83258,1,8,0:0:0:0:
256,192,83558,1,0,0:0:0:0:
256,192,84758,1,8,0:0:0:0:
256,192,85958,1,0,0:0:0:0:
256,192,86558,1,0,0:0:0:0:
256,192,87158,1,8,0:0:0:0:
256,192,88058,1,8,0:0:0:0:
256,192,88358,1,0,0:0:0:0:
256,192,89558,1,8,0:0:0:0:
256,192,90758,1,0,0:0:0:0:
256,192,91958,1,8,0:0:0:0:
256,192,92858,1,8,0:0:0:0:
256,192,93158,1,0,0:0:0:0:
256,192,94358,1,8,0:0:0:0:
256,192,95558,1,0,0:0:0:0:
256,192,96158,1,8,0:0:0:0:
