osu file format v14

[General]
AudioFilename: audio.mp3
AudioLeadIn: 0
PreviewTime: 39158
Countdown: 0
SampleSet: None
StackLeniency: 0.5
Mode: 0
LetterboxInBreaks: 0
WidescreenStoryboard: 0

[Editor]
Bookmarks: 758,5558,10358,15158,19958,24758,29558,34358,39158,43958,48758,53558,58358,63158,67958,72758,77558,82358,87158,91958,96158
DistanceSpacing: 1.4
BeatDivisor: 4
GridSize: 32
TimelineZoom: 1

[Metadata]
Title:Muenzuka set 09 ~ Hana wa Gensou no Mama ni
TitleUnicode:Muenzuka set 09 ~ 花は幻想のままに
Artist:Rin
ArtistUnicode:凛
Creator:eiri-
Version:Hard
Source:東方花映塚 ~ Phantasmagoria of Flower View.
Tags:Ayyri Instrumental Electronic Video Game Featured Artist FA 東方Project Touhou ZUN Team Shanghai Alice Kaeizuka Reflecting Mound TH 9 TH09 The Flower Like the Fantasy PoFV Ending Theme
BeatmapID:2662549
BeatmapSetID:1270291

[Difficulty]
HPDrainRate:4.5
CircleSize:4.5
OverallDifficulty:6
ApproachRate:7
SliderMultiplier:1.2
SliderTickRate:1

[Events]
//Background and Video events
0,0,"Reimu 586.jpg",0,0
//Break Periods
//Storyboard Layer 0 (Background)
//Storyboard Layer 1 (Fail)
//Storyboard Layer 2 (Pass)
//Storyboard Layer 3 (Foreground)
//Storyboard Layer 4 (Overlay)
//Storyboard Sound Samples

[TimingPoints]
758,600,4,2,1,50,1,0
19958,-100,4,2,1,70,0,0
39158,-100,4,2,1,50,0,0
47558,-100,4,2,1,40,0,0
47858,-100,4,2,1,35,0,0
48158,-100,4,2,1,30,0,0
48458,-100,4,2,1,25,0,0
48758,-100,4,2,1,50,0,0
58358,-100,4,2,1,75,0,0
77558,-100,4,2,1,50,0,0

[Colours]
Combo1 : 250,190,230
Combo2 : 130,192,230
Combo3 : 255,149,152
Combo4 : 249,218,166

[HitObjects]
64,320,758,5,6,0:0:0:0:
64,320,1058,2,0,L|53:249,2,60,2|0|0,0:0|0:0|0:0,0:0:0:0:
134,167,2258,2,0,L|123:96,2,60,2|0|0,0:0|0:0|0:0,0:0:0:0:
289,230,3458,2,0,L|278:159,2,60,2|0|0,0:0|0:0|0:0,0:0:0:0:
359,77,4658,2,0,L|348:6,2,60,2|0|0,0:0|0:0|0:0,0:0:0:0:
428,132,5558,5,6,0:0:0:0:
428,132,5858,2,0,P|469:117|506:112,2,60,2|0|0,0:0|0:0|0:0,0:0:0:0:
272,195,7058,2,0,P|231:180|194:175,2,60,2|0|0,0:0|0:0|0:0,0:0:0:0:
413,285,8258,2,0,P|454:270|491:265,2,60,2|0|0,0:0|0:0|0:0,0:0:0:0:
348,339,9158,2,0,P|309:309|258:310,1,90,2|0,0:0|0:0,0:0:0:0:
242,338,9758,2,0,P|203:368|152:367,1,90,2|0,0:0|0:0,0:0:0:0:
130,352,10358,5,6,0:0:0:0:
130,352,10658,2,0,L|141:274,2,60,2|0|0,0:0|0:0|0:0,0:0:0:0:
13,231,11858,2,0,L|2:153,2,60,2|0|0,0:0|0:0|0:0,0:0:0:0:
172,179,13058,2,0,L|183:101,2,60,2|0|0,0:0|0:0|0:0,0:0:0:0:
55,58,14258,2,0,L|44:-20,2,60,2|0|0,0:0|0:0|0:0,0:0:0:0:
71,144,15158,5,6,0:0:0:0:
71,144,15458,2,0,P|36:130|2:130,2,60,2|0|0,0:0|0:0|0:0,0:0:0:0:
210,50,16658,2,0,P|245:36|279:36,2,60,2|0|0,0:0|0:0|0:0,0:0:0:0:
305,187,17858,2,0,P|270:201|236:201,2,60,2|0|0,0:0|0:0|0:0,0:0:0:0:
362,125,18758,2,0,P|393:147|412:206,1,90,2|0,0:0|0:0,0:0:0:0:
390,230,19358,2,0,P|359:252|340:311,1,90,2|0,0:0|0:0,0:0:0:0:
364,339,19958,5,14,0:0:0:0:
364,339,20258,2,0,L|444:328,2,60,0|0|10,0:0|0:0|0:0,0:0:0:0:
288,370,21158,1,2,1:2:0:0:
288,370,21458,2,0,L|208:359,1,60,10|10,0:0|0:0,0:0:0:0:
146,378,22058,1,10,0:0:0:0:
95,311,22358,6,0,P|87:275|171:273,1,120,10|0,0:0|0:0,0:0:0:0:
239,253,23258,1,10,0:0:0:0:
239,253,23558,2,0,P|254:197|254:166,1,60,2|10,1:2|0:0,0:0:0:0:
185,146,24158,2,0,P|170:90|170:59,1,60,10|10,0:0|0:0,0:0:0:0:
188,9,24758,5,14,0:0:0:0:
188,9,25058,2,0,L|271:17,2,60,2|2|10,0:0|0:0|0:0,0:0:0:0:
112,42,25958,1,2,1:2:0:0:
112,42,26258,2,0,L|99:133,1,60,10|10,0:0|0:0,0:0:0:0:
95,187,26858,1,10,0:0:0:0:
95,187,27158,6,0,L|186:168,1,60,10|0,0:0|0:0,0:0:0:0:
231,205,27758,1,2,0:0:0:0:
278,135,28058,1,10,0:0:0:0:
361,145,28358,2,0,B|400:154|400:154|434:97,1,90,2|10,1:2|0:0,0:0:0:0:
444,73,28958,2,0,P|411:52|375:51,1,60,2|10,0:0|0:0,0:0:0:0:
310,62,29558,5,14,0:0:0:0:
310,62,29858,2,0,L|322:-2,2,60,2|0|10,0:0|0:0|0:0,0:0:0:0:
297,147,30758,1,2,1:2:0:0:
297,147,31058,1,10,0:0:0:0:
379,131,31358,1,10,0:0:0:0:
395,213,31658,1,10,0:0:0:0:
313,229,31958,6,0,L|301:293,1,60,10|2,0:0|0:0,0:0:0:0:
277,368,32558,2,0,P|250:341|215:328,1,60,2|10,0:0|0:0,0:0:0:0:
157,301,33158,1,2,1:2:0:0:
157,301,33458,2,0,L|145:213,2,60,10|10|10,0:0|0:0|0:0,0:0:0:0:
102,365,34358,5,14,0:0:0:0:
102,365,34658,2,0,L|35:354,2,60,2|0|10,0:0|0:0|0:0,0:0:0:0:
180,331,35558,1,2,1:2:0:0:
180,331,35858,2,0,L|247:320,1,60,10|10,0:0|0:0,0:0:0:0:
313,360,36458,1,10,0:0:0:0:
313,360,36758,6,0,L|325:283,1,60,10|0,0:0|0:0,0:0:0:0:
344,266,37208,1,10,0:0:0:0:
344,266,37358,2,0,L|332:189,1,60,2|10,0:0|0:0,0:0:0:0:
321,123,37958,2,0,P|347:79|397:68,1,90,2|10,1:2|0:0,0:0:0:0:
410,98,38558,2,0,P|438:129|462:124,1,60,2|10,0:0|0:0,0:0:0:0:
476,47,39158,5,14,0:0:0:0:
457,213,39758,1,2,0:0:0:0:
457,213,40058,1,2,0:0:0:0:
457,213,40358,2,0,P|412:219|362:232,1,90,2|0,0:0|0:0,0:0:0:0:
331,249,40958,1,2,0:0:0:0:
384,314,41258,1,2,0:0:0:0:
319,368,41558,6,0,L|250:354,1,60,2|0,0:0|0:0,0:0:0:0:
209,288,42158,2,0,L|140:302,1,60,2|0,0:0|0:0,0:0:0:0:
80,346,42758,2,0,B|40:309|40:309|52:230,1,120,2|2,0:0|0:0,0:0:0:0:
65,164,43658,1,2,0:0:0:0:
65,164,43958,6,0,L|42:79,1,60,2|2,0:0|0:0,0:0:0:0:
110,47,44558,2,0,L|133:132,1,60,2|0,0:0|0:0,0:0:0:0:
149,185,45158,2,0,B|213:186|198:130|276:139,1,120,2|2,0:0|0:0,0:0:0:0:
263,221,46058,1,0,0:0:0:0:
338,184,46358,6,0,B|302:144|302:144|335:62,1,120,2|2,0:0|0:0,0:0:0:0:
365,7,47258,1,2,0:0:0:0:
365,7,47558,2,0,P|415:23|444:27,1,60,2|0,0:0|0:0,0:0:0:0:
472,92,48158,2,0,P|422:108|393:112,1,60,0|0,0:0|0:0,0:0:0:0:
332,94,48758,5,2,0:0:0:0:
355,264,49358,1,2,0:0:0:0:
355,264,49658,1,2,0:0:0:0:
355,264,49958,2,0,P|349:219|336:169,1,90,2|0,0:0|0:0,0:0:0:0:
319,138,50558,1,2,0:0:0:0:
256,192,50858,1,2,0:0:0:0:
195,133,51158,6,0,L|126:119,1,60,2|0,0:0|0:0,0:0:0:0:
79,183,51758,2,0,L|10:197,1,60,2|0,0:0|0:0,0:0:0:0:
8,278,52358,2,0,B|41:312|41:312|127:295,1,120,2|2,0:0|0:0,0:0:0:0:
198,286,53258,1,2,0:0:0:0:
198,286,53558,6,0,L|216:209,1,60,2|2,0:0|0:0,0:0:0:0:
277,175,54158,2,0,L|300:260,1,60,2|0,0:0|0:0,0:0:0:0:
320,312,54758,2,0,P|359:314|396:244,1,120,2|2,0:0|0:0,0:0:0:0:
390,171,55658,1,0,0:0:0:0:
390,171,55958,6,0,P|414:145|498:146,1,120,2|0,0:0|0:0,0:0:0:0:
505,63,56858,1,0,0:0:0:0:
505,63,57158,2,0,P|458:39|431:32,1,60,2|0,0:0|0:0,0:0:0:0:
376,75,57758,2,0,P|329:99|302:106,1,60,2|0,0:0|0:0,0:0:0:0:
240,82,58358,6,0,L|250:157,1,60,10|0,0:0|0:0,0:0:0:0:
223,226,58958,1,2,0:0:0:0:
223,226,59258,1,10,0:0:0:0:
223,226,59558,2,0,P|187:201|146:191,1,60,2|8,1:2|0:0,0:0:0:0:
96,187,60158,1,10,0:0:0:0:
96,187,60458,1,10,0:0:0:0:
96,187,60758,6,0,L|108:261,1,60,10|0,0:0|0:0,0:0:0:0:
119,329,61358,2,0,L|193:317,1,60,2|8,0:0|0:0,0:0:0:0:
261,306,61958,2,0,L|249:232,1,60,2|8,1:2|0:0,0:0:0:0:
238,164,62558,2,0,L|164:176,1,60,10|10,0:0|0:0,0:0:0:0:
96,187,63158,6,0,P|69:149|65:122,1,60,10|0,0:0|0:0,0:0:0:0:
88,60,63758,1,2,0:0:0:0:
88,60,64058,1,10,0:0:0:0:
88,60,64358,2,0,L|164:67,1,60,2|8,1:2|0:0,0:0:0:0:
228,31,64958,1,10,0:0:0:0:
228,31,65258,1,10,0:0:0:0:
228,31,65558,6,0,L|216:161,1,120,10|2,0:0|0:0,0:0:0:0:
212,237,66458,1,10,0:0:0:0:
212,237,66758,2,0,P|250:219|281:220,1,60,2|10,1:2|0:0,0:0:0:0:
336,265,67358,2,0,P|374:283|405:282,1,60,10|10,0:0|0:0,0:0:0:0:
472,262,67958,6,0,L|454:184,1,60,10|0,0:0|0:0,0:0:0:0:
483,123,68558,1,2,0:0:0:0:
483,123,68858,1,10,0:0:0:0:
483,123,69158,2,0,L|408:105,1,60,2|8,1:2|0:0,0:0:0:0:
352,146,69758,1,10,0:0:0:0:
352,146,70058,1,10,0:0:0:0:
352,146,70358,6,0,L|336:72,1,60,10|0,0:0|0:0,0:0:0:0:
321,6,70958,2,0,L|247:22,1,60,2|8,0:0|0:0,0:0:0:0:
180,36,71558,2,0,L|196:110,1,60,2|8,1:2|0:0,0:0:0:0:
210,177,72158,2,0,L|284:161,1,60,10|10,0:0|0:0,0:0:0:0:
352,146,72758,6,0,P|375:179|385:211,1,60,10|0,0:0|0:0,0:0:0:0:
357,282,73358,1,2,0:0:0:0:
357,282,73658,1,10,0:0:0:0:
357,282,73958,2,0,L|280:274,1,60,2|8,1:2|0:0,0:0:0:0:
235,330,74558,1,10,0:0:0:0:
235,330,74858,1,10,0:0:0:0:
235,330,75158,6,0,L|116:343,1,120,10|0,0:0|0:0,0:0:0:0:
39,319,76058,1,10,0:0:0:0:
39,319,76358,2,0,P|21:277|20:250,1,60,2|10,1:2|0:0,0:0:0:0:
20,178,76958,2,0,P|36:135|55:115,1,60,10|10,0:0|0:0,0:0:0:0:
108,68,77558,5,2,0:0:0:0:
108,68,77858,2,0,L|98:5,2,60,2|0|0,0:0|0:0|0:0,0:0:0:0:
169,132,78758,1,10,0:0:0:0:
169,132,79058,2,0,L|159:195,2,60,2|0|0,0:0|0:0|0:0,0:0:0:0:
326,74,80258,2,0,L|316:11,2,60,2|0|0,0:0|0:0|0:0,0:0:0:0:
443,194,81458,2,0,L|433:257,2,60,2|0|0,0:0|0:0|0:0,0:0:0:0:
458,114,82358,5,2,0:0:0:0:
458,114,82658,2,0,L|384:129,2,60,2|0|0,0:0|0:0|0:0,0:0:0:0:
409,51,83558,1,10,0:0:0:0:
409,51,83858,2,0,L|335:36,2,60,2|0|0,0:0|0:0|0:0,0:0:0:0:
321,194,85058,2,0,L|247:209,2,60,2|0|0,0:0|0:0|0:0,0:0:0:0:
404,181,85958,2,0,P|433:213|439:269,1,90,2|0,0:0|0:0,0:0:0:0:
416,292,86558,2,0,P|380:275|321:284,1,90,2|0,0:0|0:0,0:0:0:0:
302,310,87158,5,2,0:0:0:0:
302,310,87458,2,0,L|313:387,2,60,2|0|0,0:0|0:0|0:0,0:0:0:0:
228,280,88358,1,10,0:0:0:0:
228,280,88658,2,0,L|217:357,2,60,2|0|0,0:0|0:0|0:0,0:0:0:0:
340,155,89858,2,0,L|351:232,2,60,2|0|0,0:0|0:0|0:0,0:0:0:0:
193,73,91058,2,0,L|182:150,2,60,2|0|0,0:0|0:0|0:0,0:0:0:0:
262,26,91958,5,2,0:0:0:0:
262,26,92258,2,0,P|317:9|333:9,2,60,2|0|0,0:0|0:0|0:0,0:0:0:0:
203,86,93158,1,10,0:0:0:0:
203,86,93458,2,0,P|148:69|132:69,2,60,2|0|0,0:0|0:0|0:0,0:0:0:0:
295,226,94658,2,0,P|350:209|366:209,2,60,2|0|0,0:0|0:0|0:0,0:0:0:0:
228,277,95558,2,0,L|134:265,1,90,2|0,0:0|0:0,0:0:0:0:
104,290,96158,5,2,0:0:0:0:
