osu file format v14

[General]
AudioFilename: audio.mp3
AudioLeadIn: 0
PreviewTime: 75420
Countdown: 0
SampleSet: Normal
StackLeniency: 0.7
Mode: 1
LetterboxInBreaks: 0
WidescreenStoryboard: 0

[Editor]
Bookmarks: 481,15481,30481,45481,60479,75479,90479,105479,120479
DistanceSpacing: 0.8
BeatDivisor: 6
GridSize: 8
TimelineZoom: 1.999999

[Metadata]
Title:Moriya set 11 ReEdit ~ Onbashira no Hakaba
TitleUnicode:Moriya set 11 ReEdit 〜 御柱の墓場
Artist:Rin
ArtistUnicode:凛
Creator:komasy
Version:Lunatic
Source:osu!
Tags:Instrumental Featured Artist FA TH10 東方風神録 Touhou Fujinroku Fuujinroku House set of Mountain of Faith 上海アリス幻樂団 Team Shanghai Alice ZUN Grave of Being
BeatmapID:2353040
BeatmapSetID:1126173

[Difficulty]
HPDrainRate:6
CircleSize:5
OverallDifficulty:6
ApproachRate:5
SliderMultiplier:1.4
SliderTickRate:1

[Events]
//Background and Video events
0,0,"60683976_p1.jpg",0,110
//Break Periods
//Storyboard Layer 0 (Background)
//Storyboard Layer 1 (Fail)
//Storyboard Layer 2 (Pass)
//Storyboard Layer 3 (Foreground)
//Storyboard Layer 4 (Overlay)
//Storyboard Sound Samples

[TimingPoints]
477,468.75,4,1,0,70,1,0
75477,-75.0187546886722,4,1,0,80,0,1
105477,-75.0187546886722,4,1,0,80,0,0
105594,-100,4,1,0,70,0,0

[HitObjects]
160,288,477,5,4,0:0:0:0:
352,96,945,1,8,0:0:0:0:
160,96,1414,1,0,0:0:0:0:
352,96,1883,1,8,0:0:0:0:
160,96,2352,1,0,0:0:0:0:
352,96,2820,1,8,0:0:0:0:
160,96,3289,1,0,0:0:0:0:
352,96,3758,1,8,0:0:0:0:
352,96,4109,1,8,0:0:0:0:
160,96,4227,1,0,0:0:0:0:
352,96,4695,1,8,0:0:0:0:
160,96,5164,1,0,0:0:0:0:
352,96,5633,1,8,0:0:0:0:
160,96,6102,1,0,0:0:0:0:
352,96,6570,1,8,0:0:0:0:
160,96,7039,1,0,0:0:0:0:
352,96,7508,1,8,0:0:0:0:
160,96,7742,1,0,0:0:0:0:
352,96,7859,1,8,0:0:0:0:
160,96,7977,1,0,0:0:0:0:
352,96,8445,1,8,0:0:0:0:
160,96,8914,1,0,0:0:0:0:
352,96,9383,1,8,0:0:0:0:
160,96,9852,1,0,0:0:0:0:
352,96,10320,1,8,0:0:0:0:
160,96,10789,1,0,0:0:0:0:
352,96,11258,1,8,0:0:0:0:
352,96,11609,1,8,0:0:0:0:
160,96,11727,1,0,0:0:0:0:
352,96,12195,1,8,0:0:0:0:
160,96,12664,1,0,0:0:0:0:
352,96,13133,1,8,0:0:0:0:
160,96,13602,1,0,0:0:0:0:
352,96,14070,1,8,0:0:0:0:
160,96,14539,1,0,0:0:0:0:
352,96,15008,1,8,0:0:0:0:
160,96,15242,1,0,0:0:0:0:
352,96,15359,1,8,0:0:0:0:
160,96,15477,1,0,0:0:0:0:
352,96,15945,1,8,0:0:0:0:
160,96,16414,1,0,0:0:0:0:
352,96,16648,1,8,0:0:0:0:
352,96,16883,1,8,0:0:0:0:
160,96,17352,1,0,0:0:0:0:
352,96,17820,1,8,0:0:0:0:
160,96,18289,1,0,0:0:0:0:
352,96,18523,1,8,0:0:0:0:
160,96,18758,1,0,0:0:0:0:
352,96,19109,1,8,0:0:0:0:
160,96,19227,1,0,0:0:0:0:
352,96,19695,1,8,0:0:0:0:
160,96,20164,1,0,0:0:0:0:
352,96,20398,1,8,0:0:0:0:
352,96,20633,1,8,0:0:0:0:
160,96,20867,1,0,0:0:0:0:
160,96,20984,1,0,0:0:0:0:
352,96,21102,1,8,0:0:0:0:
160,96,21336,1,0,0:0:0:0:
352,96,21570,1,8,0:0:0:0:
352,96,21805,1,8,0:0:0:0:
160,96,22039,1,0,0:0:0:0:
352,96,22273,1,8,0:0:0:0:
160,96,22391,1,0,0:0:0:0:
160,96,22508,1,0,0:0:0:0:
352,96,22742,1,8,0:0:0:0:
160,288,22977,1,4,0:0:0:0:
352,96,23445,1,8,0:0:0:0:
378,148,23680,1,8,0:0:0:0:
364,158,23797,1,8,0:0:0:0:
160,96,23914,1,0,0:0:0:0:
352,96,24148,1,8,0:0:0:0:
160,96,24383,1,0,0:0:0:0:
160,96,24617,1,0,0:0:0:0:
160,96,24734,1,0,0:0:0:0:
352,96,24852,1,8,0:0:0:0:
352,96,25086,1,8,0:0:0:0:
160,96,25320,1,0,0:0:0:0:
352,96,25555,1,8,0:0:0:0:
354,117,25672,1,8,0:0:0:0:
160,96,25789,1,0,0:0:0:0:
160,96,25906,1,0,0:0:0:0:
160,96,26141,1,0,0:0:0:0:
352,96,26258,1,8,0:0:0:0:
352,96,26609,1,8,0:0:0:0:
160,96,26727,1,0,0:0:0:0:
160,96,26961,1,0,0:0:0:0:
352,288,27195,1,12,0:0:0:0:
160,96,27586,1,0,0:0:0:0:
160,96,27664,1,0,0:0:0:0:
352,288,27898,1,12,0:0:0:0:
352,96,28289,1,8,0:0:0:0:
160,96,28367,1,0,0:0:0:0:
352,288,28602,1,12,0:0:0:0:
160,96,28836,1,0,0:0:0:0:
352,96,29070,1,8,0:0:0:0:
352,96,29305,5,8,0:0:0:0:
352,96,29383,1,8,0:0:0:0:
352,96,29461,1,8,0:0:0:0:
160,96,29539,1,0,0:0:0:0:
352,96,29695,1,8,0:0:0:0:
352,96,29930,1,8,0:0:0:0:
160,96,30008,1,0,0:0:0:0:
352,96,30164,1,8,0:0:0:0:
352,96,30242,1,8,0:0:0:0:
352,96,30398,1,8,0:0:0:0:
160,96,30477,1,0,0:0:0:0:
160,96,30945,1,0,0:0:0:0:
352,96,31180,1,8,0:0:0:0:
160,96,31414,1,0,0:0:0:0:
352,96,31883,1,8,0:0:0:0:
352,96,32117,1,8,0:0:0:0:
160,96,32352,1,0,0:0:0:0:
160,96,32820,1,0,0:0:0:0:
352,96,33055,1,8,0:0:0:0:
352,96,33172,1,8,0:0:0:0:
160,96,33289,1,0,0:0:0:0:
352,96,33641,1,8,0:0:0:0:
160,96,33758,1,0,0:0:0:0:
160,96,33992,1,0,0:0:0:0:
352,96,34109,1,8,0:0:0:0:
160,96,34227,1,0,0:0:0:0:
160,96,34695,1,0,0:0:0:0:
160,96,34930,1,0,0:0:0:0:
352,96,35164,1,8,0:0:0:0:
352,96,35633,1,8,0:0:0:0:
160,96,35867,1,0,0:0:0:0:
352,96,36102,1,8,0:0:0:0:
352,96,36219,1,8,0:0:0:0:
352,96,36453,1,8,0:0:0:0:
160,96,36570,1,0,0:0:0:0:
160,96,36805,1,0,0:0:0:0:
352,288,37039,1,12,0:0:0:0:
160,96,37273,1,0,0:0:0:0:
352,96,37430,1,8,0:0:0:0:
352,96,37508,1,8,0:0:0:0:
160,96,37742,1,0,0:0:0:0:
352,96,37898,1,8,0:0:0:0:
160,96,37977,1,0,0:0:0:0:
160,96,38445,1,0,0:0:0:0:
352,96,38680,1,8,0:0:0:0:
160,96,38914,1,0,0:0:0:0:
352,96,39383,1,8,0:0:0:0:
352,96,39617,1,8,0:0:0:0:
160,96,39852,1,0,0:0:0:0:
160,96,40320,1,0,0:0:0:0:
352,96,40555,1,8,0:0:0:0:
352,96,40672,1,8,0:0:0:0:
160,96,40789,1,0,0:0:0:0:
352,96,41141,1,8,0:0:0:0:
160,96,41258,1,0,0:0:0:0:
160,96,41492,1,0,0:0:0:0:
352,96,41648,1,8,0:0:0:0:
160,96,41727,1,0,0:0:0:0:
160,96,42195,1,0,0:0:0:0:
352,96,42430,1,8,0:0:0:0:
160,96,42664,1,0,0:0:0:0:
352,96,43133,1,8,0:0:0:0:
352,96,43367,1,8,0:0:0:0:
160,96,43602,1,0,0:0:0:0:
160,96,43836,1,0,0:0:0:0:
160,96,43953,1,0,0:0:0:0:
352,96,44070,1,8,0:0:0:0:
352,96,44305,1,8,0:0:0:0:
352,96,44383,1,8,0:0:0:0:
352,96,44461,1,8,0:0:0:0:
160,96,44539,1,0,0:0:0:0:
352,96,44695,1,8,0:0:0:0:
352,96,44930,1,8,0:0:0:0:
160,96,45008,1,0,0:0:0:0:
352,96,45164,1,8,0:0:0:0:
352,96,45242,1,8,0:0:0:0:
352,96,45398,1,8,0:0:0:0:
160,96,45477,1,0,0:0:0:0:
352,96,45828,1,8,0:0:0:0:
160,96,45945,1,0,0:0:0:0:
352,96,46180,1,8,0:0:0:0:
160,96,46414,1,0,0:0:0:0:
160,96,46560,1,0,0:0:0:0:
160,96,46766,1,0,0:0:0:0:
352,96,46883,1,8,0:0:0:0:
352,96,47117,1,8,0:0:0:0:
160,96,47352,1,0,0:0:0:0:
352,96,47703,1,8,0:0:0:0:
160,96,47820,1,0,0:0:0:0:
352,96,48055,1,8,0:0:0:0:
352,96,48172,1,8,0:0:0:0:
160,96,48289,1,0,0:0:0:0:
352,96,48435,1,8,0:0:0:0:
352,96,48641,1,8,0:0:0:0:
160,96,48758,1,0,0:0:0:0:
160,96,48992,1,0,0:0:0:0:
352,96,49109,1,8,0:0:0:0:
160,96,49227,1,0,0:0:0:0:
352,96,49578,1,8,0:0:0:0:
160,96,49695,1,0,0:0:0:0:
352,96,49930,1,8,0:0:0:0:
160,96,50164,1,0,0:0:0:0:
160,96,50310,1,0,0:0:0:0:
160,96,50516,1,0,0:0:0:0:
352,96,50633,1,8,0:0:0:0:
160,96,50779,1,0,0:0:0:0:
160,96,50867,1,0,0:0:0:0:
160,96,50984,1,0,0:0:0:0:
352,96,51102,1,8,0:0:0:0:
160,96,51336,1,0,0:0:0:0:
160,96,51453,1,0,0:0:0:0:
352,96,51570,1,8,0:0:0:0:
160,96,51805,1,0,0:0:0:0:
352,288,52039,1,12,0:0:0:0:
352,96,52391,1,8,0:0:0:0:
160,96,52508,1,0,0:0:0:0:
160,96,52742,1,0,0:0:0:0:
160,288,52977,1,4,0:0:0:0:
352,96,53328,1,8,0:0:0:0:
160,96,53445,1,0,0:0:0:0:
352,96,53680,1,8,0:0:0:0:
160,96,53914,1,0,0:0:0:0:
160,96,54060,1,0,0:0:0:0:
160,96,54266,1,0,0:0:0:0:
352,96,54383,1,8,0:0:0:0:
352,96,54617,1,8,0:0:0:0:
160,96,54852,1,0,0:0:0:0:
352,96,55203,1,8,0:0:0:0:
160,96,55320,1,0,0:0:0:0:
352,96,55555,1,8,0:0:0:0:
352,96,55672,1,8,0:0:0:0:
160,96,55789,1,0,0:0:0:0:
352,96,55935,1,8,0:0:0:0:
352,96,56141,1,8,0:0:0:0:
160,96,56258,1,0,0:0:0:0:
160,96,56492,1,0,0:0:0:0:
352,96,56609,1,8,0:0:0:0:
160,96,56727,1,0,0:0:0:0:
352,96,57078,1,8,0:0:0:0:
160,96,57195,1,0,0:0:0:0:
160,96,57430,1,0,0:0:0:0:
160,96,57664,1,0,0:0:0:0:
160,96,57810,1,0,0:0:0:0:
352,96,58016,1,8,0:0:0:0:
160,96,58133,5,0,0:0:0:0:
160,96,58367,1,0,0:0:0:0:
160,96,58484,1,0,0:0:0:0:
352,96,58602,1,8,0:0:0:0:
160,96,58836,1,0,0:0:0:0:
352,96,59070,1,8,0:0:0:0:
352,96,59187,1,8,0:0:0:0:
352,96,59422,5,8,0:0:0:0:
160,96,59539,1,0,0:0:0:0:
160,96,59695,1,0,0:0:0:0:
352,96,59773,1,8,0:0:0:0:
352,96,59930,1,8,0:0:0:0:
160,96,60008,1,0,0:0:0:0:
352,96,60164,1,8,0:0:0:0:
352,96,60242,1,8,0:0:0:0:
352,96,60398,1,8,0:0:0:0:
160,96,60477,1,0,0:0:0:0:
352,96,60945,1,8,0:0:0:0:
352,96,61180,1,8,0:0:0:0:
352,96,61297,1,8,0:0:0:0:
160,96,61414,1,0,0:0:0:0:
160,96,61648,1,0,0:0:0:0:
352,96,61883,1,8,0:0:0:0:
352,96,62117,1,8,0:0:0:0:
160,96,62352,1,0,0:0:0:0:
160,96,62703,1,0,0:0:0:0:
352,96,62820,1,8,0:0:0:0:
160,96,63055,1,0,0:0:0:0:
352,96,63289,1,8,0:0:0:0:
352,96,63406,1,8,0:0:0:0:
160,96,63523,1,0,0:0:0:0:
352,96,63758,1,8,0:0:0:0:
160,96,63992,1,0,0:0:0:0:
352,96,64109,1,8,0:0:0:0:
160,96,64227,1,0,0:0:0:0:
160,96,64578,1,0,0:0:0:0:
352,96,64695,1,8,0:0:0:0:
160,96,64930,1,0,0:0:0:0:
352,96,65164,1,8,0:0:0:0:
160,96,65281,1,0,0:0:0:0:
160,96,65516,1,0,0:0:0:0:
352,96,65633,1,8,0:0:0:0:
352,96,65867,1,8,0:0:0:0:
160,96,66102,1,0,0:0:0:0:
160,96,66336,1,0,0:0:0:0:
160,96,66453,1,0,0:0:0:0:
352,96,66570,1,8,0:0:0:0:
352,96,66805,1,8,0:0:0:0:
160,96,67039,1,0,0:0:0:0:
160,96,67273,1,0,0:0:0:0:
352,96,67391,1,8,0:0:0:0:
160,96,67508,1,0,0:0:0:0:
352,96,67742,1,8,0:0:0:0:
352,96,67859,1,8,0:0:0:0:
160,96,67977,1,0,0:0:0:0:
352,96,68445,1,8,0:0:0:0:
352,96,68680,1,8,0:0:0:0:
352,96,68797,1,8,0:0:0:0:
160,96,68914,1,0,0:0:0:0:
160,96,69148,1,0,0:0:0:0:
352,96,69383,1,8,0:0:0:0:
352,96,69617,1,8,0:0:0:0:
160,96,69852,1,0,0:0:0:0:
160,96,70203,1,0,0:0:0:0:
352,96,70320,1,8,0:0:0:0:
160,96,70555,1,0,0:0:0:0:
352,96,70789,1,8,0:0:0:0:
160,96,71023,1,0,0:0:0:0:
352,96,71141,1,8,0:0:0:0:
160,96,71258,1,0,0:0:0:0:
352,96,71492,1,8,0:0:0:0:
352,96,71609,1,8,0:0:0:0:
160,96,71727,1,0,0:0:0:0:
352,96,72078,1,8,0:0:0:0:
160,96,72195,1,0,0:0:0:0:
160,96,72430,1,0,0:0:0:0:
160,96,72664,1,0,0:0:0:0:
352,96,72781,1,8,0:0:0:0:
352,96,73016,1,8,0:0:0:0:
160,96,73133,1,0,0:0:0:0:
160,96,73367,1,0,0:0:0:0:
160,96,73602,1,0,0:0:0:0:
352,96,73836,1,8,0:0:0:0:
352,96,73953,1,8,0:0:0:0:
160,96,74070,1,0,0:0:0:0:
160,96,74227,1,0,0:0:0:0:
160,96,74305,1,0,0:0:0:0:
160,96,74461,1,0,0:0:0:0:
352,96,74539,1,8,0:0:0:0:
160,96,75008,1,0,0:0:0:0:
352,288,75477,1,12,0:0:0:0:
160,96,75711,1,0,0:0:0:0:
352,96,75945,1,8,0:0:0:0:
160,96,76336,1,0,0:0:0:0:
160,96,76414,1,0,0:0:0:0:
352,96,76570,1,8,0:0:0:0:
160,96,76648,1,0,0:0:0:0:
160,96,76766,1,0,0:0:0:0:
352,96,76883,1,8,0:0:0:0:
160,96,77117,1,0,0:0:0:0:
352,96,77352,1,8,0:0:0:0:
160,96,77586,1,0,0:0:0:0:
352,96,77742,1,8,0:0:0:0:
160,96,77820,1,0,0:0:0:0:
160,96,78055,1,0,0:0:0:0:
160,96,78211,1,0,0:0:0:0:
352,96,78289,1,8,0:0:0:0:
352,96,78445,1,8,0:0:0:0:
352,96,78523,1,8,0:0:0:0:
352,96,78641,1,8,0:0:0:0:
160,96,78758,1,0,0:0:0:0:
352,96,78992,1,8,0:0:0:0:
160,96,79148,1,0,0:0:0:0:
352,96,79227,1,8,0:0:0:0:
160,96,79461,1,0,0:0:0:0:
352,96,79695,1,8,0:0:0:0:
352,96,80086,1,8,0:0:0:0:
160,96,80164,1,0,0:0:0:0:
352,96,80320,1,8,0:0:0:0:
352,96,80398,1,8,0:0:0:0:
160,96,80516,1,0,0:0:0:0:
352,96,80633,1,8,0:0:0:0:
160,96,80867,1,0,0:0:0:0:
352,288,81102,1,12,0:0:0:0:
160,96,81336,1,0,0:0:0:0:
352,96,81492,1,8,0:0:0:0:
160,96,81570,1,0,0:0:0:0:
352,96,81805,1,8,0:0:0:0:
160,96,82039,1,0,0:0:0:0:
352,96,82185,1,8,0:0:0:0:
352,96,82273,1,8,0:0:0:0:
352,288,82508,1,12,0:0:0:0:
352,96,82742,1,8,0:0:0:0:
160,288,82977,1,4,0:0:0:0:
160,96,83211,1,0,0:0:0:0:
352,96,83445,1,8,0:0:0:0:
352,96,83836,1,8,0:0:0:0:
160,96,83914,1,0,0:0:0:0:
160,96,84070,1,0,0:0:0:0:
160,96,84148,1,0,0:0:0:0:
160,96,84266,1,0,0:0:0:0:
352,96,84383,1,8,0:0:0:0:
352,96,84617,1,8,0:0:0:0:
160,96,84852,1,0,0:0:0:0:
160,96,85086,1,0,0:0:0:0:
352,96,85242,1,8,0:0:0:0:
160,96,85320,1,0,0:0:0:0:
160,96,85555,1,0,0:0:0:0:
160,96,85711,1,0,0:0:0:0:
352,96,85789,1,8,0:0:0:0:
352,96,85945,1,8,0:0:0:0:
352,96,86023,1,8,0:0:0:0:
352,96,86141,1,8,0:0:0:0:
160,96,86258,1,0,0:0:0:0:
352,96,86492,1,8,0:0:0:0:
160,96,86648,1,0,0:0:0:0:
352,96,86727,1,8,0:0:0:0:
160,96,86961,1,0,0:0:0:0:
352,96,87195,1,8,0:0:0:0:
352,96,87586,1,8,0:0:0:0:
160,96,87664,1,0,0:0:0:0:
352,96,87820,1,8,0:0:0:0:
352,96,87898,1,8,0:0:0:0:
160,96,88016,1,0,0:0:0:0:
352,96,88133,1,8,0:0:0:0:
160,96,88367,1,0,0:0:0:0:
352,96,88602,1,8,0:0:0:0:
160,96,88748,1,0,0:0:0:0:
160,96,88836,1,0,0:0:0:0:
160,96,88982,1,0,0:0:0:0:
352,96,89070,1,8,0:0:0:0:
160,96,89217,1,0,0:0:0:0:
160,96,89451,1,0,0:0:0:0:
352,96,89539,1,8,0:0:0:0:
160,96,89773,1,0,0:0:0:0:
352,96,90008,1,8,0:0:0:0:
352,96,90125,1,8,0:0:0:0:
160,96,90242,1,0,0:0:0:0:
352,288,90477,1,12,0:0:0:0:
160,96,90711,1,0,0:0:0:0:
160,96,90828,1,0,0:0:0:0:
352,96,90945,1,8,0:0:0:0:
160,96,91336,1,0,0:0:0:0:
160,96,91414,1,0,0:0:0:0:
352,96,91570,1,8,0:0:0:0:
160,96,91648,1,0,0:0:0:0:
160,96,91766,1,0,0:0:0:0:
352,96,91883,1,8,0:0:0:0:
352,96,92117,1,8,0:0:0:0:
352,96,92234,1,8,0:0:0:0:
160,96,92352,1,0,0:0:0:0:
160,96,92586,1,0,0:0:0:0:
352,96,92732,1,8,0:0:0:0:
160,96,92820,1,0,0:0:0:0:
160,96,93055,1,0,0:0:0:0:
160,96,93211,1,0,0:0:0:0:
352,96,93289,1,8,0:0:0:0:
352,96,93445,1,8,0:0:0:0:
352,96,93523,1,8,0:0:0:0:
352,96,93641,1,8,0:0:0:0:
160,96,93758,1,0,0:0:0:0:
352,96,93992,1,8,0:0:0:0:
160,96,94148,1,0,0:0:0:0:
352,96,94227,1,8,0:0:0:0:
160,96,94461,1,0,0:0:0:0:
160,96,94578,1,0,0:0:0:0:
352,96,94695,1,8,0:0:0:0:
160,96,95086,1,0,0:0:0:0:
160,96,95164,1,0,0:0:0:0:
352,96,95320,1,8,0:0:0:0:
160,96,95398,1,0,0:0:0:0:
160,96,95516,1,0,0:0:0:0:
352,96,95633,1,8,0:0:0:0:
160,96,95867,1,0,0:0:0:0:
352,96,96102,1,8,0:0:0:0:
160,96,96336,1,0,0:0:0:0:
352,96,96492,1,8,0:0:0:0:
160,96,96570,1,0,0:0:0:0:
352,96,96805,1,8,0:0:0:0:
352,96,96961,1,8,0:0:0:0:
160,96,97039,1,0,0:0:0:0:
352,96,97195,1,8,0:0:0:0:
352,96,97273,1,8,0:0:0:0:
160,96,97391,1,0,0:0:0:0:
352,96,97508,1,8,0:0:0:0:
352,96,97742,1,8,0:0:0:0:
160,288,97977,1,4,0:0:0:0:
160,96,98211,1,0,0:0:0:0:
160,96,98328,1,0,0:0:0:0:
352,96,98445,1,8,0:0:0:0:
352,96,98836,1,8,0:0:0:0:
160,96,98914,1,0,0:0:0:0:
160,96,99070,1,0,0:0:0:0:
160,96,99148,1,0,0:0:0:0:
160,96,99266,1,0,0:0:0:0:
352,96,99383,1,8,0:0:0:0:
352,96,99617,1,8,0:0:0:0:
352,96,99734,1,8,0:0:0:0:
160,96,99852,1,0,0:0:0:0:
160,96,100086,1,0,0:0:0:0:
352,96,100242,1,8,0:0:0:0:
160,96,100320,1,0,0:0:0:0:
160,96,100555,1,0,0:0:0:0:
160,96,100711,1,0,0:0:0:0:
352,96,100789,1,8,0:0:0:0:
352,96,100945,1,8,0:0:0:0:
352,96,101023,1,8,0:0:0:0:
352,96,101141,1,8,0:0:0:0:
160,96,101258,1,0,0:0:0:0:
352,96,101492,1,8,0:0:0:0:
160,96,101648,1,0,0:0:0:0:
352,96,101727,1,8,0:0:0:0:
160,96,101961,1,0,0:0:0:0:
352,96,102078,1,8,0:0:0:0:
160,96,102195,1,0,0:0:0:0:
160,96,102430,1,0,0:0:0:0:
160,96,102586,1,0,0:0:0:0:
352,96,102664,1,8,0:0:0:0:
160,96,102820,1,0,0:0:0:0:
160,96,102898,1,0,0:0:0:0:
160,96,103016,1,0,0:0:0:0:
352,96,103133,1,8,0:0:0:0:
160,96,103367,1,0,0:0:0:0:
352,288,103602,1,12,0:0:0:0:
160,288,103953,1,4,0:0:0:0:
160,288,104305,1,4,0:0:0:0:
352,288,104539,1,12,0:0:0:0:
352,96,105008,1,8,0:0:0:0:
160,288,105477,1,4,0:0:0:0:
352,96,105945,1,8,0:0:0:0:
160,96,106414,1,0,0:0:0:0:
352,96,106648,1,8,0:0:0:0:
352,96,106883,1,8,0:0:0:0:
160,96,107352,1,0,0:0:0:0:
352,96,107820,1,8,0:0:0:0:
160,96,108289,1,0,0:0:0:0:
352,96,108523,1,8,0:0:0:0:
160,96,108758,1,0,0:0:0:0:
352,96,109109,1,8,0:0:0:0:
160,96,109227,1,0,0:0:0:0:
352,96,109695,1,8,0:0:0:0:
160,96,110164,1,0,0:0:0:0:
352,96,110398,1,8,0:0:0:0:
352,96,110633,1,8,0:0:0:0:
160,96,110867,1,0,0:0:0:0:
160,96,110984,1,0,0:0:0:0:
352,96,111102,1,8,0:0:0:0:
160,96,111336,1,0,0:0:0:0:
352,96,111570,1,8,0:0:0:0:
352,96,111805,1,8,0:0:0:0:
160,96,112039,1,0,0:0:0:0:
352,96,112273,1,8,0:0:0:0:
160,96,112391,1,0,0:0:0:0:
160,96,112508,1,0,0:0:0:0:
352,96,112742,1,8,0:0:0:0:
352,96,112859,1,8,0:0:0:0:
160,96,112977,1,0,0:0:0:0:
352,96,113445,1,8,0:0:0:0:
160,96,113914,1,0,0:0:0:0:
352,96,114148,1,8,0:0:0:0:
160,96,114383,1,0,0:0:0:0:
160,96,114617,1,0,0:0:0:0:
160,96,114734,1,0,0:0:0:0:
352,96,114852,1,8,0:0:0:0:
352,96,115203,1,8,0:0:0:0:
160,96,115320,1,0,0:0:0:0:
352,96,115555,1,8,0:0:0:0:
160,96,115789,1,0,0:0:0:0:
160,96,115906,1,0,0:0:0:0:
160,96,116141,1,0,0:0:0:0:
352,96,116258,1,8,0:0:0:0:
352,96,116609,1,8,0:0:0:0:
160,96,116727,1,0,0:0:0:0:
160,96,116961,1,0,0:0:0:0:
352,96,117195,1,8,0:0:0:0:
160,96,117547,1,0,0:0:0:0:
160,96,117664,1,0,0:0:0:0:
352,96,117898,1,8,0:0:0:0:
160,96,118133,1,0,0:0:0:0:
160,96,118367,1,0,0:0:0:0:
160,96,118484,1,0,0:0:0:0:
352,96,118602,1,8,0:0:0:0:
160,96,118836,1,0,0:0:0:0:
160,96,118953,1,0,0:0:0:0:
160,96,119070,1,0,0:0:0:0:
352,96,119305,5,8,0:0:0:0:
160,96,119539,1,0,0:0:0:0:
352,96,119656,1,8,0:0:0:0:
352,96,119891,1,8,0:0:0:0:
160,96,120008,1,0,0:0:0:0:
352,96,120125,1,8,0:0:0:0:
160,96,120242,1,0,0:0:0:0:
352,96,120359,1,8,0:0:0:0:
160,288,120477,1,4,0:0:0:0:
