osu file format v14

[General]
AudioFilename: audio.mp3
AudioLeadIn: 0
PreviewTime: 105408
Countdown: 0
SampleSet: Normal
StackLeniency: 0.7
Mode: 1
LetterboxInBreaks: 0
WidescreenStoryboard: 0

[Editor]
Bookmarks: 30473,45473,75473,90473,150473,165473
DistanceSpacing: 0.8
BeatDivisor: 6
GridSize: 32
TimelineZoom: 2

[Metadata]
Title:Moriya set 10 ReEdit ~ Shinkou wa Hakanaki Ningen no Tame ni
TitleUnicode:Moriya set 10 ReEdit 〜 信仰は儚き人間のために
Artist:Rin
ArtistUnicode:凛
Creator:-yukiha-
Version:Oni
Source:東方風神録 ~ Mountain of Faith.
Tags:Luqua Featured Artist FA ZUN 上海アリス幻樂団 Team Shanghai Alice 東方Project Touhou Fuujinroku Fujinroku TH10 東風谷早苗 Kochiya Sanae 信仰は儚き人間の為に is for the Transient People Stage 5 Boss テーマ曲 Theme Song Instrumental Electronic House Video Game Function Phantom クロネコラウンジ Kuroneko Lounge osu!
BeatmapID:2572480
BeatmapSetID:1237609

[Difficulty]
HPDrainRate:5.5
CircleSize:2
OverallDifficulty:5.5
ApproachRate:5
SliderMultiplier:1.4
SliderTickRate:1

[Events]
//Background and Video events
0,0,"84771381_p0.jpg",0,40
//Break Periods
//Storyboard Layer 0 (Background)
//Storyboard Layer 1 (Fail)
//Storyboard Layer 2 (Pass)
//Storyboard Layer 3 (Foreground)
//Storyboard Layer 4 (Overlay)
//Storyboard Sound Samples

[TimingPoints]
467,468.75,4,1,0,60,1,0
467,-125,4,1,0,60,0,0
15467,-111.111111111111,4,1,0,60,0,0
30408,-111.111111111111,4,1,0,70,0,0
30467,-100,4,1,0,70,0,0
60408,-100,4,1,0,60,0,0
61404,-117.647058823529,4,1,0,60,0,0
75408,-117.647058823529,4,1,0,70,0,0
75467,-100,4,1,0,70,0,0
90408,-100,4,1,0,60,0,0
91170,-117.647058823529,4,1,0,60,0,0
97908,-117.647058823529,4,1,0,70,0,0
97967,-100,4,1,0,70,0,0
105467,-83.3333333333333,4,1,0,80,0,1
119998,-83.3333333333333,4,1,0,80,0,0
120467,-83.3333333333333,4,1,0,80,0,1
135408,-83.3333333333333,4,1,0,50,0,1
135467,-83.3333333333333,4,1,0,50,0,0
135935,-100,4,1,0,50,0,0
136404,-105.263157894737,4,1,0,50,0,0
136638,-111.111111111111,4,1,0,50,0,0
137107,-117.647058823529,4,1,0,50,0,0
150408,-117.647058823529,4,1,0,60,0,0
150467,-100,4,1,0,60,0,0
165408,-100,4,1,0,70,0,0
180935,-117.647058823529,4,1,0,70,0,0
187967,-142.857142857143,4,1,0,70,0,0
194529,-100,4,1,0,70,0,0

[HitObjects]
256,192,467,5,4,0:0:0:0:
256,192,935,1,8,0:0:0:0:
256,192,1873,1,8,0:0:0:0:
256,192,2342,1,0,0:0:0:0:
256,192,2810,1,8,0:0:0:0:
256,192,3279,1,0,0:0:0:0:
256,192,3435,1,8,0:0:0:0:
256,192,3513,1,0,0:0:0:0:
256,192,3748,1,8,0:0:0:0:
256,192,4217,1,4,0:0:0:0:
256,192,4685,1,8,0:0:0:0:
256,192,5623,1,8,0:0:0:0:
256,192,6092,1,0,0:0:0:0:
256,192,6560,1,8,0:0:0:0:
256,192,6795,1,8,0:0:0:0:
256,192,6951,1,8,0:0:0:0:
256,192,7029,1,0,0:0:0:0:
256,192,7263,1,0,0:0:0:0:
256,192,7498,1,8,0:0:0:0:
256,192,7967,1,4,0:0:0:0:
256,192,8435,1,8,0:0:0:0:
256,192,9373,1,8,0:0:0:0:
256,192,9842,1,0,0:0:0:0:
256,192,10310,1,8,0:0:0:0:
256,192,10779,1,0,0:0:0:0:
256,192,10935,1,8,0:0:0:0:
256,192,11013,1,0,0:0:0:0:
256,192,11248,1,8,0:0:0:0:
256,192,11717,1,4,0:0:0:0:
256,192,12185,1,8,0:0:0:0:
256,192,13123,1,8,0:0:0:0:
256,192,13592,1,0,0:0:0:0:
256,192,14060,1,8,0:0:0:0:
256,192,14295,1,8,0:0:0:0:
256,192,14451,1,8,0:0:0:0:
256,192,14529,1,0,0:0:0:0:
256,192,14763,1,0,0:0:0:0:
256,192,14998,1,8,0:0:0:0:
256,192,15154,1,8,0:0:0:0:
256,192,15232,1,0,0:0:0:0:
256,192,15467,1,12,0:0:0:0:
256,192,15935,1,8,0:0:0:0:
256,192,16404,1,0,0:0:0:0:
256,192,16873,1,8,0:0:0:0:
256,192,17342,1,0,0:0:0:0:
256,192,17810,1,8,0:0:0:0:
256,192,18279,1,0,0:0:0:0:
256,192,18435,1,8,0:0:0:0:
256,192,18513,1,0,0:0:0:0:
256,192,18748,1,8,0:0:0:0:
256,192,19217,1,4,0:0:0:0:
256,192,19685,1,8,0:0:0:0:
256,192,20154,1,0,0:0:0:0:
256,192,20623,1,8,0:0:0:0:
256,192,21092,1,0,0:0:0:0:
256,192,21560,1,8,0:0:0:0:
256,192,21795,1,8,0:0:0:0:
256,192,21951,1,8,0:0:0:0:
256,192,22029,1,0,0:0:0:0:
256,192,22263,1,0,0:0:0:0:
256,192,22498,1,8,0:0:0:0:
256,192,22967,1,4,0:0:0:0:
256,192,23435,1,8,0:0:0:0:
256,192,23904,1,0,0:0:0:0:
256,192,24373,1,8,0:0:0:0:
256,192,24842,1,0,0:0:0:0:
256,192,25310,1,8,0:0:0:0:
256,192,25779,1,0,0:0:0:0:
256,192,25935,1,8,0:0:0:0:
256,192,26013,1,0,0:0:0:0:
256,192,26248,1,8,0:0:0:0:
256,192,26717,1,4,0:0:0:0:
256,192,27185,1,8,0:0:0:0:
256,192,27654,1,0,0:0:0:0:
256,192,28123,1,8,0:0:0:0:
256,192,28592,1,12,0:0:0:0:
256,192,29763,1,0,0:0:0:0:
256,192,29881,1,8,0:0:0:0:
256,192,29998,1,8,0:0:0:0:
256,192,30467,1,4,0:0:0:0:
256,192,30935,1,0,0:0:0:0:
256,192,31170,1,0,0:0:0:0:
256,192,31404,1,8,0:0:0:0:
256,192,31873,1,8,0:0:0:0:
256,192,32107,1,0,0:0:0:0:
256,192,32342,1,0,0:0:0:0:
256,192,32810,1,0,0:0:0:0:
256,192,33045,1,0,0:0:0:0:
256,192,33279,1,8,0:0:0:0:
256,192,33435,1,8,0:0:0:0:
256,192,33748,1,8,0:0:0:0:
256,192,33982,1,0,0:0:0:0:
256,192,34138,1,8,0:0:0:0:
256,192,34217,1,0,0:0:0:0:
256,192,34685,1,0,0:0:0:0:
256,192,34920,1,0,0:0:0:0:
256,192,35154,1,8,0:0:0:0:
256,192,35623,1,8,0:0:0:0:
256,192,35857,1,0,0:0:0:0:
256,192,36092,1,0,0:0:0:0:
256,192,36560,1,0,0:0:0:0:
256,192,36795,1,0,0:0:0:0:
256,192,37029,1,8,0:0:0:0:
256,192,37185,1,8,0:0:0:0:
256,192,37498,1,8,0:0:0:0:
256,192,37732,1,0,0:0:0:0:
256,192,37888,1,8,0:0:0:0:
256,192,37967,1,0,0:0:0:0:
256,192,38435,1,0,0:0:0:0:
256,192,38670,1,0,0:0:0:0:
256,192,38904,1,8,0:0:0:0:
256,192,39295,1,0,0:0:0:0:
256,192,39842,1,0,0:0:0:0:
256,192,40310,1,0,0:0:0:0:
256,192,40545,1,0,0:0:0:0:
256,192,40701,1,8,0:0:0:0:
256,192,40935,1,8,0:0:0:0:
256,192,41248,1,8,0:0:0:0:
256,192,41482,1,0,0:0:0:0:
256,192,41717,1,0,0:0:0:0:
256,192,42185,1,0,0:0:0:0:
256,192,42420,1,0,0:0:0:0:
256,192,42654,1,8,0:0:0:0:
256,192,43045,1,8,0:0:0:0:
256,192,43357,1,0,0:0:0:0:
256,192,43592,1,12,0:0:0:0:
256,192,44060,1,8,0:0:0:0:
256,192,44529,1,12,0:0:0:0:
256,192,44763,1,0,0:0:0:0:
256,192,44998,1,12,0:0:0:0:
256,192,45232,1,0,0:0:0:0:
256,192,45467,1,4,0:0:0:0:
256,192,45935,1,0,0:0:0:0:
256,192,46170,1,0,0:0:0:0:
256,192,46404,1,8,0:0:0:0:
256,192,46873,1,8,0:0:0:0:
256,192,47107,1,0,0:0:0:0:
256,192,47342,1,0,0:0:0:0:
256,192,47810,1,0,0:0:0:0:
256,192,48045,1,0,0:0:0:0:
256,192,48279,1,8,0:0:0:0:
256,192,48435,1,8,0:0:0:0:
256,192,48513,1,0,0:0:0:0:
256,192,48748,1,8,0:0:0:0:
256,192,48982,1,0,0:0:0:0:
256,192,49138,1,8,0:0:0:0:
256,192,49217,1,0,0:0:0:0:
256,192,49685,1,0,0:0:0:0:
256,192,49920,1,0,0:0:0:0:
256,192,50154,1,8,0:0:0:0:
256,192,50623,1,8,0:0:0:0:
256,192,50857,1,0,0:0:0:0:
256,192,51092,1,0,0:0:0:0:
256,192,51560,1,0,0:0:0:0:
256,192,51795,1,0,0:0:0:0:
256,192,51951,1,8,0:0:0:0:
256,192,52029,1,0,0:0:0:0:
256,192,52185,1,8,0:0:0:0:
256,192,52498,1,8,0:0:0:0:
256,192,52732,1,0,0:0:0:0:
256,192,52967,1,12,0:0:0:0:
256,192,53435,1,0,0:0:0:0:
256,192,53670,1,0,0:0:0:0:
256,192,53904,1,8,0:0:0:0:
256,192,54295,1,0,0:0:0:0:
256,192,54842,1,0,0:0:0:0:
256,192,55310,1,0,0:0:0:0:
256,192,55545,1,0,0:0:0:0:
256,192,55701,1,8,0:0:0:0:
256,192,55935,1,8,0:0:0:0:
256,192,56013,1,0,0:0:0:0:
256,192,56248,1,0,0:0:0:0:
256,192,56482,1,0,0:0:0:0:
256,192,56717,1,12,0:0:0:0:
256,192,57185,1,0,0:0:0:0:
256,192,57420,1,0,0:0:0:0:
256,192,57654,1,12,0:0:0:0:
256,192,58045,1,8,0:0:0:0:
256,192,58357,1,0,0:0:0:0:
256,192,58592,1,12,0:0:0:0:
256,192,58826,1,8,0:0:0:0:
256,192,58943,1,8,0:0:0:0:
256,192,59060,1,8,0:0:0:0:
256,192,59529,1,0,0:0:0:0:
256,192,59763,1,0,0:0:0:0:
256,192,59998,1,8,0:0:0:0:
256,192,60154,1,8,0:0:0:0:
256,192,60232,1,8,0:0:0:0:
256,192,60467,1,4,0:0:0:0:
256,192,61404,1,8,0:0:0:0:
256,192,61756,1,0,0:0:0:0:
256,192,62107,1,8,0:0:0:0:
256,192,62342,1,8,0:0:0:0:
256,192,63279,1,8,0:0:0:0:
256,192,63631,1,0,0:0:0:0:
256,192,63982,1,8,0:0:0:0:
256,192,64217,1,0,0:0:0:0:
256,192,64685,1,8,0:0:0:0:
256,192,64920,1,8,0:0:0:0:
256,192,65388,1,0,0:0:0:0:
256,192,65623,1,8,0:0:0:0:
256,192,66092,1,0,0:0:0:0:
256,192,67029,1,8,0:0:0:0:
256,192,67498,1,0,0:0:0:0:
256,192,67967,1,8,0:0:0:0:
256,192,68904,1,0,0:0:0:0:
256,192,69256,1,0,0:0:0:0:
256,192,69607,1,8,0:0:0:0:
256,192,69842,1,8,0:0:0:0:
256,192,70779,1,8,0:0:0:0:
256,192,71131,1,0,0:0:0:0:
256,192,71482,1,8,0:0:0:0:
256,192,71717,1,0,0:0:0:0:
256,192,72185,1,0,0:0:0:0:
256,192,72654,1,8,0:0:0:0:
256,192,73006,1,0,0:0:0:0:
256,192,73357,1,8,0:0:0:0:
256,192,73592,1,8,0:0:0:0:
256,192,73709,1,8,0:0:0:0:
256,192,74529,1,8,0:0:0:0:
256,192,74763,1,0,0:0:0:0:
256,192,74881,1,8,0:0:0:0:
256,192,74998,1,8,0:0:0:0:
256,192,75467,1,4,0:0:0:0:
256,192,75935,1,0,0:0:0:0:
256,192,76170,1,0,0:0:0:0:
256,192,76404,1,8,0:0:0:0:
256,192,76756,1,8,0:0:0:0:
256,192,76873,1,0,0:0:0:0:
256,192,77107,1,0,0:0:0:0:
256,192,77342,1,8,0:0:0:0:
256,192,77810,1,0,0:0:0:0:
256,192,78045,1,0,0:0:0:0:
256,192,78279,1,8,0:0:0:0:
256,192,78435,1,8,0:0:0:0:
256,192,78513,1,0,0:0:0:0:
256,192,78748,1,0,0:0:0:0:
256,192,78982,1,8,0:0:0:0:
256,192,79138,1,8,0:0:0:0:
256,192,79217,1,0,0:0:0:0:
256,192,79685,1,8,0:0:0:0:
256,192,79920,1,0,0:0:0:0:
256,192,80154,1,0,0:0:0:0:
256,192,80388,1,8,0:0:0:0:
256,192,80623,1,8,0:0:0:0:
256,192,81092,1,0,0:0:0:0:
256,192,81326,1,8,0:0:0:0:
256,192,81560,1,0,0:0:0:0:
256,192,81795,1,0,0:0:0:0:
256,192,81951,1,8,0:0:0:0:
256,192,82029,1,0,0:0:0:0:
256,192,82263,1,8,0:0:0:0:
256,192,82498,1,0,0:0:0:0:
256,192,82732,1,0,0:0:0:0:
256,192,82967,1,8,0:0:0:0:
256,192,83435,1,8,0:0:0:0:
256,192,83670,1,0,0:0:0:0:
256,192,83904,1,8,0:0:0:0:
256,192,84256,1,8,0:0:0:0:
256,192,84373,1,0,0:0:0:0:
256,192,84607,1,8,0:0:0:0:
256,192,84842,1,8,0:0:0:0:
256,192,85310,1,0,0:0:0:0:
256,192,85779,1,0,0:0:0:0:
256,192,85935,1,8,0:0:0:0:
256,192,86013,1,0,0:0:0:0:
256,192,86248,1,0,0:0:0:0:
256,192,86482,1,0,0:0:0:0:
256,192,86638,1,8,0:0:0:0:
256,192,86717,1,8,0:0:0:0:
256,192,87185,1,8,0:0:0:0:
256,192,87654,1,8,0:0:0:0:
256,192,88006,1,8,0:0:0:0:
256,192,88357,1,8,0:0:0:0:
256,192,88592,1,4,0:0:0:0:
256,192,88826,1,0,0:0:0:0:
256,192,88982,1,0,0:0:0:0:
256,192,89060,1,8,0:0:0:0:
256,192,89295,1,0,0:0:0:0:
256,192,89451,1,8,0:0:0:0:
256,192,89529,1,0,0:0:0:0:
256,192,89763,1,8,0:0:0:0:
256,192,89998,1,8,0:0:0:0:
256,192,90232,1,0,0:0:0:0:
256,192,90467,1,4,0:0:0:0:
256,192,91170,1,0,0:0:0:0:
256,192,91404,1,8,0:0:0:0:
256,192,91795,1,8,0:0:0:0:
256,192,92107,1,8,0:0:0:0:
256,192,92342,1,0,0:0:0:0:
256,192,92810,1,8,0:0:0:0:
256,192,93045,1,0,0:0:0:0:
256,192,93279,1,8,0:0:0:0:
256,192,93513,1,8,0:0:0:0:
256,192,93748,1,0,0:0:0:0:
256,192,94217,1,0,0:0:0:0:
256,192,94920,1,0,0:0:0:0:
256,192,95154,1,8,0:0:0:0:
256,192,95545,1,8,0:0:0:0:
256,192,95857,1,8,0:0:0:0:
256,192,96092,1,0,0:0:0:0:
256,192,96560,1,0,0:0:0:0:
256,192,96795,1,0,0:0:0:0:
256,192,97029,1,8,0:0:0:0:
256,192,97263,1,8,0:0:0:0:
256,192,97420,1,8,0:0:0:0:
256,192,97498,1,0,0:0:0:0:
256,192,97732,1,8,0:0:0:0:
256,192,97967,1,4,0:0:0:0:
256,192,98435,1,0,0:0:0:0:
256,192,98904,1,8,0:0:0:0:
256,192,99256,1,8,0:0:0:0:
256,192,99373,1,0,0:0:0:0:
256,192,99607,1,8,0:0:0:0:
256,192,99842,1,8,0:0:0:0:
256,192,100310,1,0,0:0:0:0:
256,192,100779,1,8,0:0:0:0:
256,192,101131,1,8,0:0:0:0:
256,192,101248,1,0,0:0:0:0:
256,192,101482,1,8,0:0:0:0:
256,192,101717,1,4,0:0:0:0:
256,192,101951,1,0,0:0:0:0:
256,192,102185,1,8,0:0:0:0:
256,192,102420,1,0,0:0:0:0:
256,192,102654,1,4,0:0:0:0:
256,192,102810,1,8,0:0:0:0:
256,192,102888,1,8,0:0:0:0:
256,192,103123,1,8,0:0:0:0:
256,192,103279,1,8,0:0:0:0:
256,192,103357,1,8,0:0:0:0:
256,192,103592,1,12,0:0:0:0:
256,192,103943,1,12,0:0:0:0:
256,192,104295,1,12,0:0:0:0:
256,192,104529,1,12,0:0:0:0:
256,192,104763,1,4,0:0:0:0:
256,192,105467,1,4,0:0:0:0:
256,192,105701,1,8,0:0:0:0:
256,192,105935,1,0,0:0:0:0:
256,192,106170,1,0,0:0:0:0:
256,192,106287,1,0,0:0:0:0:
256,192,106404,1,8,0:0:0:0:
256,192,106873,1,0,0:0:0:0:
256,192,107029,1,0,0:0:0:0:
256,192,107107,1,0,0:0:0:0:
256,192,107342,1,8,0:0:0:0:
256,192,107576,1,8,0:0:0:0:
256,192,107810,1,8,0:0:0:0:
256,192,108045,1,8,0:0:0:0:
256,192,108162,1,0,0:0:0:0:
256,192,108279,1,0,0:0:0:0:
256,192,108748,1,0,0:0:0:0:
256,192,108904,1,0,0:0:0:0:
256,192,108982,1,8,0:0:0:0:
256,192,109217,1,0,0:0:0:0:
256,192,109451,1,8,0:0:0:0:
256,192,109685,1,0,0:0:0:0:
256,192,109920,1,8,0:0:0:0:
256,192,110037,1,0,0:0:0:0:
256,192,110154,1,0,0:0:0:0:
256,192,110623,1,0,0:0:0:0:
256,192,110857,1,0,0:0:0:0:
256,192,110974,1,0,0:0:0:0:
256,192,111092,1,8,0:0:0:0:
256,192,111326,1,8,0:0:0:0:
256,192,111560,1,8,0:0:0:0:
256,192,111795,1,8,0:0:0:0:
256,192,111912,1,0,0:0:0:0:
256,192,112029,1,0,0:0:0:0:
256,192,112263,1,8,0:0:0:0:
256,192,112381,1,8,0:0:0:0:
256,192,112498,1,8,0:0:0:0:
256,192,112732,1,8,0:0:0:0:
256,192,112967,1,0,0:0:0:0:
256,192,113201,1,8,0:0:0:0:
256,192,113435,1,0,0:0:0:0:
256,192,113670,1,0,0:0:0:0:
256,192,113787,1,0,0:0:0:0:
256,192,113904,1,8,0:0:0:0:
256,192,114373,1,0,0:0:0:0:
256,192,114529,1,0,0:0:0:0:
256,192,114607,1,0,0:0:0:0:
256,192,114842,1,8,0:0:0:0:
256,192,115076,1,0,0:0:0:0:
256,192,115310,1,0,0:0:0:0:
256,192,115545,1,0,0:0:0:0:
256,192,115662,1,0,0:0:0:0:
256,192,115779,1,8,0:0:0:0:
256,192,116248,1,8,0:0:0:0:
256,192,116482,1,8,0:0:0:0:
256,192,116599,1,0,0:0:0:0:
256,192,116717,1,0,0:0:0:0:
256,192,116951,1,8,0:0:0:0:
256,192,117185,1,8,0:0:0:0:
256,192,117420,1,0,0:0:0:0:
256,192,117537,1,0,0:0:0:0:
256,192,117654,1,8,0:0:0:0:
256,192,117888,1,0,0:0:0:0:
256,192,118123,1,8,0:0:0:0:
256,192,118357,1,8,0:0:0:0:
256,192,118592,1,4,0:0:0:0:
256,192,118748,1,8,0:0:0:0:
256,192,118826,1,8,0:0:0:0:
256,192,119060,1,4,0:0:0:0:
256,192,119217,1,8,0:0:0:0:
256,192,119295,1,8,0:0:0:0:
256,192,119529,1,4,0:0:0:0:
256,192,119998,1,0,0:0:0:0:
256,192,120467,1,4,0:0:0:0:
256,192,120701,1,8,0:0:0:0:
256,192,120935,1,0,0:0:0:0:
256,192,121170,1,0,0:0:0:0:
256,192,121287,1,0,0:0:0:0:
256,192,121404,1,8,0:0:0:0:
256,192,121873,1,0,0:0:0:0:
256,192,122029,1,0,0:0:0:0:
256,192,122107,1,0,0:0:0:0:
256,192,122342,1,8,0:0:0:0:
256,192,122576,1,8,0:0:0:0:
256,192,122810,1,8,0:0:0:0:
256,192,123045,1,8,0:0:0:0:
256,192,123162,1,0,0:0:0:0:
256,192,123279,1,0,0:0:0:0:
256,192,123748,1,0,0:0:0:0:
256,192,123904,1,0,0:0:0:0:
256,192,123982,1,8,0:0:0:0:
256,192,124217,1,0,0:0:0:0:
256,192,124451,1,8,0:0:0:0:
256,192,124685,1,0,0:0:0:0:
256,192,124920,1,8,0:0:0:0:
256,192,125037,1,0,0:0:0:0:
256,192,125154,1,0,0:0:0:0:
256,192,125623,1,0,0:0:0:0:
256,192,125857,1,8,0:0:0:0:
256,192,125974,1,8,0:0:0:0:
256,192,126092,1,0,0:0:0:0:
256,192,126326,1,0,0:0:0:0:
256,192,126560,1,8,0:0:0:0:
256,192,126795,1,8,0:0:0:0:
256,192,127029,1,4,0:0:0:0:
256,192,127185,1,8,0:0:0:0:
256,192,127263,1,8,0:0:0:0:
256,192,127498,1,4,0:0:0:0:
256,192,127967,1,4,0:0:0:0:
256,192,128201,1,8,0:0:0:0:
256,192,128435,1,0,0:0:0:0:
256,192,128670,1,0,0:0:0:0:
256,192,128787,1,0,0:0:0:0:
256,192,128904,1,8,0:0:0:0:
256,192,129373,1,0,0:0:0:0:
256,192,129529,1,0,0:0:0:0:
256,192,129607,1,0,0:0:0:0:
256,192,129842,1,8,0:0:0:0:
256,192,130076,1,0,0:0:0:0:
256,192,130310,1,8,0:0:0:0:
256,192,130545,1,0,0:0:0:0:
256,192,130662,1,0,0:0:0:0:
256,192,130779,1,8,0:0:0:0:
256,192,131248,1,8,0:0:0:0:
256,192,131482,1,8,0:0:0:0:
256,192,131717,1,4,0:0:0:0:
256,192,132185,1,0,0:0:0:0:
256,192,132420,1,8,0:0:0:0:
256,192,132654,1,4,0:0:0:0:
256,192,132888,1,0,0:0:0:0:
256,192,133045,1,8,0:0:0:0:
256,192,133123,1,8,0:0:0:0:
256,192,133357,1,0,0:0:0:0:
256,192,133592,1,12,0:0:0:0:
256,192,133943,1,12,0:0:0:0:
256,192,134295,1,12,0:0:0:0:
256,192,134529,1,12,0:0:0:0:
256,192,134685,1,0,0:0:0:0:
256,192,134763,1,8,0:0:0:0:
256,192,134998,1,0,0:0:0:0:
256,192,135154,1,0,0:0:0:0:
256,192,135232,1,0,0:0:0:0:
256,192,135467,1,12,0:0:0:0:
256,192,135935,1,0,0:0:0:0:
256,192,136404,1,8,0:0:0:0:
256,192,136638,1,8,0:0:0:0:
256,192,137107,1,0,0:0:0:0:
256,192,137342,1,8,0:0:0:0:
256,192,137810,1,8,0:0:0:0:
256,192,138279,1,8,0:0:0:0:
256,192,138513,1,0,0:0:0:0:
256,192,138748,1,0,0:0:0:0:
256,192,139217,1,4,0:0:0:0:
256,192,139920,1,0,0:0:0:0:
256,192,140154,1,8,0:0:0:0:
256,192,140623,1,0,0:0:0:0:
256,192,140857,1,0,0:0:0:0:
256,192,141092,1,8,0:0:0:0:
256,192,141560,1,8,0:0:0:0:
256,192,141795,1,0,0:0:0:0:
256,192,142029,1,8,0:0:0:0:
256,192,142967,1,4,0:0:0:0:
256,192,143670,1,0,0:0:0:0:
256,192,143904,1,8,0:0:0:0:
256,192,144138,1,0,0:0:0:0:
256,192,144842,1,8,0:0:0:0:
256,192,145076,1,0,0:0:0:0:
256,192,145310,1,8,0:0:0:0:
256,192,145779,1,8,0:0:0:0:
256,192,146248,1,8,0:0:0:0:
256,192,146482,1,8,0:0:0:0:
256,192,146717,1,4,0:0:0:0:
256,192,147185,1,8,0:0:0:0:
256,192,147420,1,0,0:0:0:0:
256,192,147654,1,8,0:0:0:0:
256,192,148123,1,8,0:0:0:0:
256,192,148357,1,0,0:0:0:0:
256,192,148592,1,8,0:0:0:0:
256,192,148709,1,8,0:0:0:0:
256,192,148826,1,0,0:0:0:0:
256,192,149060,1,0,0:0:0:0:
256,192,149177,1,8,0:0:0:0:
256,192,149295,1,0,0:0:0:0:
256,192,149529,1,0,0:0:0:0:
256,192,149646,1,8,0:0:0:0:
256,192,149763,1,0,0:0:0:0:
256,192,149998,1,8,0:0:0:0:
256,192,150115,1,8,0:0:0:0:
256,192,150232,1,0,0:0:0:0:
256,192,150467,1,12,0:0:0:0:
256,192,150935,1,8,0:0:0:0:
256,192,151052,1,8,0:0:0:0:
256,192,151170,1,8,0:0:0:0:
256,192,151287,1,8,0:0:0:0:
256,192,151404,1,0,0:0:0:0:
256,192,151873,1,0,0:0:0:0:
256,192,152107,1,8,0:0:0:0:
256,192,152224,1,8,0:0:0:0:
256,192,152342,1,0,0:0:0:0:
256,192,152576,1,0,0:0:0:0:
256,192,152693,1,0,0:0:0:0:
256,192,152810,1,8,0:0:0:0:
256,192,153045,1,0,0:0:0:0:
256,192,153279,1,8,0:0:0:0:
256,192,153396,1,0,0:0:0:0:
256,192,153513,1,8,0:0:0:0:
256,192,153631,1,0,0:0:0:0:
256,192,153748,1,0,0:0:0:0:
256,192,153982,1,8,0:0:0:0:
256,192,154099,1,0,0:0:0:0:
256,192,154217,1,0,0:0:0:0:
256,192,154685,1,0,0:0:0:0:
256,192,154802,1,8,0:0:0:0:
256,192,154920,1,8,0:0:0:0:
256,192,155154,1,8,0:0:0:0:
256,192,155623,1,0,0:0:0:0:
256,192,155740,1,0,0:0:0:0:
256,192,155857,1,8,0:0:0:0:
256,192,156092,1,0,0:0:0:0:
256,192,156209,1,8,0:0:0:0:
256,192,156326,1,8,0:0:0:0:
256,192,156560,1,0,0:0:0:0:
256,192,156677,1,8,0:0:0:0:
256,192,156795,1,0,0:0:0:0:
256,192,157029,1,8,0:0:0:0:
256,192,157498,1,0,0:0:0:0:
256,192,157967,1,12,0:0:0:0:
256,192,158435,1,0,0:0:0:0:
256,192,158904,1,8,0:0:0:0:
256,192,159021,1,8,0:0:0:0:
256,192,159373,1,0,0:0:0:0:
256,192,159490,1,8,0:0:0:0:
256,192,159607,1,0,0:0:0:0:
256,192,159842,1,8,0:0:0:0:
256,192,159959,1,8,0:0:0:0:
256,192,160076,1,0,0:0:0:0:
256,192,160310,1,0,0:0:0:0:
256,192,160427,1,0,0:0:0:0:
256,192,160545,1,8,0:0:0:0:
256,192,160779,1,0,0:0:0:0:
256,192,161131,1,0,0:0:0:0:
256,192,161248,1,0,0:0:0:0:
256,192,161482,1,0,0:0:0:0:
256,192,161717,1,8,0:0:0:0:
256,192,161834,1,0,0:0:0:0:
256,192,162068,1,8,0:0:0:0:
256,192,162185,1,0,0:0:0:0:
256,192,162420,1,8,0:0:0:0:
256,192,162654,1,0,0:0:0:0:
256,192,162771,1,0,0:0:0:0:
256,192,162888,1,0,0:0:0:0:
256,192,163123,1,8,0:0:0:0:
256,192,163240,1,8,0:0:0:0:
256,192,163357,1,8,0:0:0:0:
256,192,163474,1,8,0:0:0:0:
256,192,163592,1,0,0:0:0:0:
256,192,163943,1,8,0:0:0:0:
256,192,164060,1,0,0:0:0:0:
256,192,164295,1,8,0:0:0:0:
256,192,164529,1,0,0:0:0:0:
256,192,164763,1,0,0:0:0:0:
256,192,164881,1,8,0:0:0:0:
256,192,164998,1,8,0:0:0:0:
256,192,165232,1,0,0:0:0:0:
256,192,165467,1,4,0:0:0:0:
256,192,165935,1,0,0:0:0:0:
256,192,166170,1,0,0:0:0:0:
256,192,166404,1,8,0:0:0:0:
256,192,166873,1,8,0:0:0:0:
256,192,167107,1,0,0:0:0:0:
256,192,167342,1,0,0:0:0:0:
256,192,167810,1,0,0:0:0:0:
256,192,168045,1,0,0:0:0:0:
256,192,168279,1,8,0:0:0:0:
256,192,168748,1,8,0:0:0:0:
256,192,168982,1,0,0:0:0:0:
256,192,169217,1,0,0:0:0:0:
256,192,169685,1,0,0:0:0:0:
256,192,169920,1,0,0:0:0:0:
256,192,170154,1,8,0:0:0:0:
256,192,170623,1,8,0:0:0:0:
256,192,170857,1,0,0:0:0:0:
256,192,171092,1,0,0:0:0:0:
256,192,171560,1,0,0:0:0:0:
256,192,171795,1,0,0:0:0:0:
256,192,172029,1,8,0:0:0:0:
256,192,172498,1,8,0:0:0:0:
256,192,172732,1,0,0:0:0:0:
256,192,172967,1,0,0:0:0:0:
256,192,173435,1,0,0:0:0:0:
256,192,173670,1,0,0:0:0:0:
256,192,173904,1,8,0:0:0:0:
256,192,174295,1,0,0:0:0:0:
256,192,174607,1,0,0:0:0:0:
256,192,174842,1,0,0:0:0:0:
256,192,175310,1,0,0:0:0:0:
256,192,175545,1,0,0:0:0:0:
256,192,175701,1,8,0:0:0:0:
256,192,176248,1,0,0:0:0:0:
256,192,176482,1,0,0:0:0:0:
256,192,176717,1,8,0:0:0:0:
256,192,177185,1,8,0:0:0:0:
256,192,177420,1,0,0:0:0:0:
256,192,177654,1,0,0:0:0:0:
256,192,178045,1,8,0:0:0:0:
256,192,178357,1,0,0:0:0:0:
256,192,178592,1,12,0:0:0:0:
256,192,179060,1,0,0:0:0:0:
256,192,179529,1,12,0:0:0:0:
256,192,179763,1,0,0:0:0:0:
256,192,179998,1,12,0:0:0:0:
256,192,180232,1,0,0:0:0:0:
256,192,180467,1,4,0:0:0:0:
256,192,180935,1,0,0:0:0:0:
256,192,181404,1,8,0:0:0:0:
256,192,181873,1,8,0:0:0:0:
256,192,182342,1,0,0:0:0:0:
256,192,182810,1,0,0:0:0:0:
256,192,183279,1,8,0:0:0:0:
256,192,183748,1,8,0:0:0:0:
256,192,184217,1,0,0:0:0:0:
256,192,184685,1,0,0:0:0:0:
256,192,185154,1,8,0:0:0:0:
256,192,185623,1,8,0:0:0:0:
256,192,186092,1,0,0:0:0:0:
256,192,186560,1,0,0:0:0:0:
256,192,187029,1,8,0:0:0:0:
256,192,187498,1,8,0:0:0:0:
256,192,187967,1,12,0:0:0:0:
256,192,188435,1,0,0:0:0:0:
256,192,188904,1,8,0:0:0:0:
256,192,189295,1,0,0:0:0:0:
256,192,189842,1,0,0:0:0:0:
256,192,190310,1,0,0:0:0:0:
256,192,190701,1,8,0:0:0:0:
256,192,191248,1,0,0:0:0:0:
256,192,191717,1,12,0:0:0:0:
256,192,192185,1,0,0:0:0:0:
256,192,192654,1,12,0:0:0:0:
256,192,193045,1,8,0:0:0:0:
256,192,193592,1,12,0:0:0:0:
256,192,193826,1,8,0:0:0:0:
256,192,193943,1,8,0:0:0:0:
256,192,194060,1,8,0:0:0:0:
256,192,194529,1,0,0:0:0:0:
256,192,194763,1,0,0:0:0:0:
256,192,194998,1,8,0:0:0:0:
256,192,195154,1,8,0:0:0:0:
256,192,195388,1,8,0:0:0:0:
256,192,195467,1,0,0:0:0:0:
