osu file format v14

[General]
AudioFilename: audio.mp3
AudioLeadIn: 0
PreviewTime: 30454
Countdown: 0
SampleSet: Soft
StackLeniency: 0.7
Mode: 0
LetterboxInBreaks: 0
WidescreenStoryboard: 1

[Editor]
Bookmarks: 30482,37982,52982,67982,82982,97982,105482,120482,135482,150482,165482,172982,187982
DistanceSpacing: 0.6
BeatDivisor: 4
GridSize: 32
TimelineZoom: 1.5

[Metadata]
Title:Moriya set 04 ReEdit ~ Unmei no Dark Side
TitleUnicode:Moriya set 04 ReEdit 〜 運命のダークサイド
Artist:Rin
ArtistUnicode:凛
Creator:Halfslashed
Version:cocona's Lunatic
Source:東方風神録 ~ Mountain of Faith.
Tags:th10 東方project touhou project fuujinroku mof 鍵山 雛 hina kagiyama fate daku saido featured artist kuroneko lounge house set captin1 yaspo cocona electronic instrumental
BeatmapID:4001892
BeatmapSetID:1374578

[Difficulty]
HPDrainRate:4.2
CircleSize:3.8
OverallDifficulty:7.8
ApproachRate:8.6
SliderMultiplier:1.8
SliderTickRate:1

[Events]
//Background and Video events
0,0,"db4zwqs-09446c1b-4cb7-4041-b546-48c69c1ec004.png",0,0
//Break Periods
2,105670,112311
2,113170,119811
//Storyboard Layer 0 (Background)
//Storyboard Layer 1 (Fail)
//Storyboard Layer 2 (Pass)
//Storyboard Layer 3 (Foreground)
//Storyboard Layer 4 (Overlay)
//Storyboard Sound Samples

[TimingPoints]
470,468.75,4,2,1,50,1,0
30470,-166.666666666667,4,2,1,50,0,0
31290,-166.666666666667,4,2,1,5,0,0
31407,-166.666666666667,4,2,1,50,0,0
32227,-166.666666666667,4,2,1,5,0,0
32344,-166.666666666667,4,2,1,50,0,0
33165,-166.666666666667,4,2,1,5,0,0
33282,-166.666666666667,4,2,1,50,0,0
34102,-166.666666666667,4,2,1,5,0,0
34220,-125,4,2,1,60,0,0
36095,-125,4,2,1,70,0,0
36329,-100,4,2,1,70,0,0
37970,-100,4,2,1,50,0,0
39141,-71.4285714285714,4,2,1,50,0,0
39845,-83.3333333333333,4,2,1,50,0,0
41485,-71.4285714285714,4,2,1,50,0,0
41954,-50,4,2,1,50,0,0
42423,-71.4285714285714,4,2,1,50,0,0
42891,-58.8235294117647,4,2,1,50,0,0
43595,-71.4285714285714,4,2,1,50,0,0
45235,-55.5555555555556,4,2,1,50,0,0
46641,-71.4285714285714,4,2,1,50,0,0
47345,-83.3333333333333,4,2,1,50,0,0
48985,-71.4285714285714,4,2,1,50,0,0
49454,-50,4,2,1,50,0,0
49923,-71.4285714285714,4,2,1,50,0,0
50391,-58.8235294117647,4,2,1,50,0,0
51095,-71.4285714285714,4,2,1,50,0,0
52501,-83.3333333333333,4,2,1,50,0,0
53438,-71.4285714285714,4,2,1,50,0,0
67032,-71.4285714285714,4,2,0,50,0,0
67970,-62.5,4,2,1,60,0,0
71485,-55.5555555555556,4,2,1,60,0,0
73595,-62.5,4,2,1,60,0,0
78985,-55.5555555555556,4,2,1,60,0,0
80860,-62.5,4,2,1,60,0,0
82970,-71.4285714285714,4,2,1,60,0,0
90470,-83.3333333333333,4,2,1,50,0,0
96095,-83.3333333333333,4,2,1,60,0,0
97032,-71.4285714285714,4,2,0,60,0,0
97970,-166.666666666667,4,2,1,50,0,0
98790,-166.666666666667,4,2,1,5,0,0
98907,-166.666666666667,4,2,1,50,0,0
99727,-166.666666666667,4,2,1,5,0,0
99844,-166.666666666667,4,2,1,50,0,0
100665,-166.666666666667,4,2,1,5,0,0
100782,-166.666666666667,4,2,1,50,0,0
101602,-166.666666666667,4,2,1,5,0,0
101720,-125,4,2,1,60,0,0
103595,-125,4,2,1,70,0,0
103829,-100,4,2,1,70,0,0
105470,-100,4,2,1,40,0,0
112970,-100,4,2,1,30,0,0
120470,-100,4,2,0,40,0,0
126212,-71.4285714285714,4,2,0,40,0,0
126563,-76.9230769230769,4,2,0,40,0,0
127032,-100,4,2,0,40,0,0
127970,-90.9090909090909,4,2,0,50,0,0
130782,-71.4285714285714,4,2,0,50,0,0
131485,-90.9090909090909,4,2,0,50,0,0
131720,-90.9090909090909,4,1,0,50,0,0
132891,-90.9090909090909,4,2,0,50,0,0
133595,-90.9090909090909,4,2,1,80,0,0
134532,-71.4285714285714,4,2,1,80,0,0
135001,-71.4285714285714,4,2,1,50,0,0
135470,-58.8235294117647,4,2,1,80,0,0
138985,-52.6315789473684,4,2,1,80,0,0
141095,-58.8235294117647,4,2,1,80,0,0
146485,-52.6315789473684,4,2,1,80,0,0
150470,-58.8235294117647,4,2,1,80,0,0
157970,-83.3333333333333,4,2,1,60,0,0
163595,-83.3333333333333,4,2,1,80,0,0
164532,-71.4285714285714,4,2,0,80,0,0
165235,-71.4285714285714,4,2,1,80,0,0
165470,-166.666666666667,4,2,1,50,0,0
166290,-166.666666666667,4,2,1,5,0,0
166407,-166.666666666667,4,2,1,50,0,0
167227,-166.666666666667,4,2,1,5,0,0
167344,-166.666666666667,4,2,1,50,0,0
168165,-166.666666666667,4,2,1,5,0,0
168282,-166.666666666667,4,2,1,50,0,0
169102,-166.666666666667,4,2,1,5,0,0
169220,-125,4,2,1,55,0,0
171095,-125,4,2,1,60,0,0
171329,-100,4,2,1,60,0,0
172970,-100,4,2,1,50,0,0
174141,-71.4285714285714,4,2,1,50,0,0
174845,-83.3333333333333,4,2,1,50,0,0
176485,-71.4285714285714,4,2,1,50,0,0
176954,-50,4,2,1,50,0,0
177423,-71.4285714285714,4,2,1,50,0,0
177891,-58.8235294117647,4,2,1,50,0,0
178595,-71.4285714285714,4,2,1,50,0,0
180235,-55.5555555555556,4,2,1,50,0,0
181641,-71.4285714285714,4,2,1,50,0,0
182345,-83.3333333333333,4,2,1,50,0,0
183985,-71.4285714285714,4,2,1,50,0,0
184337,-50,4,2,1,50,0,0
184923,-71.4285714285714,4,2,1,50,0,0
185391,-58.8235294117647,4,2,1,50,0,0
187501,-83.3333333333333,4,2,1,50,0,0

[Colours]
Combo1 : 223,223,223
Combo2 : 199,3,3
Combo3 : 6,236,224
Combo4 : 236,74,79

[HitObjects]
106,125,30470,6,0,P|158:88|263:81,1,161.999995056153,2|0,1:2|0:0,0:0:0:0:
439,209,31407,6,0,P|398:158|296:176,1,161.999995056153,2|0,1:2|0:0,0:0:0:0:
69,319,32345,6,0,P|89:282|207:287,1,161.999995056153,2|0,1:2|0:0,0:0:0:0:
355,26,33282,6,0,P|447:23|444:99,1,188.999994232178,2|0,1:2|0:0,0:0:0:0:
383,173,34220,6,0,P|391:222|403:266,1,72,6|0,1:2|1:0,0:0:0:0:
470,347,34688,1,0,3:0:0:0:
470,347,34805,1,0,3:0:0:0:
483,285,34923,1,0,3:0:0:0:
445,327,35040,1,0,3:0:0:0:
372,347,35157,6,0,P|336:339|287:315,1,72,6|0,1:2|1:0,0:0:0:0:
165,332,35626,1,0,3:0:0:0:
165,332,35743,1,0,3:0:0:0:
173,298,35860,1,0,3:0:0:0:
136,276,35977,1,0,3:0:0:0:
146,203,36095,5,6,1:2:0:0:
146,203,36212,1,0,0:0:0:0:
214,238,36329,2,0,L|285:214,1,45,0|0,1:0|0:0,0:0:0:0:
138,160,36563,5,4,0:0:0:0:
138,160,36680,1,0,0:0:0:0:
215,207,36797,2,0,L|271:168,1,45,0|0,3:0|3:0,0:0:0:0:
107,139,37032,5,4,1:2:0:0:
107,139,37149,1,0,0:0:0:0:
148,133,37266,5,0,3:0:0:0:
172,120,37384,1,0,3:0:0:0:
203,83,37501,5,4,1:2:0:0:
250,95,37618,1,0,3:0:0:0:
297,130,37735,1,4,1:2:0:0:
355,117,37852,1,4,1:2:0:0:
394,53,37970,5,4,1:0:0:0:
450,153,38204,1,2,0:0:0:0:
431,172,38321,1,0,0:0:0:0:
434,196,38438,1,8,1:2:0:0:
485,211,38555,1,0,0:0:0:0:
498,261,38673,1,0,0:0:0:0:
282,190,38907,5,2,1:2:0:0:
282,190,39141,2,0,L|306:268,1,62.9999980773926,2|0,0:3|0:0,0:0:0:0:
336,370,39376,1,8,1:2:0:0:
454,230,39610,6,0,L|391:278,1,62.9999980773926,2|0,0:3|0:0,0:0:0:0:
207,358,39845,2,0,L|102:316,1,107.999996704102,2|0,1:2|0:0,0:0:0:0:
278,265,40196,2,0,L|221:280,1,53.9999983520508,2|8,0:0|1:2,0:0:0:0:
1,319,40430,1,0,0:0:0:0:
35,350,40547,1,0,0:0:0:0:
65,341,40664,1,0,0:0:0:0:
73,293,40782,2,0,L|21:170,1,107.999996704102,2|0,1:3|0:0,0:0:0:0:
54,76,41134,1,2,0:3:0:0:
75,96,41251,2,0,L|141:122,1,53.9999983520508,8|0,1:2|0:0,0:0:0:0:
255,31,41485,6,0,L|272:113,1,62.9999980773926,2|0,1:3|0:0,0:0:0:0:
241,270,41720,1,2,1:2:0:0:
232,366,41954,6,0,P|259:337|251:279,1,90,2|0,0:1|0:0,0:0:0:0:
396,185,42188,1,8,1:2:0:0:
396,185,42423,2,0,L|310:203,1,62.9999980773926,2|0,0:3|0:0,0:0:0:0:
159,174,42657,1,2,1:2:0:0:
74,193,42891,6,0,P|92:163|146:142,1,76.5000014591217,2|0,0:1|0:0,0:0:0:0:
355,87,43126,1,8,1:2:0:0:
355,87,43360,5,0,0:0:0:0:
343,4,43477,1,0,0:0:0:0:
400,9,43595,2,0,L|431:155,1,125.999996154785,2|0,1:3|0:0,0:0:0:0:
323,169,43946,1,2,0:3:0:0:
324,192,44063,2,0,L|288:252,1,62.9999980773926,8|0,1:2|0:0,0:0:0:0:
233,148,44298,2,0,L|165:164,1,62.9999980773926,2|0,0:3|0:0,0:0:0:0:
128,57,44532,5,6,1:2:0:0:
90,33,44649,1,0,0:0:0:0:
39,48,44766,1,2,0:0:0:0:
2,15,44884,1,0,1:2:0:0:
0,68,45001,1,14,1:2:0:0:
0,260,45235,6,0,P|24:231|71:197,1,80.9999975280763,2|0,0:3|0:0,0:0:0:0:
288,170,45470,5,4,1:2:0:0:
342,276,45704,1,2,0:0:0:0:
351,302,45821,1,0,0:0:0:0:
349,328,45938,1,8,1:2:0:0:
404,345,46055,1,0,0:0:0:0:
454,311,46173,1,0,0:0:0:0:
461,147,46407,5,2,1:2:0:0:
461,147,46641,2,0,L|383:120,1,62.9999980773926,2|0,0:3|0:0,0:0:0:0:
217,78,46876,1,8,1:2:0:0:
244,250,47110,6,0,L|275:179,1,62.9999980773926,2|0,0:3|0:0,0:0:0:0:
336,41,47345,2,0,L|451:9,1,107.999996704102,2|0,1:2|0:0,0:0:0:0:
225,54,47696,2,0,L|259:6,1,53.9999983520508,2|8,0:0|1:2,0:0:0:0:
169,164,47930,1,0,0:0:0:0:
140,120,48048,1,0,0:0:0:0:
115,118,48165,1,0,0:0:0:0:
78,148,48282,2,0,L|121:277,1,107.999996704102,2|0,1:3|0:0,0:0:0:0:
15,330,48634,1,2,0:3:0:0:
33,352,48751,2,0,L|97:372,1,53.9999983520508,8|0,1:2|0:0,0:0:0:0:
186,153,48985,6,0,L|233:217,1,62.9999980773926,2|0,1:3|0:0,0:0:0:0:
292,292,49220,1,2,1:2:0:0:
361,383,49454,6,0,P|329:356|331:295,1,90,2|0,0:1|0:0,0:0:0:0:
450,135,49688,1,8,1:2:0:0:
450,135,49923,2,0,L|374:97,1,62.9999980773926,2|0,0:3|0:0,0:0:0:0:
262,44,50157,1,2,1:2:0:0:
170,38,50391,6,0,P|213:58|260:54,1,76.5000014591217,2|0,0:1|0:0,0:0:0:0:
466,10,50626,1,8,1:2:0:0:
466,10,50860,5,0,0:0:0:0:
396,57,50977,1,0,0:0:0:0:
440,89,51095,2,0,L|456:224,1,125.999996154785,6|0,1:2|1:2,0:0:0:0:
502,314,51446,1,2,0:0:0:0:
484,340,51563,2,0,L|413:368,1,62.9999980773926,8|0,1:2|0:0,0:0:0:0:
343,284,51798,1,2,1:2:0:0:
351,270,51915,1,0,0:0:0:0:
325,218,52032,5,6,1:2:0:0:
285,231,52149,1,0,1:2:0:0:
271,286,52266,1,2,1:2:0:0:
216,305,52384,1,0,1:2:0:0:
167,263,52501,2,0,B|65:343,1,107.999996704102,10|0,1:3|0:0,0:0:0:0:
91,48,52970,5,6,0:0:0:0:
88,30,53087,1,0,0:0:0:0:
47,50,53204,1,2,0:0:0:0:
67,99,53321,1,0,0:0:0:0:
138,115,53438,2,0,B|181:75|181:75|252:58,1,125.999996154785,10|2,1:2|0:0,0:0:0:0:
355,10,53790,6,0,L|385:68,1,62.9999980773926,2|0,0:0|1:2,0:0:0:0:
371,206,54024,1,2,0:0:0:0:
347,182,54141,1,0,0:0:0:0:
382,150,54259,1,2,0:0:0:0:
446,200,54376,2,0,B|391:235|391:235|345:291,1,125.999996154785,10|2,1:2|0:0,0:0:0:0:
426,322,54727,1,2,0:0:0:0:
364,370,54845,5,2,1:2:0:0:
364,370,54962,1,0,0:0:0:0:
262,376,55079,2,0,L|189:344,1,62.9999980773926,2|0,1:2|0:0,0:0:0:0:
307,302,55313,5,4,1:2:0:0:
307,302,55430,1,0,0:0:0:0:
230,234,55547,2,0,L|201:159,1,62.9999980773926,2|0,0:0|0:0,0:0:0:0:
91,311,55782,5,2,1:2:0:0:
91,311,56016,1,0,1:2:0:0:
23,116,56251,1,4,1:2:0:0:
167,22,56485,5,2,0:0:0:0:
210,8,56602,1,2,0:0:0:0:
228,16,56720,1,2,1:2:0:0:
244,44,56837,1,0,0:0:0:0:
224,96,56954,1,2,0:0:0:0:
173,91,57071,1,0,0:0:0:0:
128,147,57188,2,0,B|135:212|135:212|197:260,1,125.999996154785,10|2,1:2|0:0,0:0:0:0:
240,351,57540,6,0,L|283:294,1,62.9999980773926,2|0,0:0|1:2,0:0:0:0:
484,191,57774,1,2,0:0:0:0:
444,175,57891,1,0,0:0:0:0:
391,184,58009,1,2,0:0:0:0:
329,224,58126,2,0,B|287:177|287:177|314:94,1,125.999996154785,10|2,1:2|0:0,0:0:0:0:
385,95,58477,1,2,0:0:0:0:
335,33,58595,5,2,1:2:0:0:
258,48,58712,1,10,1:2:0:0:
223,77,58829,1,2,1:2:0:0:
258,84,58946,1,8,1:2:0:0:
307,140,59063,5,2,1:2:0:0:
292,173,59180,1,10,1:2:0:0:
270,186,59298,1,2,1:2:0:0:
252,191,59415,1,8,1:2:0:0:
206,184,59532,5,2,1:2:0:0:
206,184,59649,1,0,1:2:0:0:
172,234,59766,2,0,L|90:248,2,62.9999980773926,8|8|0,1:2|1:2|1:2,0:0:0:0:
379,201,60235,1,8,1:2:0:0:
379,201,60470,5,6,1:2:0:0:
357,192,60587,1,0,0:0:0:0:
366,142,60704,1,2,0:0:0:0:
425,143,60821,1,0,0:0:0:0:
452,211,60938,2,0,B|436:276|436:276|391:329,1,125.999996154785,10|2,1:2|0:0,0:0:0:0:
267,368,61290,6,0,L|246:279,1,62.9999980773926,2|0,0:0|1:2,0:0:0:0:
77,236,61524,1,2,0:0:0:0:
70,269,61641,1,0,0:0:0:0:
104,294,61759,1,2,0:0:0:0:
153,239,61876,2,0,B|122:188|122:188|137:96,1,125.999996154785,10|2,1:2|0:0,0:0:0:0:
67,45,62227,1,2,0:0:0:0:
148,14,62345,5,2,1:2:0:0:
148,14,62462,1,0,0:0:0:0:
250,8,62579,2,0,L|323:40,1,62.9999980773926,2|0,1:2|0:0,0:0:0:0:
205,82,62813,5,4,1:2:0:0:
205,82,62930,1,0,0:0:0:0:
282,150,63047,2,0,L|311:225,1,62.9999980773926,2|0,0:0|0:0,0:0:0:0:
468,102,63282,5,2,1:2:0:0:
468,102,63516,1,0,1:2:0:0:
406,305,63751,1,4,1:2:0:0:
190,338,63985,5,2,0:0:0:0:
152,324,64102,1,2,0:0:0:0:
155,305,64220,1,2,1:2:0:0:
204,315,64337,1,0,0:0:0:0:
238,273,64454,1,2,0:0:0:0:
228,209,64571,1,0,0:0:0:0:
158,182,64688,2,0,B|105:223|105:223|34:217,1,125.999996154785,10|2,1:2|0:0,0:0:0:0:
233,110,65040,6,0,L|176:73,1,62.9999980773926,2|0,0:0|1:2,0:0:0:0:
399,27,65274,1,2,0:0:0:0:
426,50,65391,1,0,0:0:0:0:
414,98,65509,1,2,0:0:0:0:
342,103,65626,2,0,B|308:156|308:156|331:224,1,125.999996154785,10|2,1:2|0:0,0:0:0:0:
409,224,65977,1,2,0:0:0:0:
442,296,66095,5,2,1:2:0:0:
381,342,66212,1,10,1:2:0:0:
328,320,66329,1,2,1:2:0:0:
325,290,66446,1,8,1:2:0:0:
263,251,66563,5,2,1:2:0:0:
263,251,66680,1,10,1:2:0:0:
225,291,66798,5,2,1:2:0:0:
225,291,66915,1,8,1:2:0:0:
170,260,67032,6,0,L|149:334,2,62.9999980773926,2|0|0,1:2|1:2|1:2,0:0:0:0:
170,260,67501,1,4,1:2:0:0:
298,40,67970,6,0,P|256:115|201:157,1,144,4|0,1:0|0:0,0:0:0:0:
169,153,68321,1,0,0:0:0:0:
120,93,68438,1,8,1:2:0:0:
138,55,68555,1,0,0:0:0:0:
100,27,68673,2,0,P|65:43|31:66,1,72,2|0,0:0|0:0,0:0:0:0:
275,7,68907,2,0,P|375:35|441:99,1,144,2|0,1:2|0:0,0:0:0:0:
446,42,69259,1,0,0:0:0:0:
463,116,69376,1,8,1:2:0:0:
307,129,69610,6,0,P|298:167|280:221,1,72,2|0,1:2|0:0,0:0:0:0:
426,264,69845,2,0,P|392:284|341:309,1,72,2|0,1:2|0:0,0:0:0:0:
235,280,70079,1,0,0:0:0:0:
195,351,70196,2,0,P|163:334|132:315,1,72,2|8,0:0|0:0,0:0:0:0:
45,121,70430,1,0,0:0:0:0:
16,134,70548,1,0,0:0:0:0:
0,163,70665,1,0,0:0:0:0:
75,195,70782,2,0,P|150:169|104:117,1,144,2|0,1:2|0:0,0:0:0:0:
107,6,71134,1,2,1:2:0:0:
87,25,71251,2,0,P|127:39|182:51,1,72,8|0,0:0|0:0,0:0:0:0:
225,216,71485,6,0,P|238:180|274:129,1,80.9999975280763,2|0,1:2|1:0,0:0:0:0:
453,26,71720,2,0,B|502:72|466:135|406:145|365:92|365:92|322:163|395:222,1,323.999990112305,2|8,1:2|1:2,0:0:0:0:
239,0,72423,6,0,P|250:33|275:73,1,80.9999975280763,2|0,0:0|0:0,0:0:0:0:
397,237,72657,2,0,B|445:237|490:223|490:223|427:271|402:326|402:326|353:297|302:286,1,323.999990112305,2|8,1:2|1:2,0:0:0:0:
85,252,73360,5,2,1:2:0:0:
17,305,73477,1,2,0:0:0:0:
61,327,73595,2,0,P|41:233|2:168,1,144,2|0,1:2|0:0,0:0:0:0:
160,119,73946,1,2,0:0:0:0:
195,109,74063,2,0,P|214:74|228:2,1,72,8|0,0:0|0:0,0:0:0:0:
83,74,74298,2,0,P|71:35|52:0,1,72,2|0,0:0|0:0,0:0:0:0:
266,221,74532,5,6,1:2:0:0:
298,199,74649,1,0,0:0:0:0:
297,147,74766,1,2,0:0:0:0:
336,118,74884,1,0,1:0:0:0:
300,89,75001,1,6,1:2:0:0:
476,47,75235,5,0,0:0:0:0:
181,119,75470,6,0,P|224:183|232:268,1,144,6|0,1:2|0:0,0:0:0:0:
224,286,75821,1,0,0:0:0:0:
147,277,75938,1,8,1:2:0:0:
121,317,76055,1,0,0:0:0:0:
75,327,76173,2,0,P|45:307|15:278,1,72,2|0,0:0|0:0,0:0:0:0:
259,373,76407,2,0,P|340:355|409:285,1,144,2|0,1:2|0:0,0:0:0:0:
422,332,76759,1,0,0:0:0:0:
430,255,76876,1,8,1:2:0:0:
302,225,77110,6,0,P|293:187|275:133,1,72,2|0,1:2|0:0,0:0:0:0:
421,90,77345,2,0,P|387:70|336:45,1,72,2|0,1:2|0:0,0:0:0:0:
230,74,77579,1,0,0:0:0:0:
190,3,77696,2,0,P|158:20|127:39,1,72,2|8,0:0|0:0,0:0:0:0:
48,226,77930,1,0,0:0:0:0:
19,213,78048,1,0,0:0:0:0:
3,184,78165,1,0,0:0:0:0:
78,152,78282,2,0,P|153:178|107:230,1,144,2|0,1:2|0:0,0:0:0:0:
218,308,78634,1,2,1:2:0:0:
204,335,78751,2,0,P|167:347|110:352,1,72,8|0,0:0|0:0,0:0:0:0:
0,319,78985,6,0,P|32:304|69:278,1,80.9999975280763,2|0,1:2|1:0,0:0:0:0:
200,66,79220,2,0,B|154:91|158:142|158:142|251:173|283:84|283:84|300:124|300:169,1,323.999990112305,2|8,1:2|1:2,0:0:0:0:
462,371,79923,6,0,P|429:356|393:330,1,80.9999975280763,2|0,0:0|0:0,0:0:0:0:
326,173,80157,2,0,B|385:177|431:223|431:223|486:166|463:90|463:90|429:108|376:116,1,323.999990112305,2|8,1:2|1:2,0:0:0:0:
95,59,80860,5,2,1:2:0:0:
168,14,80977,1,2,0:0:0:0:
193,60,81095,5,2,1:2:0:0:
197,73,81212,1,0,0:0:0:0:
201,85,81329,1,0,1:0:0:0:
159,124,81446,5,2,0:0:0:0:
154,136,81563,1,8,1:2:0:0:
148,149,81680,1,0,0:0:0:0:
178,182,81798,5,2,1:2:0:0:
130,197,81915,1,0,0:0:0:0:
165,261,82032,5,6,1:2:0:0:
122,234,82149,1,0,1:0:0:0:
83,259,82266,1,2,1:2:0:0:
32,232,82384,1,0,0:0:0:0:
8,284,82501,2,0,P|69:322|31:401,1,144,6|0,1:2|0:0,0:0:0:0:
250,185,82970,5,4,1:0:0:0:
273,160,83087,1,0,0:0:0:0:
251,114,83204,1,2,0:0:0:0:
197,121,83321,1,0,0:0:0:0:
168,191,83438,2,0,P|228:225|303:254,1,125.999996154785,10|2,1:2|0:0,0:0:0:0:
415,302,83790,6,0,P|430:262|440:211,1,62.9999980773926,2|0,0:0|1:2,0:0:0:0:
420,102,84024,1,2,0:0:0:0:
402,81,84141,1,0,0:0:0:0:
356,79,84259,1,2,0:0:0:0:
307,137,84376,2,0,P|252:146|234:79,1,125.999996154785,10|2,1:2|0:0,0:0:0:0:
251,14,84727,1,2,0:0:0:0:
170,28,84845,5,2,1:2:0:0:
177,10,84962,1,0,0:0:0:0:
170,28,85079,1,2,1:2:0:0:
300,273,85313,5,4,1:2:0:0:
307,291,85430,1,0,0:0:0:0:
300,273,85547,1,2,0:0:0:0:
170,28,85782,5,2,1:2:0:0:
170,28,86016,1,0,1:2:0:0:
300,273,86251,5,4,1:2:0:0:
61,168,86485,5,2,0:0:0:0:
88,191,86602,1,2,0:0:0:0:
92,209,86720,1,2,1:2:0:0:
47,216,86837,1,0,0:0:0:0:
10,250,86954,1,2,0:0:0:0:
14,308,87071,1,0,0:0:0:0:
84,334,87188,2,0,P|120:290|180:311,1,125.999996154785,10|2,1:2|0:0,0:0:0:0:
317,249,87540,6,0,P|309:212|288:171,1,62.9999980773926,2|0,0:0|1:2,0:0:0:0:
153,105,87774,1,2,0:0:0:0:
137,73,87891,1,0,0:0:0:0:
159,23,88009,1,2,0:0:0:0:
237,28,88126,2,0,P|248:93|208:147,1,125.999996154785,10|2,1:2|0:0,0:0:0:0:
148,177,88477,1,2,0:0:0:0:
209,237,88595,5,2,1:2:0:0:
278,208,88712,1,10,1:2:0:0:
316,235,88829,1,2,1:2:0:0:
287,253,88946,1,8,1:2:0:0:
224,308,89063,5,2,1:2:0:0:
247,341,89180,1,10,1:2:0:0:
275,345,89298,1,2,1:2:0:0:
294,337,89415,1,8,1:2:0:0:
344,358,89532,5,2,1:2:0:0:
344,358,89649,1,0,1:2:0:0:
385,318,89766,2,0,L|448:346,2,62.9999980773926,8|8|0,1:2|1:2|1:2,0:0:0:0:
153,221,90235,1,8,1:2:0:0:
153,221,90470,5,6,1:2:0:0:
150,188,90587,1,0,0:0:0:0:
125,167,90704,1,2,0:0:0:0:
92,169,90821,1,0,0:0:0:0:
68,191,90938,2,0,P|34:138|56:64,1,107.999996704102,10|0,0:0|0:0,0:0:0:0:
63,70,91290,1,2,0:0:0:0:
251,305,91524,1,2,0:0:0:0:
282,314,91641,1,0,0:0:0:0:
312,302,91758,1,2,0:0:0:0:
330,276,91876,2,0,P|306:220|260:229,1,107.999996704102,10|0,0:0|0:0,0:0:0:0:
197,262,92227,1,2,0:0:0:0:
172,181,92345,5,2,0:0:0:0:
172,181,92462,1,0,0:0:0:0:
198,164,92579,1,2,0:0:0:0:
279,15,92813,5,8,0:0:0:0:
279,15,92930,1,0,0:0:0:0:
305,32,93047,1,2,0:0:0:0:
432,185,93282,6,0,B|399:159|394:124|394:124|449:114|469:76|469:76|459:52|452:17,1,215.999993408203,2|8,0:0|0:0,0:0:0:0:
170,19,93985,5,2,0:0:0:0:
140,33,94102,1,2,0:0:0:0:
121,61,94220,1,2,0:0:0:0:
153,58,94337,1,0,0:0:0:0:
183,69,94454,1,2,0:0:0:0:
210,86,94571,1,0,0:0:0:0:
224,114,94688,2,0,P|185:159|210:228,1,107.999996704102,10|0,0:0|0:0,0:0:0:0:
205,229,95040,1,2,0:0:0:0:
465,338,95274,1,2,0:0:0:0:
480,309,95391,1,0,0:0:0:0:
466,279,95508,1,2,0:0:0:0:
433,274,95626,2,0,P|384:321|313:332,1,107.999996704102,10|0,0:0|0:0,0:0:0:0:
278,299,95977,1,2,0:0:0:0:
214,354,96095,5,6,1:2:0:0:
179,304,96212,1,2,1:2:0:0:
131,303,96329,1,2,1:2:0:0:
107,323,96446,1,0,0:0:0:0:
37,300,96563,5,6,1:2:0:0:
37,300,96680,1,2,1:2:0:0:
69,264,96798,5,2,1:2:0:0:
69,264,96915,1,0,0:0:0:0:
28,216,97032,6,0,L|6:144,2,62.9999980773926,2|0|0,1:2|1:0|1:0,0:0:0:0:
28,216,97501,2,0,B|63:88|63:88|94:154,1,188.999994232178,4|0,1:0|0:0,0:0:0:0:
171,122,97970,6,0,P|244:108|314:48,1,161.999995056153,2|0,1:2|0:0,0:0:0:0:
492,172,98907,6,0,P|418:175|349:246,1,161.999995056153,2|0,1:2|0:0,0:0:0:0:
128,263,99845,6,0,P|198:247|260:325,1,161.999995056153,2|0,1:2|0:0,0:0:0:0:
386,86,100782,6,0,P|452:113|474:14,1,188.999994232178,2|0,1:2|0:0,0:0:0:0:
385,0,101720,6,0,P|350:18|297:36,1,72,6|0,1:2|1:0,0:0:0:0:
94,96,102188,1,0,3:0:0:0:
94,96,102305,1,0,3:0:0:0:
53,78,102423,1,0,3:0:0:0:
72,127,102540,1,0,3:0:0:0:
43,196,102657,6,0,P|56:232|74:260,1,72,6|0,1:2|1:0,0:0:0:0:
278,344,103126,1,0,3:0:0:0:
278,344,103243,1,0,3:0:0:0:
301,301,103360,1,0,3:0:0:0:
349,300,103477,1,0,3:0:0:0:
414,257,103595,5,6,1:2:0:0:
414,257,103712,1,0,0:0:0:0:
476,314,103829,2,0,L|456:367,1,45,0|0,1:0|0:0,0:0:0:0:
410,209,104063,5,4,0:0:0:0:
410,209,104180,1,0,0:0:0:0:
496,208,104297,2,0,L|517:261,1,45,0|0,3:0|3:0,0:0:0:0:
370,180,104532,5,4,1:2:0:0:
370,180,104649,1,0,0:0:0:0:
393,150,104766,5,0,3:0:0:0:
415,156,104884,1,0,3:0:0:0:
456,132,105001,5,4,1:2:0:0:
439,85,105118,1,0,3:0:0:0:
390,58,105235,1,4,1:2:0:0:
332,67,105352,1,4,1:2:0:0:
268,31,105470,5,4,1:0:0:0:
308,187,112970,5,2,0:0:0:0:
202,312,120470,5,4,1:0:0:0:
184,328,120587,1,0,0:0:0:0:
156,337,120704,1,0,0:0:0:0:
114,334,120821,1,0,0:0:0:0:
75,313,120938,1,0,1:0:0:0:
85,60,121173,1,0,0:0:0:0:
48,83,121290,1,0,0:0:0:0:
88,109,121407,5,0,1:0:0:0:
70,133,121524,1,0,0:0:0:0:
60,171,121641,1,0,0:0:0:0:
105,177,121759,1,0,0:0:0:0:
139,209,121876,1,0,1:0:0:0:
246,41,122110,1,0,0:0:0:0:
265,83,122227,1,0,0:0:0:0:
289,60,122345,6,0,L|277:125,1,45,0|0,1:0|0:0,0:0:0:0:
169,156,122579,2,0,L|157:221,1,45
307,36,122813,2,0,L|295:101,1,45,0|0,1:0|0:0,0:0:0:0:
187,132,123047,2,0,L|175:197,1,45
333,22,123282,2,0,L|394:201,1,180,0|2,1:0|0:3,0:0:0:0:
391,192,124220,5,0,1:0:0:0:
410,180,124337,1,0,0:0:0:0:
446,183,124454,1,0,0:0:0:0:
478,209,124571,1,0,0:0:0:0:
491,258,124688,1,0,1:0:0:0:
263,356,124923,1,0,0:0:0:0:
306,329,125040,1,0,0:0:0:0:
258,320,125157,5,0,1:0:0:0:
270,297,125274,1,0,0:0:0:0:
275,260,125391,1,0,0:0:0:0:
225,283,125509,1,0,0:0:0:0:
173,268,125626,1,0,1:0:0:0:
396,62,125860,1,0,0:0:0:0:
350,81,125977,1,0,0:0:0:0:
402,116,126095,5,0,1:0:0:0:
402,116,126212,2,0,L|375:191,2,62.9999980773926
295,42,126563,2,0,L|334:112,2,58.4999973220826,0|0|0,1:0|0:0|0:0,0:0:0:0:
295,42,126915,1,0,0:0:0:0:
367,161,127032,2,0,L|201:114,1,135,0|0,1:0|0:0,0:0:0:0:
237,124,127501,1,2,0:3:0:0:
39,235,127970,5,0,1:0:0:0:
24,254,128087,1,0,0:0:0:0:
60,269,128204,1,0,1:0:0:0:
100,305,128321,1,0,0:0:0:0:
131,349,128438,2,0,B|178:337|178:337|230:372,1,99.0000030212403,0|0,1:0|1:0,0:0:0:0:
267,241,128790,5,0,0:0:0:0:
282,228,128907,1,0,1:0:0:0:
275,182,129024,1,0,0:0:0:0:
232,152,129141,1,0,1:0:0:0:
175,156,129259,1,0,0:0:0:0:
124,122,129376,2,0,B|77:134|77:134|25:99,1,99.0000030212403,0|0,1:0|1:0,0:0:0:0:
19,22,129727,1,0,0:0:0:0:
106,38,129845,6,0,L|170:18,1,49.5000015106202,0|0,1:0|0:0,0:0:0:0:
237,119,130079,2,0,L|301:99,1,49.5000015106202,0|0,1:0|0:0,0:0:0:0:
144,53,130313,2,0,L|208:33,1,49.5000015106202,0|0,1:0|0:0,0:0:0:0:
275,134,130547,2,0,L|339:114,1,49.5000015106202,0|0,1:0|0:0,0:0:0:0:
432,32,130782,2,0,P|480:60|486:146,2,125.999996154785,0|0|2,1:0|1:0|0:3,0:0:0:0:
398,230,131485,5,0,1:0:0:0:
398,230,131602,1,0,0:0:0:0:
420,184,131720,5,0,0:0:0:0:
406,160,131837,1,0,0:0:0:0:
362,146,131954,1,0,0:0:0:0:
327,176,132071,1,0,0:0:0:0:
279,184,132188,2,0,L|228:164,1,49.5000015106202,0|0,0:0|2:0,2:2:0:0:
105,279,132423,1,0,0:0:0:0:
139,304,132540,1,0,0:0:0:0:
138,323,132657,5,0,0:0:0:0:
101,302,132774,1,0,0:0:0:0:
49,309,132891,1,0,1:0:0:0:
21,351,133009,1,0,0:0:0:0:
0,301,133126,2,0,L|21:236,1,49.5000015106202,0|0,1:0|0:0,0:0:0:0:
155,47,133360,1,0,0:0:0:0:
114,7,133477,1,0,0:0:0:0:
102,62,133595,5,4,1:2:0:0:
206,179,133751,1,4,1:2:0:0:
260,40,133907,1,4,1:2:0:0:
115,160,134063,5,4,1:2:0:0:
105,316,134219,1,4,1:2:0:0:
242,256,134375,1,4,1:2:0:0:
387,172,134532,6,0,B|329:201|250:52|353:12|382:11|396:53|373:76|341:58,1,251.999992309571,4|4,1:2|3:0,0:0:0:0:
346,60,135470,6,0,P|334:128|323:226,1,153.000002918243,4|0,1:0|0:0,0:0:0:0:
360,238,135821,1,0,0:0:0:0:
400,306,135938,1,8,1:2:0:0:
365,332,136055,1,0,0:0:0:0:
326,319,136173,2,0,P|301:353|284:384,1,76.5000014591217,2|0,0:0|0:0,0:0:0:0:
131,248,136407,2,0,P|60:209|86:134,1,153.000002918243,2|0,1:2|0:0,0:0:0:0:
98,142,136759,1,0,0:0:0:0:
58,69,136876,1,8,1:2:0:0:
308,44,137110,6,0,P|269:52|212:69,1,76.5000014591217,2|0,1:2|0:0,0:0:0:0:
207,203,137345,2,0,P|239:226|289:257,1,76.5000014591217,2|0,1:2|0:0,0:0:0:0:
372,359,137579,1,0,0:0:0:0:
423,292,137696,2,0,P|455:271|485:248,1,76.5000014591217,2|8,0:0|0:0,0:0:0:0:
417,24,137931,1,0,0:0:0:0:
451,21,138048,1,0,0:0:0:0:
478,42,138165,1,0,0:0:0:0:
424,98,138282,2,0,P|399:126|280:101,1,153.000002918243,2|0,1:2|0:0,0:0:0:0:
179,242,138634,1,2,1:2:0:0:
152,226,138751,2,0,P|106:235|90:281,1,76.5000014591217,8|0,0:0|0:0,0:0:0:0:
289,311,138985,6,0,P|277:265|252:214,1,85.4999977169037,2|0,1:2|1:0,0:0:0:0:
79,156,139220,2,0,B|-12:118|15:18|15:18|87:11|125:58|125:58|156:37|186:2,1,341.999990867615,2|8,1:2|1:2,0:0:0:0:
427,153,139923,6,0,P|385:128|332:110,1,85.4999977169037,2|0,0:0|0:0,0:0:0:0:
106,177,140157,2,0,B|78:212|27:238|27:238|106:232|161:274|161:274|135:322|75:345,1,341.999990867615,2|8,1:2|1:2,0:0:0:0:
400,221,140860,5,2,1:2:0:0:
337,260,140977,1,2,0:0:0:0:
371,297,141095,2,0,L|287:274,1,76.5000014591217,2|0,1:2|0:0,0:0:0:0:
437,151,141329,1,0,0:0:0:0:
437,185,141446,2,0,L|521:162,1,76.5000014591217,2|8,0:0|0:0,0:0:0:0:
369,42,141680,1,0,0:0:0:0:
393,66,141797,2,0,L|436:-9,1,76.5000014591217,2|0,0:0|0:0,0:0:0:0:
257,176,142032,5,6,1:2:0:0:
264,137,142149,1,0,0:0:0:0:
226,101,142266,1,2,0:0:0:0:
233,53,142384,1,0,1:0:0:0:
180,69,142501,1,6,1:2:0:0:
329,13,142735,5,0,0:0:0:0:
34,104,142970,6,0,P|81:13|124:66,1,153.000002918243,6|0,1:2|0:0,0:0:0:0:
114,44,143321,1,0,0:0:0:0:
158,112,143438,1,8,1:2:0:0:
139,149,143555,1,0,0:0:0:0:
160,187,143673,2,0,P|201:198|251:208,1,76.5000014591217,2|0,0:0|0:0,0:0:0:0:
4,252,143907,2,0,P|46:322|119:290,1,153.000002918243,2|0,1:2|0:0,0:0:0:0:
121,279,144259,1,0,0:0:0:0:
191,326,144376,1,8,1:2:0:0:
314,139,144610,6,0,P|328:174|338:230,1,76.5000014591217,2|0,1:2|0:0,0:0:0:0:
462,273,144845,2,0,P|447:307|414:354,1,76.5000014591217,2|0,1:2|0:0,0:0:0:0:
281,115,145079,1,0,0:0:0:0:
214,163,145196,2,0,P|176:154|141:140,1,76.5000014591217,2|8,0:0|0:0,0:0:0:0:
432,89,145431,1,0,0:0:0:0:
461,65,145548,1,0,0:0:0:0:
461,26,145665,1,0,0:0:0:0:
378,34,145782,2,0,P|346:103|401:168,1,153.000002918243,2|0,1:2|0:0,0:0:0:0:
328,299,146134,1,2,1:2:0:0:
352,322,146251,2,0,P|393:336|450:338,1,76.5000014591217,8|0,0:0|0:0,0:0:0:0:
272,127,146485,6,0,P|262:171|242:233,1,85.4999977169037,2|0,1:2|1:0,0:0:0:0:
46,360,146720,2,0,B|102:352|130:277|130:277|62:263|18:204|18:204|59:205|111:197,1,341.999990867615,2|8,1:2|1:2,0:0:0:0:
321,7,147423,6,0,P|283:27|247:50,1,85.4999977169037,2|0,0:0|0:0,0:0:0:0:
113,180,147657,2,0,B|159:164|191:136|191:136|115:130|53:88|53:88|79:40|158:31,1,341.999990867615,2|8,1:2|1:2,0:0:0:0:
364,18,148360,5,2,1:2:0:0:
422,80,148477,1,2,0:0:0:0:
397,126,148595,5,2,1:2:0:0:
393,139,148712,1,0,0:0:0:0:
389,151,148829,1,0,1:0:0:0:
431,190,148946,5,2,0:0:0:0:
436,202,149063,1,8,1:2:0:0:
442,215,149180,1,0,0:0:0:0:
412,248,149298,5,2,1:2:0:0:
460,263,149415,1,0,0:0:0:0:
412,316,149532,5,6,1:2:0:0:
463,301,149649,1,0,1:0:0:0:
486,347,149766,1,2,1:2:0:0:
444,346,149884,1,0,0:0:0:0:
377,303,150001,2,0,B|329:353|329:353|263:326|263:326|272:364,1,170.999995433807,6|0,1:2|0:0,0:0:0:0:
140,172,150470,5,4,1:0:0:0:
124,193,150587,1,0,0:0:0:0:
135,235,150704,1,2,0:0:0:0:
191,248,150821,1,0,0:0:0:0:
222,175,150938,2,0,B|221:150|209:120|209:120|240:81|261:31,1,153.000002918243,10|2,1:2|0:0,0:0:0:0:
342,17,151290,1,2,0:0:0:0:
397,88,151407,5,0,1:2:0:0:
382,104,151524,1,2,0:0:0:0:
328,110,151641,1,0,0:0:0:0:
309,163,151759,1,2,0:0:0:0:
355,232,151876,2,0,B|344:257|338:288|338:288|311:328|255:345,1,153.000002918243,10|2,1:2|0:0,0:0:0:0:
191,308,152227,1,2,0:0:0:0:
109,339,152345,5,2,1:2:0:0:
93,361,152462,1,0,0:0:0:0:
77,291,152579,1,2,1:2:0:0:
59,273,152696,1,0,0:0:0:0:
92,211,152813,5,4,1:2:0:0:
97,236,152930,1,0,0:0:0:0:
34,201,153047,1,2,0:0:0:0:
8,203,153164,1,0,0:0:0:0:
56,135,153282,6,0,P|167:157|204:214,1,153.000002918243,2|0,1:2|0:0,0:0:0:0:
262,155,153634,1,0,0:0:0:0:
236,246,153751,1,4,1:2:0:0:
385,120,153985,5,2,0:0:0:0:
432,142,154102,1,2,0:0:0:0:
455,127,154220,1,2,1:2:0:0:
422,113,154337,1,0,0:0:0:0:
392,78,154454,1,2,0:0:0:0:
385,22,154571,1,0,0:0:0:0:
461,0,154688,2,0,B|471:36|469:71|469:71|439:106|428:159,1,153.000002918243,10|2,1:2|0:0,0:0:0:0:
445,232,155040,1,2,0:0:0:0:
360,255,155157,5,0,1:2:0:0:
335,264,155274,1,2,0:0:0:0:
318,305,155391,1,0,0:0:0:0:
356,356,155509,1,2,0:0:0:0:
423,319,155626,2,0,B|395:270|395:210|395:210|372:247,1,153.000002918243,10|2,1:2|0:0,0:0:0:0:
304,298,155977,1,2,0:0:0:0:
237,253,156095,5,2,1:2:0:0:
205,180,156212,1,10,1:2:0:0:
164,160,156329,1,2,1:2:0:0:
170,192,156446,1,8,1:2:0:0:
102,230,156563,5,2,1:2:0:0:
71,266,156680,1,10,1:2:0:0:
36,262,156798,1,2,1:2:0:0:
18,245,156915,1,8,1:2:0:0:
3,303,157032,5,2,1:2:0:0:
3,303,157149,1,0,1:2:0:0:
56,305,157266,2,0,L|105:377,2,76.5000014591217,8|8|0,1:2|1:2|1:2,0:0:0:0:
0,183,157735,1,8,1:2:0:0:
246,170,157970,5,6,1:2:0:0:
275,183,158087,1,0,0:0:0:0:
307,182,158204,1,2,0:0:0:0:
332,162,158321,1,0,0:0:0:0:
341,131,158438,2,0,P|333:75|286:42,1,107.999996704102,10|0,0:0|0:0,0:0:0:0:
265,39,158790,1,2,0:0:0:0:
23,63,159024,5,2,0:0:0:0:
47,41,159141,1,0,0:0:0:0:
79,35,159259,1,2,0:0:0:0:
110,42,159376,2,0,P|119:101|142:148,1,107.999996704102,10|0,0:0|0:0,0:0:0:0:
217,167,159727,1,2,0:0:0:0:
190,250,159845,5,2,0:0:0:0:
178,273,159962,1,0,0:0:0:0:
208,256,160079,1,2,0:0:0:0:
383,313,160313,5,8,0:0:0:0:
395,336,160430,1,0,0:0:0:0:
365,319,160547,1,2,0:0:0:0:
321,111,160782,2,0,B|305:80|275:67|275:67|269:151|352:185,1,215.999993408203,2|8,0:0|0:0,0:0:0:0:
191,314,161485,5,2,0:0:0:0:
163,330,161602,1,2,0:0:0:0:
131,337,161720,1,2,0:0:0:0:
141,306,161837,1,0,0:0:0:0:
141,273,161954,1,2,0:0:0:0:
132,241,162071,1,0,0:0:0:0:
112,214,162188,2,0,P|76:180|95:103,1,107.999996704102,10|0,0:0|0:0,0:0:0:0:
102,100,162540,1,2,0:0:0:0:
385,20,162774,5,2,0:0:0:0:
390,51,162891,1,0,0:0:0:0:
406,78,163009,1,2,0:0:0:0:
429,100,163126,2,0,P|459:50|504:91,1,107.999996704102,10|0,0:0|0:0,0:0:0:0:
487,154,163477,1,2,0:0:0:0:
426,217,163595,5,6,1:2:0:0:
383,188,163712,1,2,1:2:0:0:
343,191,163829,1,2,1:2:0:0:
325,208,163946,1,0,0:0:0:0:
260,165,164063,5,6,1:2:0:0:
255,179,164180,1,2,1:2:0:0:
217,143,164298,5,2,1:2:0:0:
222,157,164415,1,0,0:0:0:0:
164,200,164532,5,2,1:2:0:0:
133,151,164649,2,0,L|157:73,2,62.9999980773926,0|0|0,1:0|1:0|1:2,0:0:0:0:
71,338,165001,1,4,1:0:0:0:
151,90,165235,1,0,1:2:0:0:
401,142,165470,6,0,P|403:89|332:-7,1,161.999995056153,2|0,1:2|0:0,0:0:0:0:
200,195,166407,6,0,P|190:247|261:343,1,161.999995056153,2|0,1:2|0:0,0:0:0:0:
385,168,167345,6,0,P|462:172|501:250,1,161.999995056153,2|0,1:2|0:0,0:0:0:0:
254,125,168282,6,0,P|175:125|179:33,1,188.999994232178,2|0,1:2|0:0,0:0:0:0:
66,0,169220,6,0,P|73:42|86:91,1,72,6|0,1:2|1:0,0:0:0:0:
46,263,169688,1,0,3:0:0:0:
46,263,169805,1,0,3:0:0:0:
35,225,169923,1,0,3:0:0:0:
76,249,170040,1,0,3:0:0:0:
96,321,170157,6,0,P|134:335|182:349,1,72,6|0,1:2|1:0,0:0:0:0:
327,179,170626,1,0,3:0:0:0:
327,179,170743,1,0,3:0:0:0:
290,160,170860,1,0,3:0:0:0:
287,116,170977,1,0,3:0:0:0:
212,72,171095,5,6,1:2:0:0:
212,72,171212,1,0,0:0:0:0:
286,84,171329,2,0,L|335:58,1,45,0|0,1:0|0:0,0:0:0:0:
173,79,171563,5,4,0:0:0:0:
173,79,171680,1,0,0:0:0:0:
233,34,171797,2,0,L|249:-19,1,45,0|0,3:0|3:0,0:0:0:0:
155,112,172032,5,4,1:2:0:0:
155,112,172149,1,0,0:0:0:0:
158,81,172266,5,0,3:0:0:0:
144,60,172384,1,0,3:0:0:0:
95,59,172501,5,4,1:2:0:0:
93,99,172618,1,0,3:0:0:0:
116,145,172735,1,4,1:2:0:0:
92,196,172852,1,4,1:2:0:0:
19,209,172970,5,4,1:0:0:0:
264,283,173204,1,2,0:0:0:0:
273,314,173321,1,0,0:0:0:0:
258,342,173438,1,8,1:2:0:0:
200,336,173555,1,0,0:0:0:0:
182,289,173673,1,0,0:0:0:0:
353,78,173907,5,2,1:2:0:0:
353,78,174141,2,0,L|279:104,1,62.9999980773926,2|0,0:3|0:0,0:0:0:0:
142,152,174376,1,8,1:2:0:0:
158,18,174610,6,0,L|198:78,1,62.9999980773926,2|0,0:3|0:0,0:0:0:0:
265,242,174845,2,0,L|388:282,1,107.999996704102,2|0,1:2|0:0,0:0:0:0:
201,346,175196,2,0,L|271:328,1,53.9999983520508,2|8,0:0|1:2,0:0:0:0:
476,214,175430,1,0,0:0:0:0:
495,254,175548,1,0,0:0:0:0:
481,280,175665,1,0,0:0:0:0:
438,289,175782,2,0,L|351:192,1,107.999996704102,2|0,1:3|0:0,0:0:0:0:
317,82,176134,1,2,0:3:0:0:
291,99,176251,2,0,P|273:132|256:174,1,53.9999983520508,8|0,1:2|0:0,0:0:0:0:
44,190,176485,6,0,L|126:219,1,62.9999980773926,2|0,1:3|0:0,0:0:0:0:
259,269,176720,1,2,1:2:0:0:
264,368,176954,6,0,P|286:337|278:273,1,90,2|0,0:1|0:0,0:0:0:0:
221,47,177188,1,8,1:2:0:0:
221,47,177423,2,0,L|191:128,1,62.9999980773926,2|0,0:3|0:0,0:0:0:0:
119,309,177657,1,2,1:2:0:0:
19,314,177891,6,0,P|49:291|113:299,1,76.5000014591217,2|0,0:1|0:0,0:0:0:0:
350,336,178126,1,8,1:2:0:0:
350,336,178360,5,0,0:0:0:0:
417,297,178477,1,0,0:0:0:0:
372,288,178595,2,0,L|340:145,1,125.999996154785,2|0,1:3|0:0,0:0:0:0:
249,134,178946,1,2,0:3:0:0:
257,105,179063,2,0,L|307:52,1,62.9999980773926,8|0,1:2|0:0,0:0:0:0:
145,45,179298,2,0,L|213:22,1,62.9999980773926,2|0,0:3|0:0,0:0:0:0:
461,64,179532,5,6,1:2:0:0:
460,21,179649,1,0,0:0:0:0:
428,49,179766,1,2,0:0:0:0:
453,99,179884,1,0,1:2:0:0:
436,149,180001,1,14,1:2:0:0:
435,331,180235,6,0,P|397:317|346:286,1,80.9999975280763,2|0,0:3|0:0,0:0:0:0:
197,101,180470,1,4,1:2:0:0:
197,101,180704,1,2,0:0:0:0:
225,94,180821,1,0,0:0:0:0:
247,64,180938,1,8,1:2:0:0:
199,55,181055,1,0,0:0:0:0:
168,19,181173,1,0,0:0:0:0:
55,219,181407,5,2,1:2:0:0:
55,219,181641,2,0,L|29:153,1,62.9999980773926,2|0,0:3|0:0,0:0:0:0:
0,45,181876,1,8,1:2:0:0:
256,29,182110,2,0,L|198:54,1,62.9999980773926,2|0,0:3|0:0,0:0:0:0:
130,173,182345,2,0,L|102:279,1,107.999996704102,2|0,1:2|0:0,0:0:0:0:
13,314,182696,2,0,L|33:379,1,53.9999983520508,2|8,0:0|1:2,0:0:0:0:
229,259,182930,1,0,0:0:0:0:
266,285,183047,1,0,0:0:0:0:
290,275,183164,1,0,0:0:0:0:
310,237,183282,2,0,L|249:134,1,107.999996704102,2|0,1:3|0:0,0:0:0:0:
312,90,183634,1,2,0:3:0:0:
346,79,183751,2,0,L|380:26,1,53.9999983520508,8|0,1:2|0:0,0:0:0:0:
479,146,183985,6,0,L|405:158,1,62.9999980773926,2|0,1:3|0:0,0:0:0:0:
145,198,184220,1,2,1:2:0:0:
90,135,184454,6,0,P|91:188|129:224,1,90,2|0,0:1|0:0,0:0:0:0:
270,338,184688,1,8,1:2:0:0:
270,338,184923,2,0,L|288:226,1,62.9999980773926,2|0,0:3|0:0,0:0:0:0:
302,78,185157,1,2,1:2:0:0:
348,8,185391,6,0,P|347:61|309:97,1,76.5000014591217,2|0,0:1|0:0,0:0:0:0:
90,135,185626,1,8,1:2:0:0:
90,135,185860,5,0,0:0:0:0:
28,84,185977,1,0,0:0:0:0:
82,91,186095,2,0,P|181:69|200:17,1,153.000002918243,6|0,1:2|1:2,0:0:0:0:
313,122,186446,1,2,0:0:0:0:
317,93,186563,2,0,P|308:51|289:6,1,76.5000014591217,8|0,1:2|0:0,0:0:0:0:
429,246,186798,1,2,1:2:0:0:
435,231,186915,1,0,0:0:0:0:
409,186,187032,5,6,1:2:0:0:
371,208,187149,1,0,1:2:0:0:
335,250,187266,1,2,1:2:0:0:
295,231,187384,1,0,1:2:0:0:
230,262,187501,6,0,P|252:194|142:130,1,215.999993408203,10|4,1:3|0:1,0:0:0:0:
