osu file format v14

[General]
AudioFilename: audio.mp3
AudioLeadIn: 0
PreviewTime: 30454
Countdown: 0
SampleSet: Soft
StackLeniency: 0.7
Mode: 0
LetterboxInBreaks: 0
WidescreenStoryboard: 1

[Editor]
Bookmarks: 30482,37982,52982,67982,82982,97982,105482,120482,135482,150482,165482,172982,187982
DistanceSpacing: 0.8
BeatDivisor: 8
GridSize: 32
TimelineZoom: 2.4

[Metadata]
Title:Moriya set 04 ReEdit ~ Unmei no Dark Side
TitleUnicode:Moriya set 04 ReEdit 〜 運命のダークサイド
Artist:Rin
ArtistUnicode:凛
Creator:Halfslashed
Version:captin's Extra
Source:東方風神録 ~ Mountain of Faith.
Tags:th10 東方project touhou project fuujinroku mof 鍵山 雛 hina kagiyama fate daku saido featured artist kuroneko lounge house set captin1 yaspo cocona electronic instrumental
BeatmapID:3941991
BeatmapSetID:1374578

[Difficulty]
HPDrainRate:4
CircleSize:4.5
OverallDifficulty:8.5
ApproachRate:9.3
SliderMultiplier:1.6
SliderTickRate:1

[Events]
//Background and Video events
0,0,"db4zwqs-09446c1b-4cb7-4041-b546-48c69c1ec004.png",0,0
//Break Periods
2,105787,112416
2,113287,119916
//Storyboard Layer 0 (Background)
//Storyboard Layer 1 (Fail)
//Storyboard Layer 2 (Pass)
//Storyboard Layer 3 (Foreground)
//Storyboard Layer 4 (Overlay)
//Storyboard Sound Samples

[TimingPoints]
470,468.75,4,2,1,50,1,0
30470,-133.333333333333,4,2,1,50,0,0
31290,-133.333333333333,4,2,1,5,0,0
31407,-133.333333333333,4,2,1,50,0,0
32227,-133.333333333333,4,2,1,5,0,0
32344,-133.333333333333,4,2,1,50,0,0
33165,-133.333333333333,4,2,1,5,0,0
33282,-133.333333333333,4,2,1,50,0,0
34102,-133.333333333333,4,2,1,5,0,0
34220,-133.333333333333,4,2,1,60,0,0
36095,-66.6666666666667,4,2,1,70,0,0
37970,-100,4,2,1,50,0,0
39141,-50,4,2,1,50,0,0
39376,-200,4,2,1,50,0,0
39610,-100,4,2,1,50,0,0
41954,-40,4,2,1,50,0,0
42188,-100,4,2,1,50,0,0
42891,-50,4,2,1,50,0,0
43595,-100,4,2,1,50,0,0
45235,-50,4,2,1,50,0,0
45470,-100,4,2,1,50,0,0
46641,-50,4,2,1,50,0,0
46876,-200,4,2,1,50,0,0
47110,-100,4,2,1,50,0,0
49454,-40,4,2,1,50,0,0
49688,-100,4,2,1,50,0,0
50391,-50,4,2,1,50,0,0
51095,-100,4,2,1,50,0,0
52970,-100,4,2,1,50,0,0
56251,-50,4,2,1,50,0,0
56720,-100,4,2,1,50,0,0
60001,-50,4,2,1,50,0,0
60470,-100,4,2,1,50,0,0
63751,-50,4,2,1,50,0,0
64220,-100,4,2,1,50,0,0
67032,-100,4,2,0,50,0,0
67501,-40,4,2,0,50,0,0
67970,-50,4,2,1,60,0,1
68204,-50,4,2,1,60,0,0
70782,-50,4,2,1,60,0,0
71134,-40,4,2,1,60,0,0
71720,-33.3333333333333,4,2,1,60,0,0
72657,-40,4,2,1,60,0,0
73595,-66.6666666666667,4,2,1,60,0,0
75470,-50,4,2,1,60,0,1
75704,-50,4,2,1,60,0,0
78282,-50,4,2,1,60,0,0
78634,-40,4,2,1,60,0,0
79220,-33.3333333333333,4,2,1,60,0,0
80157,-40,4,2,1,60,0,0
81095,-66.6666666666667,4,2,1,60,0,0
82970,-66.6666666666667,4,2,1,60,0,1
83204,-66.6666666666667,4,2,1,60,0,0
85079,-50,4,2,1,60,0,1
85313,-50,4,2,1,60,0,0
85548,-50,4,2,1,60,0,1
85782,-50,4,2,1,60,0,0
86720,-66.6666666666667,4,2,1,60,0,0
88595,-66.6666666666667,4,2,1,60,0,1
89532,-66.6666666666667,4,2,1,60,0,0
90470,-100,4,2,1,50,0,1
90938,-100,4,2,1,50,0,0
92579,-66.6666666666667,4,2,1,50,0,0
93282,-100,4,2,1,50,0,0
96095,-100,4,2,1,60,0,0
97032,-100,4,2,0,60,0,0
97501,-40,4,2,0,60,0,0
97970,-133.333333333333,4,2,1,50,0,0
98790,-133.333333333333,4,2,1,5,0,0
98907,-133.333333333333,4,2,1,50,0,0
99727,-133.333333333333,4,2,1,5,0,0
99844,-133.333333333333,4,2,1,50,0,0
100665,-133.333333333333,4,2,1,5,0,0
100782,-133.333333333333,4,2,1,50,0,0
101602,-133.333333333333,4,2,1,5,0,0
101720,-133.333333333333,4,2,1,60,0,0
103595,-66.6666666666667,4,2,1,70,0,0
105470,-133.333333333333,4,2,1,40,0,0
112970,-133.333333333333,4,2,1,30,0,0
120470,-100,4,2,0,40,0,0
126212,-100,4,2,0,40,0,0
126563,-200,4,2,0,40,0,0
127501,-40,4,2,0,40,0,0
127970,-83.3333333333333,4,2,0,50,0,0
130782,-50,4,2,0,50,0,0
131720,-66.6666666666667,4,1,0,50,0,0
132891,-50,4,2,0,50,0,0
133126,-25,4,2,0,50,0,0
133595,-40,4,2,1,80,0,0
135001,-200,4,2,1,50,0,0
135470,-40,4,2,1,80,0,1
139220,-28.5714285714286,4,2,1,80,0,1
140157,-33.3333333333333,4,2,1,80,0,1
141095,-50,4,2,1,80,0,1
142970,-40,4,2,1,80,0,1
146720,-28.5714285714286,4,2,1,80,0,1
147657,-33.3333333333333,4,2,1,80,0,1
148595,-50,4,2,1,80,0,1
150001,-50,4,2,1,80,0,0
150470,-100,4,2,1,80,0,1
151876,-66.6666666666667,4,2,1,80,0,1
153282,-40,4,2,1,80,0,1
154220,-100,4,2,1,80,0,1
155626,-66.6666666666667,4,2,1,80,0,1
157032,-40,4,2,1,80,0,0
157970,-100,4,2,1,60,0,1
158438,-100,4,2,1,60,0,0
160079,-50,4,2,1,60,0,0
160782,-66.6666666666667,4,2,1,60,0,0
163595,-100,4,2,1,80,0,0
164532,-100,4,2,0,80,0,0
165001,-40,4,2,0,80,0,0
165470,-133.333333333333,4,2,1,50,0,0
166290,-133.333333333333,4,2,1,5,0,0
166407,-133.333333333333,4,2,1,50,0,0
167227,-133.333333333333,4,2,1,5,0,0
167344,-133.333333333333,4,2,1,50,0,0
168165,-133.333333333333,4,2,1,5,0,0
168282,-133.333333333333,4,2,1,50,0,0
169102,-133.333333333333,4,2,1,5,0,0
169220,-133.333333333333,4,2,1,55,0,0
171095,-66.6666666666667,4,2,1,60,0,0
172970,-100,4,2,1,50,0,0
174141,-50,4,2,1,50,0,0
174376,-200,4,2,1,50,0,0
174610,-100,4,2,1,50,0,0
176954,-40,4,2,1,50,0,0
177188,-100,4,2,1,50,0,0
177891,-50,4,2,1,50,0,0
178595,-100,4,2,1,50,0,0
180235,-50,4,2,1,50,0,0
180470,-100,4,2,1,50,0,0
181641,-50,4,2,1,50,0,0
181876,-200,4,2,1,50,0,0
182110,-100,4,2,1,50,0,0
184454,-40,4,2,1,50,0,0
184688,-100,4,2,1,50,0,0
185391,-50,4,2,1,50,0,0
186095,-100,4,2,1,50,0,0
187970,-100,4,2,1,50,0,0

[Colours]
Combo1 : 223,223,223
Combo2 : 199,3,3
Combo3 : 6,236,224
Combo4 : 236,74,79

[HitObjects]
37,313,30470,6,0,L|66:306,1,30.0000011444092,2|0,1:2|0:0,0:0:0:0:
109,237,30704,2,0,L|264:267,1,150.000005722046,0|0,1:0|0:0,0:0:0:0:
501,246,31407,6,0,L|472:239,1,30.0000011444092,2|0,1:2|0:0,0:0:0:0:
429,170,31641,2,0,L|274:200,1,150.000005722046,0|0,1:0|0:0,0:0:0:0:
5,191,32345,6,0,L|34:184,1,30.0000011444092,2|0,1:2|0:0,0:0:0:0:
77,115,32579,2,0,L|232:145,1,150.000005722046,0|0,1:0|0:0,0:0:0:0:
469,124,33282,6,0,L|440:117,1,30.0000011444092,2|0,1:2|0:0,0:0:0:0:
397,48,33516,2,0,L|242:78,1,150.000005722046,0|0,1:0|0:0,0:0:0:0:
178,52,34220,6,0,L|165:11,1,30.0000011444092,6|0,1:2|0:0,0:0:0:0:
306,148,34454,2,0,L|320:114,1,30.0000011444092,0|0,1:0|0:0,0:0:0:0:
208,215,34688,5,0,3:0:0:0:
183,204,34805,1,0,3:0:0:0:
271,274,34923,1,0,3:0:0:0:
289,261,35040,1,0,3:0:0:0:
195,309,35157,6,0,L|184:347,1,30.0000011444092,6|0,1:2|0:0,0:0:0:0:
314,338,35391,2,0,L|323:371,1,30.0000011444092,0|0,1:0|0:0,0:0:0:0:
371,223,35626,5,0,3:0:0:0:
303,262,35743,1,0,3:0:0:0:
241,215,35860,1,0,3:0:0:0:
153,249,35977,1,0,3:0:0:0:
92,169,36095,6,0,L|33:184,1,60.0000022888184,6|0,1:2|0:0,0:0:0:0:
100,92,36329,1,0,1:0:0:0:
176,138,36446,1,0,0:0:0:0:
266,94,36563,5,4,0:0:0:0:
257,69,36680,1,0,0:0:0:0:
242,45,36798,1,0,3:0:0:0:
216,27,36915,1,0,3:0:0:0:
334,150,37032,5,4,1:2:0:0:
359,125,37149,1,0,0:0:0:0:
402,111,37266,1,0,3:0:0:0:
465,112,37384,1,0,3:0:0:0:
251,191,37501,6,0,P|235:229|224:270,1,60.0000022888184,4|0,1:2|3:0,0:0:0:0:
278,331,37735,1,4,1:2:0:0:
272,311,37852,1,4,1:2:0:0:
428,333,37970,6,0,P|445:324|465:321,1,40,4|0,1:0|0:0,0:0:0:0:
348,349,38204,1,2,0:0:0:0:
355,369,38321,1,0,0:0:0:0:
399,263,38438,1,8,1:2:0:0:
384,211,38555,1,0,0:0:0:0:
367,158,38673,2,0,L|377:111,1,40
199,121,38907,2,0,L|184:78,1,40,2|0,1:2|0:0,0:0:0:0:
313,0,39141,6,0,L|281:135,1,120,2|0,0:3|0:0,0:0:0:0:
304,211,39376,2,0,L|307:231,1,20,8|0,1:2|0:0,0:0:0:0:
53,86,39610,1,2,0:3:0:0:
76,103,39845,6,0,L|120:91,1,40,2|0,1:2|0:0,0:0:0:0:
218,166,40079,1,0,0:0:0:0:
179,233,40196,2,0,L|130:223,1,40,2|8,0:0|1:2,0:0:0:0:
59,195,40430,5,0,0:0:0:0:
79,280,40548,1,0,0:0:0:0:
31,184,40665,1,0,0:0:0:0:
66,307,40782,6,0,P|116:330|143:352,1,80,2|0,1:3|0:0,0:0:0:0:
376,233,41134,2,0,P|353:247|301:266,1,80,2|0,0:3|0:0,0:0:0:0:
224,316,41485,2,0,L|232:366,1,40,2|0,1:3|0:0,0:0:0:0:
317,362,41720,1,2,1:2:0:0:
224,48,41895,5,0,0:0:0:0:
224,48,41954,2,0,L|194:203,1,150,2|0,0:1|0:0,0:0:0:0:
134,24,42188,2,0,L|90:33,1,40,8|0,1:2|0:0,0:0:0:0:
314,86,42423,5,2,0:3:0:0:
348,60,42540,1,0,0:0:0:0:
457,73,42657,1,2,1:2:0:0:
135,151,42832,5,0,0:0:0:0:
135,151,42891,2,0,L|165:299,1,120,2|0,0:1|0:0,0:0:0:0:
216,349,43126,2,0,L|85:325,1,120,8|0,1:2|0:0,0:0:0:0:
48,274,43360,1,0,0:0:0:0:
34,294,43477,1,0,0:0:0:0:
241,280,43595,6,0,P|279:263|333:244,1,80,2|0,1:3|0:0,0:0:0:0:
457,149,43946,2,0,P|476:181|493:226,1,80,2|0,0:3|0:0,0:0:0:0:
359,319,44298,2,0,L|347:364,1,40,2|0,0:3|0:0,0:0:0:0:
296,175,44532,5,6,1:2:0:0:
311,131,44649,1,0,0:0:0:0:
426,279,44766,1,2,0:0:0:0:
439,309,44884,1,0,1:2:0:0:
288,260,45001,2,0,P|262:246|244:239,1,40,14|0,1:2|0:0,0:0:0:0:
48,139,45235,6,0,L|5:154,2,40,2|0|0,0:3|0:0|0:0,0:0:0:0:
107,196,45470,6,0,P|132:181|153:173,1,40,4|0,1:2|0:0,0:0:0:0:
153,97,45704,1,2,0:0:0:0:
184,107,45821,1,0,0:0:0:0:
329,20,45938,1,8,1:2:0:0:
285,34,46055,1,0,0:0:0:0:
240,47,46173,2,0,L|194:34,1,40
416,39,46407,2,0,L|462:52,1,40,2|0,1:2|0:0,0:0:0:0:
254,158,46641,6,0,L|227:284,1,120,2|0,0:3|0:0,0:0:0:0:
156,310,46876,2,0,L|132:304,1,20,8|0,1:2|0:0,0:0:0:0:
413,211,47110,1,2,0:3:0:0:
394,238,47345,6,0,L|340:228,1,40,2|0,1:2|0:0,0:0:0:0:
308,292,47579,1,0,0:0:0:0:
435,320,47696,2,0,L|489:310,1,40,2|8,0:0|1:2,0:0:0:0:
359,150,47930,5,0,0:0:0:0:
384,54,48048,1,0,0:0:0:0:
382,132,48165,1,0,0:0:0:0:
416,37,48282,6,0,L|326:50,1,80,2|0,1:3|0:0,0:0:0:0:
123,87,48634,2,0,L|210:110,1,80,2|0,0:3|0:0,0:0:0:0:
254,36,48985,2,0,L|270:85,1,40,2|0,1:3|0:0,0:0:0:0:
202,179,49220,1,2,1:2:0:0:
458,245,49395,5,0,0:0:0:0:
458,245,49454,2,0,L|300:220,1,150,2|0,0:1|0:0,0:0:0:0:
405,318,49688,2,0,L|415:363,1,40,8|0,1:2|0:0,0:0:0:0:
169,357,49923,5,2,0:3:0:0:
177,334,50040,1,0,0:0:0:0:
317,321,50157,1,0,1:2:0:0:
50,210,50333,5,0,0:0:0:0:
50,210,50391,2,0,L|184:186,1,120,2|0,0:1|0:0,0:0:0:0:
234,236,50626,2,0,L|257:88,1,120,8|0,1:2|0:0,0:0:0:0:
180,88,50860,1,0,0:0:0:0:
172,61,50977,1,0,0:0:0:0:
311,60,51095,5,6,1:2:0:0:
337,41,51212,2,0,L|387:53,1,40,0|0,0:0|1:2,0:0:0:0:
358,158,51446,1,2,0:0:0:0:
396,131,51563,2,0,L|437:120,1,40,8|0,1:2|0:0,0:0:0:0:
381,272,51798,2,0,L|405:228,1,40,2|0,1:2|0:0,0:0:0:0:
451,323,52032,5,6,1:2:0:0:
465,352,52149,1,0,1:2:0:0:
296,255,52266,1,2,1:2:0:0:
307,221,52384,1,0,1:2:0:0:
243,340,52501,2,0,L|154:365,1,80,10|0,1:3|0:0,0:0:0:0:
298,358,52970,5,6,0:0:0:0:
273,316,53087,1,0,0:0:0:0:
175,283,53204,1,2,0:0:0:0:
104,322,53321,1,0,0:0:0:0:
39,271,53438,2,0,L|51:218,1,40,10|0,1:2|0:0,0:0:0:0:
139,200,53673,5,2,0:0:0:0:
74,150,53790,2,0,L|62:103,1,40,2|0,0:0|1:2,0:0:0:0:
219,174,54024,5,2,0:0:0:0:
256,212,54141,1,0,0:0:0:0:
348,207,54259,1,2,0:0:0:0:
438,303,54376,2,0,L|449:342,1,40,10|0,1:2|0:0,0:0:0:0:
377,178,54610,5,2,0:0:0:0:
407,102,54727,1,2,0:0:0:0:
360,34,54845,5,2,1:2:0:0:
360,34,54962,1,0,0:0:0:0:
251,108,55079,1,2,1:2:0:0:
181,49,55196,1,0,0:0:0:0:
328,62,55313,5,4,1:2:0:0:
328,62,55430,1,0,0:0:0:0:
296,178,55548,1,2,0:0:0:0:
191,156,55665,1,0,0:0:0:0:
299,86,55782,6,0,L|310:135,1,40,2|0,1:2|0:0,0:0:0:0:
408,257,56016,2,0,L|400:300,1,40,0|0,1:2|0:0,0:0:0:0:
183,277,56251,2,0,P|203:326|303:341,1,160,4|2,1:2|0:0,0:0:0:0:
319,312,56602,1,2,0:0:0:0:
286,251,56720,5,2,1:2:0:0:
306,201,56837,1,0,0:0:0:0:
403,178,56954,1,2,0:0:0:0:
481,120,57071,1,0,0:0:0:0:
472,34,57188,2,0,L|425:21,1,40,10|0,1:2|0:0,0:0:0:0:
276,132,57423,5,2,0:0:0:0:
208,103,57540,2,0,L|167:111,1,40,2|0,0:0|1:2,0:0:0:0:
22,108,57774,5,2,0:0:0:0:
12,79,57891,1,0,0:0:0:0:
64,14,58009,1,2,0:0:0:0:
134,126,58126,2,0,L|124:174,1,40,10|0,1:2|0:0,0:0:0:0:
102,333,58360,5,2,0:0:0:0:
92,362,58477,1,2,0:0:0:0:
13,297,58595,5,2,1:2:0:0:
70,236,58712,1,10,1:2:0:0:
174,293,58829,1,2,1:2:0:0:
263,278,58946,1,8,1:2:0:0:
374,234,59063,5,2,1:2:0:0:
459,254,59180,1,10,1:2:0:0:
433,341,59298,1,2,1:2:0:0:
343,324,59415,1,8,1:2:0:0:
383,210,59532,5,2,1:2:0:0:
383,210,59649,1,0,1:2:0:0:
309,175,59766,1,8,1:2:0:0:
419,137,59884,1,8,1:2:0:0:
344,102,60001,2,0,P|353:50|471:33,1,160,0|8,1:2|1:2,0:0:0:0:
420,53,60470,5,6,1:2:0:0:
355,19,60587,1,0,0:0:0:0:
259,63,60704,1,2,0:0:0:0:
215,160,60821,1,0,0:0:0:0:
138,187,60938,2,0,L|83:166,1,40,10|0,1:2|0:0,0:0:0:0:
10,56,61173,5,2,0:0:0:0:
75,26,61290,2,0,L|107:59,1,40,2|0,0:0|1:2,0:0:0:0:
197,237,61524,5,2,0:0:0:0:
174,277,61641,1,0,0:0:0:0:
81,291,61759,1,2,0:0:0:0:
20,176,61876,2,0,L|31:129,1,40,10|0,1:2|0:0,0:0:0:0:
184,111,62110,5,2,0:0:0:0:
234,138,62227,1,2,0:0:0:0:
281,215,62345,5,2,1:2:0:0:
281,215,62462,1,0,0:0:0:0:
423,177,62579,1,2,1:2:0:0:
408,273,62696,1,0,0:0:0:0:
316,183,62813,5,4,1:2:0:0:
316,183,62930,1,0,0:0:0:0:
451,244,63048,1,2,0:0:0:0:
367,288,63165,1,0,0:0:0:0:
289,350,63282,6,0,L|277:302,1,40,2|0,1:2|0:0,0:0:0:0:
383,208,63516,2,0,L|395:160,1,40,0|0,1:2|0:0,0:0:0:0:
189,356,63751,6,0,P|163:315|42:321,1,160,4|2,1:2|0:0,0:0:0:0:
32,335,64102,1,2,0:0:0:0:
130,317,64220,5,2,1:2:0:0:
120,279,64337,1,0,0:0:0:0:
169,204,64454,1,2,0:0:0:0:
144,113,64571,1,0,0:0:0:0:
57,105,64688,2,0,L|46:171,1,40,10|0,1:2|0:0,0:0:0:0:
244,204,64923,5,2,0:0:0:0:
299,153,65040,2,0,L|356:168,1,40,2|0,0:0|1:2,0:0:0:0:
491,60,65274,5,2,0:0:0:0:
433,9,65391,1,0,0:0:0:0:
333,31,65509,1,2,0:0:0:0:
407,133,65626,2,0,L|416:184,1,40,10|0,1:2|0:0,0:0:0:0:
326,342,65860,5,2,0:0:0:0:
344,331,65977,1,2,0:0:0:0:
494,254,66095,5,2,1:2:0:0:
447,347,66212,1,10,1:2:0:0:
372,274,66329,1,2,1:2:0:0:
302,313,66446,1,8,1:2:0:0:
158,325,66563,5,2,1:2:0:0:
186,258,66680,1,10,1:2:0:0:
272,318,66798,1,2,1:2:0:0:
218,368,66915,1,8,1:2:0:0:
260,242,67032,5,2,1:2:0:0:
275,223,67149,1,0,1:2:0:0:
189,304,67266,1,0,1:2:0:0:
299,240,67501,6,0,P|178:164|136:-10,1,300,4|0,1:2|0:0,0:0:0:0:
243,64,67970,6,0,P|206:87|162:127,1,80,4|0,1:0|0:0,0:0:0:0:
26,119,68204,1,0,0:0:0:0:
39,94,68321,1,0,0:0:0:0:
153,190,68438,1,8,1:2:0:0:
73,202,68555,1,0,0:0:0:0:
33,61,68673,2,0,P|79:86|112:123,1,80,2|0,0:0|0:0,0:0:0:0:
178,349,68907,6,0,P|242:362|370:253,1,240,2|0,1:2|0:0,0:0:0:0:
480,64,69376,2,0,P|431:40|411:20,1,80,8|0,1:2|0:0,0:0:0:0:
282,59,69610,2,0,P|328:73|371:98,1,80,2|0,1:2|0:0,0:0:0:0:
494,187,69845,6,0,P|466:219|444:256,1,80,2|0,1:2|0:0,0:0:0:0:
428,138,70079,1,0,0:0:0:0:
497,318,70196,2,0,P|457:284|331:231,1,160,2|0,0:0|0:0,0:0:0:0:
234,220,70548,1,0,0:0:0:0:
312,185,70665,1,0,0:0:0:0:
72,184,70782,6,0,L|241:138,1,160,2|0,1:2|0:0,0:0:0:0:
97,57,71134,2,0,L|-16:30,1,100,2|0,1:2|0:0,0:0:0:0:
247,10,71485,1,2,1:2:0:0:
183,61,71602,1,0,1:0:0:0:
235,280,71720,6,0,B|81:284|12:379|12:379|137:348|173:222,1,480.000018310548,2|8,1:2|1:2,0:0:0:0:
87,233,72423,2,0,B|60:213|60:213|18:217|3:276,1,120.000004577637,2|0,0:0|0:0,0:0:0:0:
299,338,72657,2,0,B|376:292|459:342|459:342|514:258|445:199|445:199|397:207|355:165,1,400,2|8,1:2|1:2,0:0:0:0:
482,44,73360,5,2,1:2:0:0:
413,66,73477,1,2,0:0:0:0:
300,199,73595,2,0,P|262:155|187:129,1,120.000004577637,2|0,1:2|0:0,0:0:0:0:
162,12,73946,2,0,P|120:47|41:78,1,120.000004577637,2|0,0:0|0:0,0:0:0:0:
316,12,74298,2,0,P|277:34|253:58,1,60.0000022888184,2|0,0:0|0:0,0:0:0:0:
97,225,74532,5,6,1:2:0:0:
74,210,74649,1,0,0:0:0:0:
210,263,74766,1,2,0:0:0:0:
226,252,74884,1,0,1:0:0:0:
169,336,75001,2,0,L|134:147,1,180.000006866455,6|0,1:2|0:0,0:0:0:0:
311,281,75470,6,0,P|354:264|417:263,1,80,6|0,1:2|0:0,0:0:0:0:
486,311,75704,1,0,0:0:0:0:
460,340,75821,1,0,0:0:0:0:
352,221,75938,1,8,1:2:0:0:
448,232,76055,1,0,0:0:0:0:
411,331,76173,2,0,P|367:354|333:384,1,80,2|0,0:0|0:0,0:0:0:0:
221,171,76407,6,0,P|252:74|392:76,1,240,2|0,1:2|0:0,0:0:0:0:
149,276,76876,2,0,P|120:324|111:362,1,80,8|0,1:2|0:0,0:0:0:0:
240,261,77110,2,0,P|255:306|278:343,1,80,2|0,1:2|0:0,0:0:0:0:
87,207,77345,6,0,P|63:165|52:133,1,80,2|0,1:2|0:0,0:0:0:0:
99,54,77579,1,0,0:0:0:0:
6,227,77696,2,0,P|66:190|143:101,1,160,2|0,0:0|0:0,0:0:0:0:
222,149,78048,1,0,0:0:0:0:
195,69,78165,1,0,0:0:0:0:
390,132,78282,6,0,B|313:94|358:71|254:29,1,160,2|0,1:2|0:0,0:0:0:0:
451,69,78634,2,0,P|460:39|529:18,1,100,2|0,1:2|1:0,0:0:0:0:
225,195,78985,1,2,1:2:0:0:
449,369,79220,6,0,B|416:370|397:340|397:340|381:201|312:183|312:183|310:265|395:294|468:263|478:316,1,480.000018310548,2|8,1:2|1:2,0:0:0:0:
504,143,79923,2,0,P|476:138|462:229,1,120.000004577637,2|0,0:0|0:0,0:0:0:0:
246,358,80157,2,0,B|209:358|149:334|149:334|119:343|21:314|21:314|62:327|123:354|123:354|139:382|181:382,1,400,2|8,1:2|1:2,0:0:0:0:
246,236,80860,5,2,1:2:0:0:
182,268,80977,1,2,0:0:0:0:
53,221,81095,5,2,1:2:0:0:
72,234,81212,2,0,P|105:216|125:199,1,60.0000022888184,0|0,0:0|1:0,0:0:0:0:
24,75,81446,1,2,0:0:0:0:
20,102,81563,2,0,P|45:131|69:144,1,60.0000022888184,8|0,1:2|0:0,0:0:0:0:
122,26,81798,2,0,P|103:58|102:96,1,60.0000022888184,2|0,1:2|0:0,0:0:0:0:
211,196,82032,5,6,1:2:0:0:
230,186,82149,1,0,1:0:0:0:
295,24,82266,1,2,1:2:0:0:
283,31,82384,1,0,0:0:0:0:
154,138,82501,2,0,B|279:101|279:101|346:122,1,180.000006866455,6|0,1:2|0:0,0:0:0:0:
393,147,82970,5,4,1:0:0:0:
427,85,83087,1,0,0:0:0:0:
506,144,83204,1,2,0:0:0:0:
444,217,83321,1,0,0:0:0:0:
439,314,83438,2,0,P|466:300|501:292,1,60.0000022888184,10|0,1:2|0:0,0:0:0:0:
319,191,83673,5,2,0:0:0:0:
247,252,83790,2,0,P|257:277|268:320,1,60.0000022888184,2|0,0:0|1:2,0:0:0:0:
103,364,84024,5,2,0:0:0:0:
42,318,84141,1,0,0:0:0:0:
123,292,84259,1,2,0:0:0:0:
213,370,84376,2,0,P|249:357|285:353,1,60.0000022888184,10|0,1:2|0:0,0:0:0:0:
226,152,84610,5,2,0:0:0:0:
157,211,84727,1,2,0:0:0:0:
77,195,84845,5,2,1:2:0:0:
77,195,84962,1,0,0:0:0:0:
178,100,85079,1,2,1:2:0:0:
85,70,85196,1,0,0:0:0:0:
94,190,85313,5,4,1:2:0:0:
94,190,85430,1,0,0:0:0:0:
179,117,85548,1,2,0:0:0:0:
99,58,85665,1,0,0:0:0:0:
192,212,85782,6,0,P|173:247|161:296,1,80,2|0,1:2|0:0,0:0:0:0:
341,188,86016,2,0,P|297:220|278:250,1,80,0|0,1:2|0:0,0:0:0:0:
0,337,86251,2,0,P|63:336|167:384,1,160,4|2,1:2|0:0,0:0:0:0:
225,340,86602,1,2,0:0:0:0:
308,335,86720,5,2,1:2:0:0:
369,377,86837,1,0,0:0:0:0:
454,334,86954,1,2,0:0:0:0:
410,254,87071,1,0,0:0:0:0:
409,150,87188,2,0,P|446:135|478:132,1,60.0000022888184,10|0,1:2|0:0,0:0:0:0:
429,248,87423,5,2,0:0:0:0:
336,215,87540,2,0,P|310:187|288:149,1,60.0000022888184,2|0,0:0|1:2,0:0:0:0:
331,26,87774,5,2,0:0:0:0:
417,58,87891,1,0,0:0:0:0:
314,97,88009,1,2,0:0:0:0:
189,46,88126,2,0,P|160:69|146:91,1,60.0000022888184,10|0,1:2|0:0,0:0:0:0:
125,243,88360,1,2,0:0:0:0:
155,254,88477,1,2,0:0:0:0:
192,174,88595,5,2,1:2:0:0:
82,176,88712,1,10,1:2:0:0:
68,295,88829,1,2,1:2:0:0:
161,283,88946,1,8,1:2:0:0:
104,189,89063,5,2,1:2:0:0:
172,258,89180,1,10,1:2:0:0:
271,243,89298,1,2,1:2:0:0:
311,301,89415,1,8,1:2:0:0:
382,278,89532,5,2,1:2:0:0:
382,278,89649,1,0,1:2:0:0:
421,212,89766,1,8,1:2:0:0:
453,303,89884,1,8,1:2:0:0:
489,236,90001,2,0,P|496:177|514:105,1,120.000004577637,0|8,1:2|1:2,0:0:0:0:
475,53,90470,5,6,1:2:0:0:
408,30,90587,1,0,0:0:0:0:
349,71,90704,1,2,0:0:0:0:
344,168,90821,1,0,0:0:0:0:
412,203,90938,2,0,P|400:232|384:247,1,40,10|0,0:0|0:0,0:0:0:0:
308,335,91173,1,0,0:0:0:0:
259,283,91290,2,0,P|264:256|280:235,1,40,2|0,0:0|0:0,0:0:0:0:
270,28,91524,5,2,0:0:0:0:
196,32,91641,1,0,0:0:0:0:
148,109,91759,1,2,0:0:0:0:
205,189,91876,2,0,P|228:172|243:153,1,40,10|0,0:0|0:0,0:0:0:0:
197,336,92110,1,0,0:0:0:0:
115,313,92227,1,2,0:0:0:0:
102,228,92345,5,2,0:0:0:0:
102,228,92462,1,0,0:0:0:0:
261,235,92579,2,0,L|190:215,1,60.0000022888184,2|0,0:0|0:0,0:0:0:0:
70,143,92813,5,8,0:0:0:0:
70,143,92930,1,0,0:0:0:0:
229,150,93047,2,0,L|158:130,1,60.0000022888184,2|0,0:0|0:0,0:0:0:0:
27,58,93282,2,0,B|80:17|108:73|174:-4,1,160,2|8,0:0|0:0,0:0:0:0:
244,39,93985,5,2,0:0:0:0:
235,60,94102,1,2,0:0:0:0:
323,21,94220,5,2,0:0:0:0:
388,12,94337,1,0,0:0:0:0:
424,56,94454,1,2,0:0:0:0:
411,103,94571,1,0,0:0:0:0:
354,177,94688,2,0,P|332:151|326:131,1,40,10|0,0:0|0:0,0:0:0:0:
153,143,94923,1,0,0:0:0:0:
89,180,95040,2,0,P|80:209|81:223,1,40,2|0,0:0|0:0,0:0:0:0:
218,355,95274,5,2,0:0:0:0:
292,323,95391,1,0,0:0:0:0:
305,233,95509,1,2,0:0:0:0:
240,164,95626,2,0,P|223:191|219:213,1,40,10|0,0:0|0:0,0:0:0:0:
54,354,95860,5,0,0:0:0:0:
13,283,95977,1,2,0:0:0:0:
108,229,96095,5,6,1:2:0:0:
190,294,96212,1,2,1:2:0:0:
308,280,96329,1,2,1:2:0:0:
389,337,96446,1,0,0:0:0:0:
426,243,96563,5,6,1:2:0:0:
324,223,96680,1,2,1:2:0:0:
348,348,96798,1,2,1:2:0:0:
438,322,96915,1,0,0:0:0:0:
351,199,97032,5,2,1:2:0:0:
348,181,97149,1,0,1:0:0:0:
510,276,97266,1,0,1:0:0:0:
231,225,97501,6,0,P|355:177|461:28,1,300,4|0,1:0|0:0,0:0:0:0:
366,13,97970,6,0,L|376:47,1,30.0000011444092,2|0,1:2|0:0,0:0:0:0:
467,124,98204,2,0,L|428:271,1,150.000005722046,0|0,1:0|0:0,0:0:0:0:
395,376,98907,6,0,L|385:342,1,30.0000011444092,2|0,1:2|0:0,0:0:0:0:
294,265,99141,2,0,L|333:118,1,150.000005722046,0|0,1:0|0:0,0:0:0:0:
138,55,99845,6,0,L|148:89,1,30.0000011444092,2|0,1:2|0:0,0:0:0:0:
239,166,100079,2,0,L|200:313,1,150.000005722046,0|0,1:0|0:0,0:0:0:0:
101,384,100782,6,0,L|91:350,1,30.0000011444092,2|0,1:2|0:0,0:0:0:0:
0,273,101016,2,0,L|39:126,1,150.000005722046,0|0,1:0|0:0,0:0:0:0:
154,154,101720,6,0,L|112:165,1,30.0000011444092,6|0,1:2|0:0,0:0:0:0:
62,46,101954,2,0,L|20:35,1,30.0000011444092,0|0,1:0|0:0,0:0:0:0:
232,133,102188,5,0,3:0:0:0:
258,123,102305,1,0,3:0:0:0:
147,47,102423,1,0,3:0:0:0:
138,21,102540,1,0,3:0:0:0:
112,186,102657,6,0,L|123:224,1,30.0000011444092,6|0,1:2|0:0,0:0:0:0:
257,46,102891,2,0,L|268:8,1,30.0000011444092,0|0,1:0|0:0,0:0:0:0:
319,134,103126,5,0,3:0:0:0:
291,210,103243,1,0,3:0:0:0:
326,331,103360,1,0,3:0:0:0:
353,260,103477,1,0,3:0:0:0:
224,249,103595,6,0,P|208:256|182:291,1,60.0000022888184,6|0,1:2|0:0,0:0:0:0:
57,328,103829,1,0,1:0:0:0:
85,342,103946,1,0,0:0:0:0:
110,267,104063,5,4,0:0:0:0:
92,223,104180,1,0,0:0:0:0:
61,171,104298,1,0,3:0:0:0:
9,136,104415,1,0,3:0:0:0:
164,199,104532,5,4,1:2:0:0:
194,138,104649,1,0,0:0:0:0:
243,93,104766,1,0,3:0:0:0:
320,76,104884,1,0,3:0:0:0:
124,101,105001,6,0,P|108:94|79:58,1,60.0000022888184,4|0,1:2|3:0,0:0:0:0:
209,24,105235,1,4,1:2:0:0:
188,15,105352,1,4,1:2:0:0:
274,204,105470,6,0,P|289:192|304:182,1,30.0000011444092,4|0,1:0|0:0,0:0:0:0:
319,201,112970,6,0,P|304:213|289:223,1,30.0000011444092,2|0,0:0|0:0,0:0:0:0:
294,203,120470,5,4,1:0:0:0:
253,258,120587,1,0,0:0:0:0:
305,310,120704,1,0,0:0:0:0:
384,282,120821,1,0,0:0:0:0:
307,333,120938,2,0,P|282:334|254:346,1,40,0|0,1:0|0:0,0:0:0:0:
188,363,121173,5,0,0:0:0:0:
122,331,121290,1,0,0:0:0:0:
122,331,121407,1,0,1:0:0:0:
47,336,121524,1,0,0:0:0:0:
17,271,121641,1,0,0:0:0:0:
72,222,121759,1,0,0:0:0:0:
81,138,121876,2,0,P|70:117|55:97,1,40,0|0,1:0|0:0,0:0:0:0:
175,18,122110,1,0,0:0:0:0:
145,83,122227,1,0,0:0:0:0:
94,32,122345,6,0,L|45:17,1,40,0|0,1:0|0:0,0:0:0:0:
217,101,122579,2,0,P|236:123|246:137,1,40
110,49,122813,2,0,L|97:7,1,40,0|0,1:0|0:0,0:0:0:0:
188,173,123048,2,0,P|187:195|182:214,1,40
88,251,123282,2,0,B|39:289|34:348|34:348|57:345|71:320,1,160,0|2,1:0|0:3,0:0:0:0:
468,352,124220,5,0,1:0:0:0:
451,284,124337,1,0,0:0:0:0:
388,234,124454,1,0,0:0:0:0:
344,310,124571,1,0,0:0:0:0:
405,227,124688,2,0,P|415:202|417:184,1,40,0|0,1:0|0:0,0:0:0:0:
423,21,124923,5,0,0:0:0:0:
492,44,125040,1,0,0:0:0:0:
492,44,125157,1,0,1:0:0:0:
445,96,125274,1,0,0:0:0:0:
365,88,125391,1,0,0:0:0:0:
303,29,125509,1,0,0:0:0:0:
214,30,125626,2,0,P|193:41|177:54,1,40,0|0,1:0|0:0,0:0:0:0:
31,37,125860,1,0,0:0:0:0:
98,6,125977,1,0,0:0:0:0:
121,91,126095,5,0,1:0:0:0:
121,91,126212,1,0,0:0:0:0:
66,147,126329,2,0,L|60:170,1,20
38,168,126446,2,0,L|32:191,1,20
96,233,126563,1,0,1:0:0:0:
96,233,126680,1,0,0:0:0:0:
160,277,126798,1,0,0:0:0:0:
152,295,126915,2,0,L|157:312,1,10
302,256,127032,6,0,P|339:264|378:281,1,80,0|2,1:0|0:3,0:0:0:0:
377,280,127970,5,0,1:0:0:0:
313,308,128087,1,0,0:0:0:0:
286,243,128204,1,0,1:0:0:0:
344,180,128321,1,0,0:0:0:0:
279,226,128438,2,0,P|261:237|236:247,1,47.9999985351563,0|0,1:0|0:0,0:0:0:0:
390,354,128673,5,0,1:0:0:0:
467,332,128790,1,0,0:0:0:0:
460,315,128907,1,0,1:0:0:0:
497,244,129024,1,0,0:0:0:0:
445,187,129141,1,0,1:0:0:0:
484,106,129259,1,0,0:0:0:0:
439,30,129376,2,0,P|416:36|397:58,1,47.9999985351563,0|0,1:0|0:0,0:0:0:0:
305,156,129610,1,0,1:0:0:0:
248,109,129727,1,0,0:0:0:0:
299,51,129845,5,0,1:0:0:0:
299,51,129962,1,0,0:0:0:0:
163,50,130079,2,0,L|215:27,1,47.9999985351563,0|0,1:0|0:0,0:0:0:0:
234,187,130313,5,0,1:0:0:0:
234,187,130430,1,0,0:0:0:0:
370,186,130547,2,0,L|318:163,1,47.9999985351563,0|0,1:0|0:0,0:0:0:0:
195,282,130782,6,0,B|218:278|231:264|231:264|272:263|293:305|293:305|293:329|310:343,2,160,0|0|2,1:0|1:0|0:3,0:0:0:0:
198,368,131485,1,0,1:0:0:0:
209,363,131602,1,0,0:0:0:0:
123,302,131720,5,0,0:0:0:0:
57,328,131837,1,0,0:0:0:0:
20,267,131954,1,0,0:0:0:0:
87,210,132071,1,0,0:0:0:0:
103,117,132188,2,0,P|82:92|36:75,1,60.0000022888184,0|0,0:0|2:0,2:2:0:0:
178,216,132423,5,0,0:0:0:0:
247,191,132540,1,0,0:0:0:0:
252,118,132657,1,0,0:0:0:0:
216,47,132774,2,0,L|223:14,1,30.0000011444092
249,27,132891,1,0,1:0:0:0:
333,10,133009,1,0,0:0:0:0:
372,99,133126,6,0,L|107:51,1,240,0|0,1:0|0:0,0:0:0:0:
106,63,133360,1,0,0:0:0:0:
209,106,133477,1,0,0:0:0:0:
407,32,133595,6,0,P|430:17|483:9,1,66.6666666666667,4|0,1:2|0:0,0:0:0:0:
402,270,133751,2,0,P|419:297|431:329,1,66.6666666666667,4|0,1:2|0:0,0:0:0:0:
232,200,133907,2,0,P|204:181|171:177,1,66.6666666666667,4|0,1:2|0:0,0:0:0:0:
300,86,134063,6,0,P|328:103|358:139,1,66.6666666666667,4|0,1:2|0:0,0:0:0:0:
480,179,134220,2,0,P|441:180|396:164,1,66.6666666666667,4|0,1:2|0:0,0:0:0:0:
323,268,134376,2,0,P|328:228|355:189,1,66.6666666666667,4|0,1:2|0:0,0:0:0:0:
407,90,134532,6,0,B|404:81|444:71|474:113|412:216|381:131|284:160|230:263|245:331|298:365|360:331,1,400,4|4,1:2|3:0,0:0:0:0:
433,356,135235,2,0,L|439:358,4,6.66666666666667
356,307,135470,6,0,P|307:315|254:336,1,100,4|0,1:0|0:0,0:0:0:0:
97,353,135704,1,0,0:0:0:0:
127,286,135821,1,0,0:0:0:0:
71,224,135938,1,8,1:2:0:0:
11,336,136055,1,0,0:0:0:0:
179,350,136173,2,0,P|197:304|237:257,1,100,2|0,0:0|0:0,0:0:0:0:
39,10,136407,6,0,P|31:105|192:202,1,300,2|0,1:2|0:0,0:0:0:0:
376,303,136876,2,0,P|414:263|461:244,1,100,8|0,1:2|0:0,0:0:0:0:
446,72,137110,2,0,P|438:122|420:169,1,100,2|0,1:2|0:0,0:0:0:0:
256,314,137345,6,0,P|305:338|346:377,1,100,2|0,1:2|0:0,0:0:0:0:
438,347,137579,1,0,0:0:0:0:
335,234,137696,2,0,P|289:276|142:333,1,200,2|0,0:0|0:0,0:0:0:0:
49,226,138048,1,0,0:0:0:0:
6,281,138165,1,0,0:0:0:0:
111,379,138282,6,0,P|88:308|161:188,1,200,2|0,1:2|0:0,0:0:0:0:
40,137,138634,2,0,P|20:77|-3:33,1,100,2|0,1:2|0:0,0:0:0:0:
229,197,138985,1,2,1:2:0:0:
275,153,139102,1,0,1:0:0:0:
168,55,139220,6,0,B|148:75|95:56|95:56|124:102|227:104|199:36|239:-5|391:29|360:81|307:73|330:125|392:139|463:136|484:74|503:7|392:-18|403:54,1,560.000005340576,2|8,1:2|1:2,0:0:0:0:
238,92,139923,2,0,P|310:112|351:197,1,140.000001335144,2|0,0:0|0:0,0:0:0:0:
415,329,140157,2,0,B|374:337|341:301|341:301|351:374|426:405|520:349|504:251|471:199|439:187|439:187|450:233|394:274,1,480.000018310548,2|8,1:2|1:2,0:0:0:0:
288,371,140860,5,2,1:2:0:0:
239,310,140977,1,2,0:0:0:0:
131,362,141095,2,0,P|99:336|-15:309,1,160,2|0,1:2|0:0,0:0:0:0:
199,236,141446,1,2,0:0:0:0:
118,252,141563,2,0,P|88:197|77:106,1,120,0|0,1:0|0:0,0:0:0:0:
130,88,141798,2,0,P|173:112|197:143,1,80,2|0,0:0|0:0,0:0:0:0:
347,266,142032,5,6,1:2:0:0:
365,249,142149,1,0,0:0:0:0:
419,123,142266,1,2,0:0:0:0:
437,140,142384,1,0,1:0:0:0:
512,229,142501,6,0,L|252:184,1,240,6|0,1:2|0:0,0:0:0:0:
480,242,142970,6,0,P|446:265|407:324,1,100,6|0,1:2|0:0,0:0:0:0:
264,352,143204,1,0,0:0:0:0:
276,325,143321,1,0,0:0:0:0:
339,250,143438,1,8,1:2:0:0:
346,368,143555,1,0,0:0:0:0:
193,319,143673,2,0,P|142:277|120:246,1,100,2|0,0:0|0:0,0:0:0:0:
217,49,143907,6,0,P|191:138|0:248,1,300,2|0,1:2|0:0,0:0:0:0:
216,230,144376,2,0,P|278:245|323:272,1,100,8|0,1:2|0:0,0:0:0:0:
276,154,144610,2,0,P|318:118|350:72,1,100,2|0,1:2|0:0,0:0:0:0:
124,78,144845,6,0,P|81:102|47:149,1,100,2|0,1:2|0:0,0:0:0:0:
49,26,145079,1,0,0:0:0:0:
149,157,145196,2,0,P|221:172|321:265,1,200,2|0,0:0|0:0,0:0:0:0:
480,295,145548,1,0,0:0:0:0:
387,345,145665,1,0,0:0:0:0:
489,369,145782,6,0,B|454:285|389:286|372:200,1,200,2|0,1:2|0:0,0:0:0:0:
480,142,146134,2,0,P|503:96|513:48,1,100,2|0,1:2|0:0,0:0:0:0:
332,331,146485,1,2,1:2:0:0:
270,264,146602,1,0,1:0:0:0:
476,236,146720,6,0,B|500:208|537:234|525:275|466:316|382:272|375:161|386:153|397:146|366:11|268:12|175:53|195:145|222:163|222:163|238:131|299:127,1,560.000005340576,2|8,1:2|1:2,0:0:0:0:
69,65,147423,2,0,P|131:79|164:19,1,140.000001335144,2|0,0:0|0:0,0:0:0:0:
121,334,147657,2,0,B|74:345|74:345|65:361|65:361|20:370|20:370|87:259|102:157|102:157|66:154|40:136|40:136|6:166|5:222,1,480.000018310548,2|8,1:2|1:2,0:0:0:0:
222,224,148360,5,2,1:2:0:0:
155,255,148477,1,2,0:0:0:0:
225,364,148595,5,2,1:2:0:0:
284,327,148712,2,0,P|324:334|362:351,1,80,0|0,0:0|1:0,0:0:0:0:
414,145,148946,1,2,0:0:0:0:
468,199,149063,2,0,P|480:244|475:278,1,80,8|0,1:2|0:0,0:0:0:0:
345,209,149298,2,0,P|376:246|394:285,1,80,2|0,1:2|0:0,0:0:0:0:
146,339,149532,5,6,1:2:0:0:
77,310,149649,1,0,1:0:0:0:
16,167,149766,1,2,1:2:0:0:
91,139,149884,1,0,0:0:0:0:
167,268,150001,6,0,B|134:159|62:184|33:67,1,240,6|0,1:2|0:0,0:0:0:0:
96,29,150470,5,4,1:0:0:0:
168,14,150587,1,0,0:0:0:0:
231,91,150704,1,2,0:0:0:0:
341,84,150821,1,0,0:0:0:0:
419,37,150938,2,0,P|388:17|368:11,1,40,10|0,1:2|0:0,0:0:0:0:
280,29,151173,5,2,0:0:0:0:
264,9,151290,1,2,0:0:0:0:
423,129,151407,2,0,P|401:158|398:172,1,40,0|2,1:2|0:0,0:0:0:0:
279,221,151641,5,0,0:0:0:0:
352,332,151759,1,2,0:0:0:0:
479,289,151876,2,0,P|467:249|445:222,1,60.0000022888184,10|0,1:2|0:0,0:0:0:0:
272,302,152110,5,2,0:0:0:0:
230,362,152227,1,2,0:0:0:0:
117,337,152345,5,2,1:2:0:0:
117,337,152462,1,0,0:0:0:0:
193,186,152579,1,2,1:2:0:0:
116,232,152696,1,0,0:0:0:0:
189,302,152813,5,4,1:2:0:0:
189,302,152930,1,0,0:0:0:0:
194,138,153048,1,2,0:0:0:0:
124,195,153165,1,0,0:0:0:0:
272,282,153282,6,0,P|342:298|437:381,1,200,2|0,1:2|0:0,0:0:0:0:
328,213,153634,1,0,0:0:0:0:
416,216,153751,2,0,P|460:178|487:137,1,100,4|0,1:2|0:0,0:0:0:0:
456,22,153985,5,2,0:0:0:0:
376,21,154102,1,2,0:0:0:0:
329,118,154220,5,2,1:2:0:0:
247,147,154337,1,0,0:0:0:0:
171,86,154454,1,2,0:0:0:0:
239,15,154571,1,0,0:0:0:0:
225,144,154688,2,0,P|207:170|200:186,1,40,10|0,1:2|0:0,0:0:0:0:
82,49,154923,5,2,0:0:0:0:
76,23,155040,1,2,0:0:0:0:
22,135,155157,2,0,P|37:160|44:183,1,40,0|2,1:2|0:0,0:0:0:0:
16,294,155391,5,0,0:0:0:0:
105,375,155509,1,2,0:0:0:0:
174,271,155626,2,0,P|201:248|228:241,1,60,10|0,1:2|0:0,0:0:0:0:
386,266,155860,1,2,0:0:0:0:
395,297,155977,1,2,0:0:0:0:
340,205,156095,5,2,1:2:0:0:
441,211,156212,1,10,1:2:0:0:
465,312,156329,1,2,1:2:0:0:
325,341,156446,1,8,1:2:0:0:
369,243,156563,5,2,1:2:0:0:
459,182,156680,1,10,1:2:0:0:
443,92,156798,1,2,1:2:0:0:
371,33,156915,1,8,1:2:0:0:
298,75,157032,5,2,1:2:0:0:
298,75,157149,1,0,1:2:0:0:
232,21,157266,1,8,1:2:0:0:
215,101,157384,1,8,1:2:0:0:
152,45,157501,2,0,B|61:17|61:17|101:132,1,200,0|8,1:2|1:2,0:0:0:0:
81,117,157970,5,6,1:2:0:0:
145,156,158087,1,0,0:0:0:0:
165,231,158204,1,2,0:0:0:0:
118,300,158321,1,0,0:0:0:0:
48,258,158438,2,0,P|32:275|20:296,1,40,10|0,0:0|0:0,0:0:0:0:
180,358,158673,5,0,0:0:0:0:
248,321,158790,2,0,P|274:337|286:354,1,40,2|0,0:0|0:0,0:0:0:0:
363,333,159024,5,2,0:0:0:0:
380,364,159141,1,0,0:0:0:0:
467,334,159259,1,2,0:0:0:0:
494,237,159376,2,0,P|491:213|483:195,1,40,10|0,0:0|0:0,0:0:0:0:
363,96,159610,1,0,0:0:0:0:
371,29,159727,1,2,0:0:0:0:
447,12,159845,5,2,0:0:0:0:
447,12,159962,1,0,0:0:0:0:
427,162,160079,2,0,L|438:79,1,80,2|0,0:0|0:0,0:0:0:0:
347,50,160313,5,8,0:0:0:0:
347,50,160430,1,0,0:0:0:0:
327,200,160547,2,0,L|338:117,1,80,2|0,0:0|0:0,0:0:0:0:
263,93,160782,6,0,B|242:98|212:40|237:44|193:2|193:2|131:46|173:117,1,240.000009155274,2|8,0:0|0:0,0:0:0:0:
165,208,161485,5,2,0:0:0:0:
180,185,161602,1,2,0:0:0:0:
260,176,161720,5,2,0:0:0:0:
305,210,161837,1,0,0:0:0:0:
347,176,161954,1,2,0:0:0:0:
445,149,162071,1,0,0:0:0:0:
478,213,162188,2,0,P|469:245|453:274,1,60.0000022888184,10|0,0:0|0:0,0:0:0:0:
405,353,162423,5,0,0:0:0:0:
339,318,162540,2,0,P|310:329|289:353,1,60.0000022888184,2|0,0:0|0:0,0:0:0:0:
201,299,162774,5,2,0:0:0:0:
213,269,162891,1,0,0:0:0:0:
143,200,163009,1,2,0:0:0:0:
48,225,163126,2,0,P|41:263|52:295,1,60.0000022888184,10|0,0:0|0:0,0:0:0:0:
136,349,163360,5,0,0:0:0:0:
195,284,163477,1,2,0:0:0:0:
127,224,163595,5,6,1:2:0:0:
65,147,163712,1,2,1:2:0:0:
117,55,163829,1,2,1:2:0:0:
215,90,163946,1,0,0:0:0:0:
243,213,164063,5,6,1:2:0:0:
172,169,164180,1,2,1:2:0:0:
234,113,164298,1,2,1:2:0:0:
319,152,164415,1,0,0:0:0:0:
263,251,164532,5,2,1:2:0:0:
232,240,164649,1,0,1:0:0:0:
392,313,164766,2,0,P|417:290|434:283,1,40,0|0,1:0|0:0,0:0:0:0:
283,354,165001,6,0,P|334:321|412:68,1,300,4|0,1:0|0:0,0:0:0:0:
463,10,165470,6,0,L|437:25,1,30.0000011444092,2|0,1:2|0:0,0:0:0:0:
358,7,165704,2,0,L|269:137,1,150.000005722046,0|0,1:0|0:0,0:0:0:0:
144,329,166407,6,0,L|169:313,1,30.0000011444092,2|0,1:2|0:0,0:0:0:0:
249,332,166641,2,0,L|337:201,1,150.000005722046,0|0,1:0|0:0,0:0:0:0:
197,0,167345,6,0,L|197:29,1,30.0000011444092,2|0,1:2|0:0,0:0:0:0:
141,89,167579,2,0,L|210:230,1,150.000005722046,0|0,1:0|0:0,0:0:0:0:
413,371,168282,6,0,L|412:341,1,30.0000011444092,2|0,1:2|0:0,0:0:0:0:
469,282,168516,2,0,L|399:140,1,150.000005722046,0|0,1:0|0:0,0:0:0:0:
305,127,169220,6,0,L|271:145,1,30.0000011444092,6|0,1:2|0:0,0:0:0:0:
170,250,169454,2,0,L|136:232,1,30.0000011444092,0|0,1:0|0:0,0:0:0:0:
293,223,169688,5,0,3:0:0:0:
310,247,169805,1,0,3:0:0:0:
185,169,169923,1,0,3:0:0:0:
179,148,170040,1,0,3:0:0:0:
262,54,170157,6,0,L|294:64,1,30.0000011444092,6|0,1:2|0:0,0:0:0:0:
417,187,170391,2,0,L|383:210,1,30.0000011444092,0|0,1:0|0:0,0:0:0:0:
245,324,170626,5,0,3:0:0:0:
187,267,170743,1,0,3:0:0:0:
105,268,170860,1,0,3:0:0:0:
108,187,170977,1,0,3:0:0:0:
85,90,171095,6,0,L|150:114,1,60.0000022888184,6|0,1:2|0:0,0:0:0:0:
197,52,171329,1,0,1:0:0:0:
262,119,171446,1,0,0:0:0:0:
280,321,171563,5,4,0:0:0:0:
232,297,171680,1,0,0:0:0:0:
198,239,171798,1,0,3:0:0:0:
199,162,171915,1,0,3:0:0:0:
385,22,172032,5,4,1:2:0:0:
401,87,172149,1,0,0:0:0:0:
375,155,172266,1,0,3:0:0:0:
300,185,172384,1,0,3:0:0:0:
228,33,172501,6,0,L|291:10,1,60.0000022888184,4|0,1:2|3:0,0:0:0:0:
460,196,172735,1,4,1:2:0:0:
474,174,172852,1,4,1:2:0:0:
296,224,172970,6,0,P|274:209|260:202,1,40,4|0,1:0|0:0,0:0:0:0:
149,237,173204,1,2,0:0:0:0:
123,227,173321,1,0,0:0:0:0:
198,334,173438,1,8,1:2:0:0:
252,321,173555,1,0,0:0:0:0:
310,306,173673,2,0,L|364:318,1,40
508,259,173907,2,0,L|478:233,1,40,2|0,1:2|0:0,0:0:0:0:
432,364,174141,6,0,L|408:243,1,120,2|0,0:3|0:0,0:0:0:0:
332,206,174376,2,0,L|338:183,1,20,8|0,1:2|0:0,0:0:0:0:
465,36,174610,1,2,0:3:0:0:
476,71,174845,6,0,L|419:56,1,40,2|0,1:2|0:0,0:0:0:0:
438,141,175079,1,0,0:0:0:0:
362,36,175196,2,0,L|306:50,1,40,2|8,0:0|1:2,0:0:0:0:
151,53,175430,5,0,0:0:0:0:
240,28,175548,1,0,0:0:0:0:
125,42,175665,1,0,0:0:0:0:
217,17,175782,6,0,L|204:102,1,80,2|0,1:3|0:0,0:0:0:0:
50,244,176134,2,0,L|11:171,1,80,2|0,0:3|0:0,0:0:0:0:
126,128,176485,2,0,L|91:163,1,40,2|0,1:3|0:0,0:0:0:0:
32,86,176720,1,2,1:2:0:0:
287,280,176895,5,0,0:0:0:0:
287,280,176954,2,0,L|121:315,1,150,2|0,0:1|0:0,0:0:0:0:
258,183,177188,2,0,L|272:131,1,40,8|0,1:2|0:0,0:0:0:0:
405,217,177423,5,2,0:3:0:0:
370,222,177540,1,0,0:0:0:0:
311,359,177657,1,2,1:2:0:0:
59,185,177833,5,0,0:0:0:0:
59,185,177892,2,0,L|208:216,1,120,2|0,0:1|0:0,0:0:0:0:
249,164,178126,2,0,L|280:36,1,120,8|0,1:2|0:0,0:0:0:0:
198,24,178360,1,0,0:0:0:0:
194,5,178477,1,0,0:0:0:0:
128,70,178595,6,0,P|148:89|180:136,1,80,2|0,1:3|0:0,0:0:0:0:
371,168,178946,2,0,P|336:190|296:226,1,80,2|0,0:3|0:0,0:0:0:0:
381,368,179298,2,0,L|339:358,1,40,2|0,0:3|0:0,0:0:0:0:
155,243,179532,5,6,1:2:0:0:
118,255,179649,1,0,0:0:0:0:
232,347,179766,1,2,0:0:0:0:
260,324,179884,1,0,1:2:0:0:
138,343,180001,2,0,P|127:366|122:383,1,40,14|0,1:2|0:0,0:0:0:0:
255,202,180235,6,0,L|235:153,2,40,2|0|0,0:3|0:0|0:0,0:0:0:0:
302,30,180470,6,0,L|286:82,1,40,4|0,1:2|0:0,0:0:0:0:
455,160,180704,1,2,0:0:0:0:
465,130,180821,1,0,0:0:0:0:
391,48,180938,1,8,1:2:0:0:
382,103,181055,1,0,0:0:0:0:
373,156,181173,2,0,L|366:208,1,40
337,373,181407,2,0,P|350:351|366:336,1,40,2|0,1:2|0:0,0:0:0:0:
457,242,181641,6,0,L|339:269,1,120,2|0,0:3|0:0,0:0:0:0:
264,233,181876,2,0,L|274:210,1,20,8|0,1:2|0:0,0:0:0:0:
125,350,182110,1,2,0:3:0:0:
150,325,182345,6,0,L|200:336,1,40,2|0,1:2|0:0,0:0:0:0:
190,245,182579,1,0,0:0:0:0:
115,209,182696,2,0,L|75:232,1,40,2|8,0:0|1:2,0:0:0:0:
72,122,182930,5,0,0:0:0:0:
154,137,183048,1,0,0:0:0:0:
64,95,183165,1,0,0:0:0:0:
173,108,183282,6,0,P|169:67|153:22,1,80,2|0,1:3|0:0,0:0:0:0:
286,201,183634,2,0,P|297:179|308:123,1,80,2|0,0:3|0:0,0:0:0:0:
341,329,183985,2,0,P|357:317|368:301,1,40,2|0,1:3|0:0,0:0:0:0:
404,221,184220,1,2,1:2:0:0:
180,373,184396,5,0,0:0:0:0:
180,373,184454,2,0,L|140:202,1,150,2|0,0:1|0:0,0:0:0:0:
52,375,184688,2,0,L|96:384,1,40,8|0,1:2|0:0,0:0:0:0:
230,274,184923,5,2,0:3:0:0:
251,263,185040,1,0,0:0:0:0:
348,360,185157,1,0,1:2:0:0:
66,276,185333,5,0,0:0:0:0:
66,276,185391,2,0,L|91:158,1,120,2|0,0:1|0:0,0:0:0:0:
6,116,185626,2,0,L|121:73,1,120,8|0,1:2|0:0,0:0:0:0:
152,12,185860,1,0,0:0:0:0:
173,22,185977,1,0,0:0:0:0:
220,108,186095,5,6,1:2:0:0:
286,88,186212,2,0,P|298:65|304:43,1,40,0|0,0:0|1:2,0:0:0:0:
345,140,186446,1,2,0:0:0:0:
413,104,186563,2,0,P|408:80|396:59,1,40,8|0,1:2|0:0,0:0:0:0:
501,21,186798,2,0,P|475:4|463:2,1,40,2|0,1:2|0:0,0:0:0:0:
322,165,187032,5,6,1:2:0:0:
338,194,187149,1,0,1:2:0:0:
472,254,187266,1,2,1:2:0:0:
496,236,187384,1,0,1:2:0:0:
376,331,187501,6,0,L|422:178,1,160,10|4,1:3|0:1,0:0:0:0:
