osu file format v14

[General]
AudioFilename: audio.mp3
AudioLeadIn: 0
PreviewTime: 30454
Countdown: 0
SampleSet: Soft
StackLeniency: 0.7
Mode: 0
LetterboxInBreaks: 0
WidescreenStoryboard: 1

[Editor]
Bookmarks: 30482,37982,52982,67982,82982,97982,105482,120482,135482,150482,165482,172982,187982
DistanceSpacing: 1.2
BeatDivisor: 4
GridSize: 32
TimelineZoom: 1.5

[Metadata]
Title:Moriya set 04 ReEdit ~ Unmei no Dark Side
TitleUnicode:Moriya set 04 ReEdit 〜 運命のダークサイド
Artist:Rin
ArtistUnicode:凛
Creator:Halfslashed
Version:Normal
Source:東方風神録 ~ Mountain of Faith.
Tags:th10 東方project touhou project fuujinroku mof 鍵山 雛 hina kagiyama fate daku saido featured artist kuroneko lounge house set captin1 yaspo cocona electronic instrumental
BeatmapID:3941994
BeatmapSetID:1374578

[Difficulty]
HPDrainRate:2
CircleSize:3
OverallDifficulty:4
ApproachRate:6
SliderMultiplier:1.4
SliderTickRate:1

[Events]
//Background and Video events
0,0,"db4zwqs-09446c1b-4cb7-4041-b546-48c69c1ec004.png",0,0
//Break Periods
2,105669,119420
//Storyboard Layer 0 (Background)
//Storyboard Layer 1 (Fail)
//Storyboard Layer 2 (Pass)
//Storyboard Layer 3 (Foreground)
//Storyboard Layer 4 (Overlay)
//Storyboard Sound Samples

[TimingPoints]
470,468.75,4,2,1,50,1,0
30470,-125,4,2,1,50,0,0
31407,-125,4,2,1,50,0,0
32227,-125,4,2,1,5,0,0
32344,-125,4,2,1,50,0,0
33282,-125,4,2,1,50,0,0
34220,-125,4,2,1,60,0,0
36095,-125,4,2,1,70,0,0
37970,-100,4,2,1,50,0,0
39141,-100,4,2,1,50,0,0
39376,-100,4,2,1,50,0,0
39610,-100,4,2,1,50,0,0
41954,-100,4,2,1,50,0,0
42188,-100,4,2,1,50,0,0
42891,-100,4,2,1,50,0,0
43595,-100,4,2,1,50,0,0
45235,-100,4,2,1,50,0,0
45470,-100,4,2,1,50,0,0
46641,-100,4,2,1,50,0,0
46876,-100,4,2,1,50,0,0
47110,-100,4,2,1,50,0,0
49454,-100,4,2,1,50,0,0
49688,-100,4,2,1,50,0,0
50391,-100,4,2,1,50,0,0
51095,-100,4,2,1,50,0,0
52970,-100,4,2,1,50,0,0
67032,-100,4,2,0,50,0,0
67501,-100,4,2,0,50,0,0
67970,-90.9090909090909,4,2,1,60,0,1
68204,-90.9090909090909,4,2,1,60,0,0
70782,-90.9090909090909,4,2,1,60,0,0
71134,-90.9090909090909,4,2,1,60,0,0
71720,-90.9090909090909,4,2,1,60,0,0
72657,-90.9090909090909,4,2,1,60,0,0
73595,-90.9090909090909,4,2,1,60,0,0
75470,-90.9090909090909,4,2,1,60,0,1
75704,-90.9090909090909,4,2,1,60,0,0
78282,-90.9090909090909,4,2,1,60,0,0
78634,-90.9090909090909,4,2,1,60,0,0
79220,-90.9090909090909,4,2,1,60,0,0
80157,-90.9090909090909,4,2,1,60,0,0
81095,-90.9090909090909,4,2,1,60,0,0
82970,-90.9090909090909,4,2,1,60,0,1
83204,-90.9090909090909,4,2,1,60,0,0
85079,-90.9090909090909,4,2,1,60,0,1
85313,-90.9090909090909,4,2,1,60,0,0
85548,-90.9090909090909,4,2,1,60,0,1
85782,-90.9090909090909,4,2,1,60,0,0
86720,-90.9090909090909,4,2,1,60,0,0
88595,-90.9090909090909,4,2,1,60,0,1
89532,-90.9090909090909,4,2,1,60,0,0
90470,-100,4,2,1,50,0,1
90938,-100,4,2,1,50,0,0
92579,-100,4,2,1,50,0,0
93282,-100,4,2,1,50,0,0
96095,-90.9090909090909,4,2,1,60,0,0
97032,-83.3333333333333,4,2,0,60,0,0
97501,-83.3333333333333,4,2,0,60,0,0
97970,-125,4,2,1,50,0,0
98907,-125,4,2,1,50,0,0
99844,-125,4,2,1,50,0,0
100782,-125,4,2,1,50,0,0
101720,-125,4,2,1,60,0,0
103595,-125,4,2,1,70,0,0
105470,-125,4,2,1,40,0,0
112970,-125,4,2,1,30,0,0
120470,-125,4,2,0,40,0,0
126212,-125,4,2,0,40,0,0
126563,-125,4,2,0,40,0,0
127501,-125,4,2,0,40,0,0
127970,-111.111111111111,4,2,0,50,0,0
130782,-111.111111111111,4,2,0,50,0,0
131720,-111.111111111111,4,1,0,50,0,0
132891,-111.111111111111,4,2,0,50,0,0
133126,-111.111111111111,4,2,0,50,0,0
133595,-111.111111111111,4,2,1,80,0,0
135001,-111.111111111111,4,2,1,50,0,0
135470,-83.3333333333333,4,2,1,80,0,1
139220,-83.3333333333333,4,2,1,80,0,1
140157,-83.3333333333333,4,2,1,80,0,1
141095,-83.3333333333333,4,2,1,80,0,1
142970,-83.3333333333333,4,2,1,80,0,1
146720,-83.3333333333333,4,2,1,80,0,1
147657,-83.3333333333333,4,2,1,80,0,1
148595,-83.3333333333333,4,2,1,80,0,1
150001,-83.3333333333333,4,2,1,80,0,0
150470,-83.3333333333333,4,2,1,80,0,1
151876,-83.3333333333333,4,2,1,80,0,1
153282,-83.3333333333333,4,2,1,80,0,1
154220,-83.3333333333333,4,2,1,80,0,1
155626,-83.3333333333333,4,2,1,80,0,1
157032,-83.3333333333333,4,2,1,80,0,0
157970,-100,4,2,1,60,0,1
158438,-100,4,2,1,60,0,0
160079,-100,4,2,1,60,0,0
160782,-100,4,2,1,60,0,0
163595,-83.3333333333333,4,2,1,80,0,0
164532,-83.3333333333333,4,2,0,80,0,0
165001,-83.3333333333333,4,2,0,80,0,0
165470,-125,4,2,1,50,0,0
166407,-125,4,2,1,50,0,0
167344,-125,4,2,1,50,0,0
168282,-125,4,2,1,50,0,0
169220,-125,4,2,1,55,0,0
171095,-125,4,2,1,60,0,0
172970,-100,4,2,1,50,0,0
174141,-100,4,2,1,50,0,0
174376,-100,4,2,1,50,0,0
174610,-100,4,2,1,50,0,0
176954,-100,4,2,1,50,0,0
177188,-100,4,2,1,50,0,0
177891,-100,4,2,1,50,0,0
178595,-100,4,2,1,50,0,0
180235,-100,4,2,1,50,0,0
180470,-100,4,2,1,50,0,0
181641,-100,4,2,1,50,0,0
181876,-100,4,2,1,50,0,0
182110,-100,4,2,1,50,0,0
184454,-100,4,2,1,50,0,0
184688,-100,4,2,1,50,0,0
185391,-100,4,2,1,50,0,0
186095,-100,4,2,1,50,0,0
187970,-100,4,2,1,50,0,0

[Colours]
Combo1 : 223,223,223
Combo2 : 199,3,3
Combo3 : 6,236,224
Combo4 : 236,74,79

[HitObjects]
54,0,30470,6,0,P|56:81|-12:222,1,224,2|2,1:2|1:2,0:0:0:0:
147,377,32345,2,0,P|202:318|348:278,1,224,2|2,1:2|1:2,0:0:0:0:
511,137,34220,6,0,P|521:93|511:24,1,112,6|0,1:2|3:0,0:0:0:0:
402,49,35157,2,0,P|358:35|294:-9,1,112,6|0,1:2|3:0,0:0:0:0:
192,19,36095,6,0,L|173:75,1,56,6|0,1:2|1:0,0:0:0:0:
207,116,36563,2,0,L|226:172,1,56,4|0,0:0|3:0,0:0:0:0:
202,220,37032,1,4,1:2:0:0:
312,199,37501,2,0,L|333:136,1,56,4|4,1:2|1:2,0:0:0:0:
397,95,37970,5,4,1:0:0:0:
397,95,38204,2,0,P|437:75|451:50,2,70,2|8|0,0:0|1:2|0:0,0:0:0:0:
411,177,38907,2,0,L|527:295,1,140,2|8,1:2|1:2,0:0:0:0:
478,357,39610,1,2,0:3:0:0:
478,357,39845,6,0,P|427:328|358:315,1,105,2|2,1:2|0:0,0:0:0:0:
265,356,40548,1,0,0:0:0:0:
265,356,40782,1,2,1:3:0:0:
186,257,41134,1,2,0:3:0:0:
214,134,41485,1,2,1:3:0:0:
171,61,41720,6,0,L|90:82,1,70,2|2,1:2|0:1,0:0:0:0:
22,101,42188,1,8,1:2:0:0:
68,262,42657,2,0,L|149:283,1,70,2|2,1:2|0:1,0:0:0:0:
216,306,43125,1,8,1:2:0:0:
134,158,43595,6,0,P|120:107|121:55,2,105,2|2|2,1:3|0:3|0:3,0:0:0:0:
64,204,44532,2,0,P|42:236|36:278,1,70,6|2,1:2|0:0,0:0:0:0:
74,341,45001,2,0,P|106:362|148:368,1,70,14|2,1:2|0:3,0:0:0:0:
200,311,45470,5,4,1:2:0:0:
200,311,45704,2,0,P|185:268|193:240,2,70,2|8|0,0:0|1:2|0:0,0:0:0:0:
276,347,46407,2,0,L|435:391,1,140,2|8,1:2|1:2,0:0:0:0:
457,315,47110,1,2,0:3:0:0:
457,315,47345,6,0,P|415:273|385:209,1,105,2|2,1:2|0:0,0:0:0:0:
449,122,48048,1,0,0:0:0:0:
449,122,48282,1,2,1:3:0:0:
363,29,48634,1,2,0:3:0:0:
238,49,48985,1,2,1:3:0:0:
165,5,49220,6,0,L|141:90,1,70,2|2,1:2|0:1,0:0:0:0:
121,150,49688,1,8,1:2:0:0:
44,299,50157,2,0,L|20:215,1,70,2|2,1:2|0:1,0:0:0:0:
0,151,50625,1,8,1:2:0:0:
131,46,51095,6,0,P|85:19|34:7,2,105,6|2|2,1:2|0:0|1:2,0:0:0:0:
174,130,52032,1,6,1:2:0:0:
174,130,52266,1,2,1:2:0:0:
174,130,52501,1,10,1:3:0:0:
304,236,52970,6,0,P|288:266|260:286,1,70,6|2,0:0|0:0,0:0:0:0:
197,231,53438,2,0,P|119:232|89:259,1,105,10|2,1:2|0:0,0:0:0:0:
34,354,54141,1,0,0:0:0:0:
114,378,54376,2,0,P|142:358|177:355,1,70,10|2,1:2|0:0,0:0:0:0:
264,336,54845,5,2,1:2:0:0:
264,336,55079,1,2,1:2:0:0:
264,336,55313,2,0,P|292:356|327:359,1,70,4|2,1:2|0:0,0:0:0:0:
364,284,55782,2,0,L|471:391,1,140,2|4,1:2|1:2,0:0:0:0:
506,219,56720,6,0,P|507:183|493:152,1,70,2|2,1:2|0:0,0:0:0:0:
412,171,57188,2,0,P|356:114|355:74,1,105,10|2,1:2|0:0,0:0:0:0:
442,3,57891,1,0,0:0:0:0:
508,54,58126,2,0,P|492:84|463:105,1,70,10|2,1:2|0:0,0:0:0:0:
399,155,58595,5,2,1:2:0:0:
399,155,58829,1,2,1:2:0:0:
399,155,59063,2,0,P|374:178|361:210,1,70,2|2,1:2|1:2,0:0:0:0:
389,290,59532,2,0,L|450:343,2,70,2|8|0,1:2|1:2|1:2,0:0:0:0:
223,309,60470,6,0,P|188:301|162:279,1,70,6|2,1:2|0:0,0:0:0:0:
84,249,60938,2,0,P|103:172|85:136,1,105,10|2,1:2|0:0,0:0:0:0:
23,47,61641,1,0,0:0:0:0:
95,4,61876,2,0,P|129:-6|162:0,1,70,10|2,1:2|0:0,0:0:0:0:
243,49,62345,5,2,1:2:0:0:
243,49,62579,1,2,1:2:0:0:
243,49,62813,2,0,P|211:65|191:93,1,70,4|2,1:2|0:0,0:0:0:0:
198,177,63282,2,0,L|51:216,1,140,2|4,1:2|1:2,0:0:0:0:
13,374,64220,6,0,P|47:384|80:378,1,70,2|2,1:2|0:0,0:0:0:0:
126,308,64688,2,0,P|202:330|224:363,1,105,10|2,1:2|0:0,0:0:0:0:
338,380,65391,1,0,0:0:0:0:
385,310,65626,2,0,P|377:275|354:249,1,70,10|2,1:2|0:0,0:0:0:0:
287,221,66095,5,2,1:2:0:0:
287,221,66329,1,2,1:2:0:0:
287,221,66563,2,0,P|275:187|281:153,1,70,2|2,1:2|1:2,0:0:0:0:
342,95,67032,2,0,L|399:152,1,70,2|0,1:2|1:2,0:0:0:0:
451,204,67501,1,4,1:2:0:0:
498,384,67970,6,0,P|443:362|406:361,1,77.0000023498536,4|0,1:0|0:0,0:0:0:0:
342,365,68438,1,8,1:2:0:0:
342,365,68673,1,2,0:0:0:0:
342,365,68907,2,0,P|286:351|277:258,1,154.000004699707,2|8,1:2|1:2,0:0:0:0:
330,194,69610,1,2,1:2:0:0:
281,115,69845,6,0,P|236:88|150:93,1,115.50000352478,2|2,1:2|0:0,0:0:0:0:
46,140,70548,1,0,0:0:0:0:
128,182,70782,1,2,1:2:0:0:
201,299,71134,1,2,1:2:0:0:
91,383,71485,1,2,1:2:0:0:
8,340,71720,6,0,P|63:355|117:279,1,154.000004699707,2|8,1:2|1:2,0:0:0:0:
85,202,72423,1,2,0:0:0:0:
85,202,72657,2,0,P|34:173|49:81,1,154.000004699707,2|8,1:2|1:2,0:0:0:0:
96,12,73360,1,2,1:2:0:0:
180,49,73595,6,0,P|207:99|207:156,2,115.50000352478,2|2|2,1:2|0:0|0:0,0:0:0:0:
260,3,74532,1,6,1:2:0:0:
260,3,74766,1,2,0:0:0:0:
260,3,75001,1,6,1:2:0:0:
364,155,75470,6,0,P|339:184|307:205,1,77.0000023498536,6|0,1:2|0:0,0:0:0:0:
229,248,75938,1,8,1:2:0:0:
229,248,76173,1,2,0:0:0:0:
229,248,76407,2,0,P|228:306|315:339,1,154.000004699707,2|8,1:2|1:2,0:0:0:0:
383,290,77110,1,2,1:2:0:0:
427,371,77345,6,0,P|443:316|483:276,1,115.50000352478,2|2,1:2|0:0,0:0:0:0:
501,138,78048,1,0,0:0:0:0:
447,62,78282,1,2,1:2:0:0:
359,169,78634,1,2,1:2:0:0:
224,136,78985,1,2,1:2:0:0:
212,44,79220,6,0,P|182:95|91:80,1,154.000004699707,2|8,1:2|1:2,0:0:0:0:
72,0,79923,1,2,0:0:0:0:
72,0,80157,2,0,P|15:14|5:107,1,154.000004699707,2|8,1:2|1:2,0:0:0:0:
65,166,80860,1,2,1:2:0:0:
107,248,81095,6,0,P|57:221|0:221,2,115.50000352478,2|2|2,1:2|0:0|1:2,0:0:0:0:
180,192,82032,1,6,1:2:0:0:
230,268,82266,1,2,1:2:0:0:
197,354,82501,1,6,1:2:0:0:
13,375,82970,6,0,P|37:325|85:309,1,77.0000023498536,4|2,1:0|0:0,0:0:0:0:
92,230,83438,2,0,P|163:261|209:237,1,115.50000352478,10|2,1:2|0:0,0:0:0:0:
295,153,84141,1,0,0:0:0:0:
211,113,84376,2,0,P|197:77|205:40,1,77.0000023498536,10|2,1:2|0:0,0:0:0:0:
289,0,84845,6,0,P|295:37|320:65,1,77.0000023498536,2|2,1:2|1:2,0:0:0:0:
354,151,85313,2,0,P|391:144|419:119,1,77.0000023498536,4|2,1:2|0:0,0:0:0:0:
502,72,85782,1,2,1:2:0:0:
502,72,86016,1,0,1:2:0:0:
502,72,86251,1,4,1:2:0:0:
399,225,86720,6,0,P|428:249|439:285,1,77.0000023498536,2|2,1:2|0:0,0:0:0:0:
510,345,87188,2,0,P|433:353|405:397,1,115.50000352478,10|2,1:2|0:0,0:0:0:0:
278,341,87891,1,0,0:0:0:0:
315,256,88126,2,0,P|298:220|267:200,1,77.0000023498536,10|2,1:2|0:0,0:0:0:0:
198,261,88595,5,2,1:2:0:0:
198,261,88829,1,2,1:2:0:0:
198,261,89063,2,0,P|201:298|184:332,1,77.0000023498536,2|2,1:2|1:2,0:0:0:0:
103,379,89532,2,0,L|25:351,2,77.0000023498536,2|8|0,1:2|1:2|1:2,1:2:0:0:
132,213,90470,6,0,P|178:174|204:167,2,70,6|2|10,1:2|0:0|0:0,0:0:0:0:
36,130,91290,1,2,0:0:0:0:
45,4,91641,2,0,P|100:29|127:29,1,70,0|10,0:0|0:0,0:0:0:0:
189,5,92110,1,0,0:0:0:0:
189,5,92345,5,2,0:0:0:0:
349,55,92813,1,8,0:0:0:0:
266,201,93282,2,0,P|295:291|347:338,1,140,2|8,0:0|0:0,0:0:0:0:
487,377,94220,6,0,P|512:322|512:295,2,70,2|2|10,0:0|0:0|0:0,0:0:0:0:
364,345,95040,1,2,0:0:0:0:
272,258,95391,2,0,P|215:279|196:298,1,70,0|10,0:0|0:0,0:0:0:0:
154,220,95860,1,0,0:0:0:0:
154,220,96095,6,0,P|170:189|214:162,1,77.0000023498536,6|2,1:2|1:2,0:0:0:0:
195,73,96563,2,0,P|228:62|278:74,1,77.0000023498536,6|2,1:2|1:2,0:0:0:0:
344,1,97032,1,2,1:2:0:0:
411,75,97266,1,0,1:0:0:0:
510,92,97501,1,4,1:0:0:0:
504,226,97970,6,0,P|425:229|299:136,1,224,2|2,1:2|1:2,0:0:0:0:
229,361,99845,2,0,P|217:251|143:169,1,224,2|2,1:2|1:2,0:0:0:0:
0,0,101720,6,0,P|-3:69|8:117,1,112,6|0,1:2|3:0,0:0:0:0:
100,170,102657,2,0,P|68:231|34:267,1,112,6|0,1:2|3:0,0:0:0:0:
24,374,103595,6,0,L|92:356,1,56,6|0,1:2|1:0,0:0:0:0:
130,378,104063,2,0,L|165:317,1,56,4|0,0:0|3:0,0:0:0:0:
155,273,104532,1,4,1:2:0:0:
220,181,105001,2,0,L|184:120,2,56,4|4|4,1:2|1:2|1:0,0:0:0:0:
502,371,120470,6,0,L|517:250,3,112,4|0|0|0,1:0|1:0|1:0|1:0,0:0:0:0:
423,196,122345,1,0,1:0:0:0:
488,105,122813,1,0,1:0:0:0:
400,35,123282,2,0,L|296:78,1,112,0|2,1:0|0:3,0:0:0:0:
192,37,124220,6,0,L|207:158,3,112,0|0|0|0,1:0|1:0|1:0|1:0,0:0:0:0:
132,232,126095,1,0,1:0:0:0:
36,174,126563,1,0,1:0:0:0:
4,281,127032,2,0,L|71:370,1,112,0|2,1:0|0:3,0:0:0:0:
197,374,127970,6,0,L|211:294,1,62.9999980773926,0|0,1:0|1:0,0:0:0:0:
222,250,128438,1,0,1:0:0:0:
100,283,128907,2,0,L|86:203,1,62.9999980773926,0|0,1:0|1:0,0:0:0:0:
75,159,129375,1,0,1:0:0:0:
103,35,129845,2,0,L|183:49,1,62.9999980773926,0|0,1:0|1:0,0:0:0:0:
177,107,130313,2,0,L|257:121,1,62.9999980773926,0|0,1:0|1:0,0:0:0:0:
278,68,130782,2,0,L|358:82,2,62.9999980773926,0|0|2,1:0|1:0|0:3,0:0:0:0:
206,172,131720,5,0,0:0:0:0:
256,192,131837,12,4,133595,1:2:0:0:
6,306,135001,5,4,3:0:0:0:
102,130,135470,6,0,P|148:76|139:40,1,83.9999974365235,4|0,1:0|0:0,0:0:0:0:
91,0,135938,1,8,1:2:0:0:
91,0,136173,1,2,0:0:0:0:
91,0,136407,2,0,P|10:48|3:123,1,167.999994873047,2|8,1:2|1:2,0:0:0:0:
41,208,137110,1,2,1:2:0:0:
115,139,137345,6,0,P|178:100|244:100,1,125.999996154785,2|2,1:2|0:0,0:0:0:0:
377,122,138048,1,0,0:0:0:0:
470,84,138282,1,2,1:2:0:0:
342,2,138634,1,2,1:2:0:0:
201,56,138985,1,2,1:2:0:0:
180,155,139220,6,0,P|260:203|267:278,1,167.999994873047,2|8,1:2|1:2,0:0:0:0:
239,370,139923,1,2,0:0:0:0:
239,370,140157,2,0,P|332:368|377:306,1,167.999994873047,2|8,1:2|1:2,0:0:0:0:
373,212,140860,1,2,1:2:0:0:
464,168,141095,6,0,P|459:105|484:48,2,125.999996154785,2|2|2,1:2|0:0|0:0,0:0:0:0:
507,258,142032,1,6,1:2:0:0:
507,258,142266,1,2,0:0:0:0:
507,258,142501,1,6,1:2:0:0:
316,191,142970,6,0,P|339:257|375:268,1,83.9999974365235,6|0,1:2|0:0,0:0:0:0:
445,314,143438,1,8,1:2:0:0:
445,314,143673,1,2,0:0:0:0:
445,314,143907,2,0,P|363:309|308:369,1,167.999994873047,2|8,1:2|1:2,0:0:0:0:
213,334,144610,1,2,1:2:0:0:
121,376,144845,6,0,P|72:334|50:277,1,125.999996154785,2|2,1:2|0:0,0:0:0:0:
139,155,145548,1,0,0:0:0:0:
48,111,145782,1,2,1:2:0:0:
157,6,146134,1,2,1:2:0:0:
305,30,146485,1,2,1:2:0:0:
366,110,146720,6,0,P|311:170|230:167,1,167.999994873047,2|8,1:2|1:2,0:0:0:0:
161,100,147423,1,2,0:0:0:0:
161,100,147657,2,0,P|116:168|141:246,1,167.999994873047,2|8,1:2|1:2,0:0:0:0:
196,330,148360,1,2,1:2:0:0:
111,383,148595,6,0,P|48:371|0:332,2,125.999996154785,2|2|2,1:2|0:0|1:2,0:0:0:0:
164,297,149532,1,6,1:2:0:0:
67,268,149766,1,2,1:2:0:0:
16,180,150001,1,6,1:2:0:0:
145,25,150470,6,0,P|181:44|210:74,1,83.9999974365235,4|2,1:0|0:0,0:0:0:0:
222,174,150938,2,0,P|276:180|355:135,1,125.999996154785,10|2,1:2|0:0,0:0:0:0:
425,28,151641,1,0,0:0:0:0:
425,28,151876,2,0,P|461:47|490:77,1,83.9999974365235,10|2,1:2|0:0,0:0:0:0:
508,177,152345,6,0,P|471:196|442:226,1,83.9999974365235,2|2,1:2|1:2,0:0:0:0:
342,215,152813,2,0,P|329:254|330:296,1,83.9999974365235,4|2,1:2|0:0,0:0:0:0:
395,374,153282,2,0,P|451:382|515:292,1,167.999994873047,2|4,1:2|1:2,0:0:0:0:
480,207,153985,1,2,0:0:0:0:
382,234,154220,6,0,P|340:236|300:224,1,83.9999974365235,2|2,1:2|0:0,0:0:0:0:
241,142,154688,2,0,P|191:163|145:242,1,125.999996154785,10|2,1:2|0:0,0:0:0:0:
179,369,155391,1,0,0:0:0:0:
78,382,155626,2,0,P|40:363|11:333,1,83.9999974365235,10|2,1:2|0:0,0:0:0:0:
37,235,156095,5,2,1:2:0:0:
37,235,156329,1,2,1:2:0:0:
37,235,156563,2,0,P|58:199|67:158,1,83.9999974365235,2|2,1:2|1:2,0:0:0:0:
40,60,157032,1,2,1:2:0:0:
40,60,157266,1,8,1:2:0:0:
40,60,157501,1,0,1:2:0:0:
180,152,157970,6,0,P|182:205|168:246,2,70,6|2|10,1:2|0:0|0:0,0:0:0:0:
130,35,158790,1,2,0:0:0:0:
251,4,159141,2,0,P|297:28|326:61,1,70,0|10,0:0|0:0,0:0:0:0:
335,125,159610,1,0,0:0:0:0:
335,125,159845,5,2,0:0:0:0:
495,75,160313,1,8,0:0:0:0:
459,239,160782,2,0,P|383:247|369:310,1,140,2|8,0:0|0:0,0:0:0:0:
512,384,161720,6,0,P|514:331|500:290,2,70,2|2|10,0:0|0:0|0:0,0:0:0:0:
393,341,162540,1,2,0:0:0:0:
322,236,162891,2,0,P|277:207|234:199,1,70,0|10,0:0|0:0,0:0:0:0:
181,208,163360,1,0,0:0:0:0:
181,208,163595,6,0,P|182:266|156:298,1,83.9999974365235,6|2,1:2|1:2,0:0:0:0:
128,378,164063,2,0,P|70:378|37:352,1,83.9999974365235,6|2,1:2|1:2,0:0:0:0:
0,276,164532,1,2,1:2:0:0:
43,185,164766,1,0,1:0:0:0:
6,90,165001,1,4,1:0:0:0:
108,3,165470,6,0,P|180:43|323:0,1,224,2|2,1:2|1:2,0:0:0:0:
490,149,167345,2,0,P|417:108|274:151,1,224,2|2,1:2|1:2,0:0:0:0:
68,190,169220,6,0,P|55:264|54:303,1,112,6|0,1:2|3:0,0:0:0:0:
143,367,170157,2,0,P|186:305|213:277,1,112,6|0,1:2|3:0,0:0:0:0:
301,345,171095,2,0,L|373:368,1,56,6|0,1:2|1:0,0:0:0:0:
388,318,171563,2,0,L|460:295,1,56,4|0,0:0|3:0,0:0:0:0:
491,326,172032,1,4,1:2:0:0:
509,215,172501,2,0,L|486:143,1,56,4|4,1:2|1:2,0:0:0:0:
466,81,172970,5,4,1:0:0:0:
466,81,173204,2,0,P|470:37|504:0,2,70,2|8|0,0:0|1:2|0:0,0:0:0:0:
409,143,173907,2,0,L|249:179,1,140,2|8,1:2|1:2,0:0:0:0:
232,10,174845,2,0,P|201:52|155:77,1,105,2|2,1:2|0:0,0:0:0:0:
36,54,175548,1,0,0:0:0:0:
36,54,175782,1,2,1:3:0:0:
2,175,176134,1,2,0:3:0:0:
87,267,176485,1,2,1:3:0:0:
66,348,176720,6,0,L|131:379,1,70,2|2,1:2|0:1,0:0:0:0:
206,344,177188,1,8,1:2:0:0:
348,254,177657,2,0,L|317:189,1,70,2|2,1:2|0:1,0:0:0:0:
352,114,178125,1,8,1:2:0:0:
185,89,178595,6,0,P|170:139|178:190,2,105,2|2|2,1:3|0:3|0:3,0:0:0:0:
247,33,179532,1,6,1:2:0:0:
247,33,179766,1,2,0:0:0:0:
247,33,180001,1,14,1:2:0:0:
85,78,180470,5,4,1:2:0:0:
85,78,180704,2,0,P|49:52|33:3,2,70,2|8|0,0:0|1:2|0:0,0:0:0:0:
169,78,181407,2,0,L|133:238,1,140,2|8,1:2|1:2,0:0:0:0:
15,330,182345,6,0,P|65:342|105:375,1,105,2|2,1:2|0:0,0:0:0:0:
230,357,183048,1,0,0:0:0:0:
230,357,183282,1,2,1:3:0:0:
353,381,183634,1,2,0:3:0:0:
470,334,183985,1,2,1:3:0:0:
451,251,184220,6,0,L|464:180,1,70,2|2,1:2|0:1,0:0:0:0:
481,100,184688,1,8,1:2:0:0:
326,33,185157,2,0,L|339:103,1,70,2|2,1:2|0:1,0:0:0:0:
356,184,185625,1,8,1:2:0:0:
298,342,186095,6,0,P|260:305|241:257,2,105,6|2|2,1:2|0:0|1:2,0:0:0:0:
375,309,187032,1,6,1:2:0:0:
375,309,187266,1,2,1:2:0:0:
375,309,187501,2,0,L|521:290,1,140,10|4,1:3|0:1,0:0:0:0:
