osu file format v14

[General]
AudioFilename: NNIMajestic Infection - Extend mixHardcore.mp3
AudioLeadIn: 0
PreviewTime: 249302
Countdown: 2
SampleSet: Soft
StackLeniency: 0.7
Mode: 3
LetterboxInBreaks: 1
StoryFireInFront: 0
EpilepsyWarning: 1
SpecialStyle: 0
WidescreenStoryboard: 1

[Editor]
DistanceSpacing: 0.9
BeatDivisor: 4
GridSize: 4
TimelineZoom: 2.300005

[Metadata]
Title:Majestic Infection - Extend mix
TitleUnicode:Majestic Infection - Extend mix
Artist:Rin
ArtistUnicode:Rin
Creator:BluOxy
Version:Infection
Source:Nico Nico Indies
Tags:NNI Rin ginsuke Hardcore
BeatmapID:1245439
BeatmapSetID:588253

[Difficulty]
HPDrainRate:7
CircleSize:4
OverallDifficulty:7
ApproachRate:9
SliderMultiplier:1.8
SliderTickRate:1

[Events]
//Background and Video events
0,0,"default.jpg",0,0
//Break Periods
2,421291,425544
//Storyboard Layer 0 (Background)
//Storyboard Layer 1 (Fail)
//Storyboard Layer 2 (Pass)
//Storyboard Layer 3 (Foreground)
Sprite,Foreground,Centre,"SB\BLACK.png",320,240 S,0,0,,5 F,0,0,390,1 M,0,0,947,320,240 F,0,390,12315,1,0
//Storyboard Sound Samples

[TimingPoints]
390,372.670807453416,4,2,0,20,1,0
23495,-100,4,2,0,20,0,0
24240,315.789473684211,4,2,1,50,1,0
30397,-100,4,2,1,30,0,0
30555,-100,4,2,1,50,0,0
31029,-100,4,2,1,10,0,0
31187,-100,4,2,1,50,0,0
40503,-100,4,2,1,30,0,0
40661,-100,4,2,1,50,0,0
41134,-100,4,2,1,10,0,0
41292,-100,4,2,1,50,0,0
44450,-100,4,2,1,50,0,0
49187,-100,4,2,1,30,0,0
49503,-100,4,2,1,50,0,0
49818,-100,4,2,1,30,0,0
50134,-100,4,2,1,50,0,0
50450,-100,4,2,1,30,0,0
50766,-100,4,2,1,50,0,0
51082,-100,4,2,1,30,0,0
51397,-100,4,2,1,50,0,0
60713,-100,4,2,1,30,0,0
60871,-100,4,2,1,50,0,0
61345,-100,4,2,1,10,0,0
61503,-100,4,2,1,50,0,0
64661,-100,4,1,1,60,0,0
65766,-200,4,1,1,60,0,0
65924,-57.1428571428571,4,1,1,60,0,0
66082,-200,4,1,1,60,0,0
66240,-57.1428571428571,4,1,1,60,0,0
66397,-100,4,1,1,60,0,0
66713,-100,4,1,2,60,0,0
67187,-100,4,1,1,60,0,0
68292,-57.1428571428571,4,1,1,60,0,0
68371,-200,4,1,1,60,0,0
68450,-100,4,1,1,60,0,0
68924,-100,4,1,2,60,0,0
69082,-100,4,1,1,60,0,0
69476,-100,4,1,2,60,0,0
69713,-100,4,1,1,60,0,0
70818,-200,4,1,1,60,0,0
70976,-57.1428571428571,4,1,1,60,0,0
71134,-200,4,1,1,60,0,0
71292,-57.1428571428571,4,1,1,60,0,0
71450,-100,4,1,1,60,0,0
71766,-100,4,1,2,60,0,0
72240,-100,4,1,1,60,0,0
73345,-57.1428571428571,4,1,1,60,0,0
73424,-200,4,1,1,60,0,0
73503,-100,4,1,1,60,0,0
73976,-100,4,1,2,60,0,0
74134,-57.1428571428571,4,1,1,60,0,0
74292,-200,4,1,1,60,0,0
74450,-57.1428571428571,4,1,1,60,0,0
74608,-200,4,1,1,60,0,0
74766,-100,4,1,1,60,0,0
79029,-100,4,1,2,60,0,0
79187,-100,4,1,1,60,0,0
83608,-100,4,1,1,60,0,0
84871,-100,4,1,1,60,0,0
94976,-100,4,1,1,60,0,0
95292,-100,4,1,1,60,0,0
97503,-100,4,1,1,60,0,0
97818,-100,4,1,1,60,0,0
100029,-100,4,1,1,60,0,0
100345,-100,4,1,1,60,0,0
102555,-100,4,1,1,60,0,0
102871,-100,4,1,1,60,0,0
105082,-100,4,1,1,60,0,0
112661,-100,4,1,1,60,0,0
112976,-100,4,1,1,60,0,0
115187,-100,4,1,1,60,0,0
120240,-100,4,1,1,60,0,0
124029,-100,4,1,1,60,0,0
125292,-100,4,1,1,60,0,0
130345,-100,4,1,1,60,0,0
134134,-100,4,1,1,60,0,0
135397,-100,4,1,1,60,0,0
145503,-100,4,2,1,60,0,0
153082,-100,4,2,1,60,0,0
155608,-100,4,2,1,60,0,0
156871,-100,4,2,1,60,0,0
164450,-100,4,2,1,60,0,0
166976,-100,4,2,1,60,0,0
187187,338.983050847458,4,2,1,60,1,0
198034,-100,4,2,1,60,0,0
208881,315.789473684211,4,2,1,60,1,0
218986,-100,4,2,1,60,0,0
227828,-100,4,2,1,60,0,0
229091,-100,4,2,1,60,0,0
239196,-100,4,2,1,60,0,0
246775,-100,4,2,1,60,0,0
248038,-100,4,2,1,60,0,0
249302,-100,4,2,1,60,0,1
264459,-100,4,2,1,60,0,1
266986,-100,4,2,1,60,0,1
267459,-100,4,2,1,60,0,1
267933,-100,4,2,1,60,0,1
268407,-100,4,2,1,60,0,1
268881,-100,4,2,1,60,0,1
269512,-100,4,2,1,60,0,0
279617,-100,4,2,1,60,0,0
289091,-100,4,2,1,60,0,0
289723,-100,4,2,1,60,0,0
299828,-100,4,2,1,60,0,0
309933,-100,4,2,1,60,0,0
320038,-100,4,2,1,60,0,0
322565,-100,4,2,1,60,0,0
330144,-100,4,2,1,60,0,0
333144,-100,4,2,1,60,0,0
350354,-100,4,2,1,60,0,0
359196,-100,4,2,1,60,0,0
360459,-100,4,2,1,60,0,0
369302,-100,4,2,1,60,0,0
370565,-100,4,2,1,60,0,0
380670,-100,4,2,1,60,0,0
385091,-100,4,2,1,60,0,0
385723,-100,4,2,1,60,0,0
388249,-100,4,2,1,60,0,0
389512,-100,4,2,1,60,0,0
390775,-100,4,2,1,60,0,1
400881,-100,4,2,1,60,0,1
410986,-100,4,2,1,60,0,1
416038,-100,4,2,1,60,0,1
421091,-192.307692307692,4,2,1,60,0,0
426144,600,4,2,1,60,1,0
435744,631.578947368421,4,2,1,60,1,0
438270,652.173913043478,4,2,1,60,1,0
439574,689.655172413793,4,2,1,60,1,0
440953,722.89156626506,4,2,1,60,1,0
443830,810.810810810811,4,2,1,60,1,0

[HitObjects]
192,192,390,128,0,762:0:0:0:0:
320,192,762,128,0,1135:0:0:0:0:
448,192,1135,128,0,1508:0:0:0:0:
320,192,1508,1,0,0:0:0:0:
64,192,1880,128,0,2253:0:0:0:0:
192,192,2253,1,0,0:0:0:0:
320,192,2626,128,0,2998:0:0:0:0:
192,192,2998,128,0,3371:0:0:0:0:
64,192,3371,128,0,3744:0:0:0:0:
192,192,3744,128,0,4116:0:0:0:0:
320,192,4116,128,0,4489:0:0:0:0:
64,192,4489,128,0,4862:0:0:0:0:
192,192,4675,128,0,4862:0:0:0:0:
448,192,4862,128,0,5234:0:0:0:0:
64,192,5234,128,0,5607:0:0:0:0:
448,192,5607,128,0,5980:0:0:0:0:
192,192,5793,128,0,5980:0:0:0:0:
320,192,5980,128,0,6352:0:0:0:0:
64,192,6166,128,0,6352:0:0:0:0:
192,192,6352,128,0,6725:0:0:0:0:
320,192,6725,128,0,7098:0:0:0:0:
448,192,7098,128,0,7470:0:0:0:0:
320,192,7470,1,0,0:0:0:0:
64,192,7843,128,0,8216:0:0:0:0:
192,192,8216,1,0,0:0:0:0:
320,192,8588,128,0,8961:0:0:0:0:
192,192,8961,128,0,9334:0:0:0:0:
64,192,9334,128,0,9706:0:0:0:0:
192,192,9706,128,0,10079:0:0:0:0:
320,192,10079,128,0,10452:0:0:0:0:
192,192,10452,128,0,10824:0:0:0:0:
448,192,10638,128,0,10824:0:0:0:0:
320,192,10824,128,0,11197:0:0:0:0:
192,192,11197,128,0,11570:0:0:0:0:
64,192,11570,128,0,11942:0:0:0:0:
320,192,11756,128,0,11942:0:0:0:0:
192,192,11942,128,0,12315:0:0:0:0:
448,192,12129,128,0,12315:0:0:0:0:
320,192,12315,128,0,12688:0:0:0:0:
192,192,12688,128,0,13060:0:0:0:0:
64,192,13060,128,0,13433:0:0:0:0:
192,192,13433,1,0,0:0:0:0:
448,192,13806,128,0,14178:0:0:0:0:
320,192,14178,1,0,0:0:0:0:
192,192,14551,128,0,14924:0:0:0:0:
320,192,14924,128,0,15296:0:0:0:0:
192,192,15296,128,0,15669:0:0:0:0:
448,192,15669,128,0,16042:0:0:0:0:
320,192,16042,128,0,16414:0:0:0:0:
192,192,16414,128,0,16787:0:0:0:0:
320,192,16601,128,0,16787:0:0:0:0:
64,192,16787,128,0,17160:0:0:0:0:
448,192,17160,128,0,17532:0:0:0:0:
64,192,17532,128,0,17905:0:0:0:0:
320,192,17719,128,0,17905:0:0:0:0:
192,192,17905,128,0,18278:0:0:0:0:
448,192,18091,128,0,18278:0:0:0:0:
64,192,18278,128,0,18650:0:0:0:0:
192,192,18650,128,0,19023:0:0:0:0:
320,192,19023,128,0,19396:0:0:0:0:
64,192,19396,128,0,19768:0:0:0:0:
448,192,19768,128,0,20141:0:0:0:0:
320,192,20141,128,0,20514:0:0:0:0:
192,192,20514,128,0,20886:0:0:0:0:
448,192,20886,128,0,21259:0:0:0:0:
64,192,21259,128,0,21632:0:0:0:0:
192,192,21632,128,0,22004:0:0:0:0:
320,192,22004,128,0,22377:0:0:0:0:
192,192,22377,128,0,22750:0:0:0:0:
448,192,22563,128,0,22750:0:0:0:0:
320,192,22750,128,0,23122:0:0:0:0:
192,192,23122,128,0,23495:0:0:0:0:
320,192,23495,1,0,0:0:0:0:
448,192,23495,1,0,0:0:0:0:
64,192,23542,1,0,0:0:0:0:
192,192,23588,1,0,0:0:0:0:
448,192,23588,1,0,0:0:0:0:
320,192,23635,1,0,0:0:0:0:
192,192,23681,1,0,0:0:0:0:
64,192,23681,1,0,0:0:0:0:
448,192,23728,1,0,0:0:0:0:
320,192,23775,1,0,0:0:0:0:
64,192,23775,1,0,0:0:0:0:
192,192,23821,1,0,0:0:0:0:
320,192,23868,1,0,0:0:0:0:
448,192,23868,1,0,0:0:0:0:
64,192,23914,1,0,0:0:0:0:
448,192,23961,1,0,0:0:0:0:
192,192,23961,1,0,0:0:0:0:
320,192,24008,1,0,0:0:0:0:
192,192,24054,1,0,0:0:0:0:
64,192,24054,1,0,0:0:0:0:
448,192,24101,1,0,0:0:0:0:
64,192,24147,1,0,0:0:0:0:
320,192,24147,1,0,0:0:0:0:
192,192,24194,1,0,0:0:0:0:
448,192,24240,1,8,0:0:0:0:
320,192,24240,1,2,0:0:0:0:
64,192,24555,1,2,0:0:0:0:
320,192,24555,1,0,0:0:0:0:
448,192,24713,1,8,0:0:0:0:
192,192,24871,1,0,0:0:0:0:
64,192,24871,1,2,0:0:0:0:
320,192,25029,1,0,0:0:0:0:
448,192,25187,1,2,0:0:0:0:
64,192,25345,1,8,0:0:0:0:
320,192,25503,1,0,0:0:0:0:
448,192,25503,1,0,0:0:0:0:
64,192,25818,1,2,0:0:0:0:
320,192,25818,1,0,0:0:0:0:
448,192,25976,1,8,0:0:0:0:
192,192,26134,1,0,0:0:0:0:
64,192,26134,1,2,0:0:0:0:
320,192,26292,1,0,0:0:0:0:
448,192,26450,1,2,0:0:0:0:
192,192,26450,1,0,0:0:0:0:
64,192,26608,1,0,0:0:0:0:
448,192,26766,128,2,27082:0:0:0:0:
192,192,26766,1,0,0:0:0:0:
64,192,27082,1,2,0:0:0:0:
64,192,27240,1,0,0:0:0:0:
448,192,27397,128,2,27713:0:0:0:0:
320,192,27397,1,0,0:0:0:0:
192,192,27555,1,0,0:0:0:0:
64,192,27713,1,2,0:0:0:0:
320,192,27871,1,0,0:0:0:0:
192,192,28029,1,0,0:0:0:0:
320,192,28029,128,2,29292:0:0:0:0:
64,192,28345,1,2,0:0:0:0:
192,192,28503,1,0,0:0:0:0:
64,192,28661,1,2,0:0:0:0:
192,192,28976,1,2,0:0:0:0:
64,192,29134,1,0,0:0:0:0:
448,192,29292,1,8,0:0:0:0:
192,192,29292,1,2,0:0:0:0:
448,192,29608,1,0,0:0:0:0:
192,192,29608,1,2,0:0:0:0:
64,192,29766,1,8,0:0:0:0:
192,192,29924,1,2,0:0:0:0:
448,192,29924,1,0,0:0:0:0:
320,192,30082,1,0,0:0:0:0:
192,192,30240,1,2,0:0:0:0:
64,192,30397,1,8,0:0:0:0:
192,192,30555,1,2,0:0:0:0:
448,192,30555,1,0,0:0:0:0:
192,192,30871,1,2,0:0:0:0:
448,192,30871,1,0,0:0:0:0:
64,192,31029,1,8,0:0:0:0:
448,192,31187,1,0,0:0:0:0:
192,192,31187,1,2,0:0:0:0:
320,192,31345,1,0,0:0:0:0:
192,192,31503,1,2,0:0:0:0:
448,192,31503,1,0,0:0:0:0:
64,192,31661,1,0,0:0:0:0:
192,192,31818,128,2,32134:0:0:0:0:
320,192,31818,1,0,0:0:0:0:
448,192,32134,1,2,0:0:0:0:
448,192,32292,1,0,0:0:0:0:
64,192,32450,1,0,0:0:0:0:
192,192,32450,128,2,32766:0:0:0:0:
320,192,32608,1,0,0:0:0:0:
448,192,32766,1,2,0:0:0:0:
64,192,32924,1,0,0:0:0:0:
320,192,33082,1,2,0:0:0:0:
448,192,33397,1,2,0:0:0:0:
320,192,33555,1,0,0:0:0:0:
448,192,33713,1,2,0:0:0:0:
320,192,34029,1,2,0:0:0:0:
448,192,34187,1,0,0:0:0:0:
192,192,34345,1,2,0:0:0:0:
320,192,34345,1,8,0:0:0:0:
192,192,34661,1,2,0:0:0:0:
448,192,34661,1,0,0:0:0:0:
320,192,34818,1,8,0:0:0:0:
192,192,34976,1,2,0:0:0:0:
64,192,34976,1,0,0:0:0:0:
320,192,35134,1,0,0:0:0:0:
192,192,35292,1,2,0:0:0:0:
64,192,35450,1,8,0:0:0:0:
320,192,35608,1,2,0:0:0:0:
192,192,35608,1,0,0:0:0:0:
320,192,35924,1,2,0:0:0:0:
64,192,35924,1,0,0:0:0:0:
448,192,36082,1,8,0:0:0:0:
192,192,36240,1,2,0:0:0:0:
64,192,36240,1,0,0:0:0:0:
320,192,36397,1,0,0:0:0:0:
192,192,36555,1,0,0:0:0:0:
448,192,36555,1,2,0:0:0:0:
64,192,36713,1,0,0:0:0:0:
448,192,36871,128,2,37187:0:0:0:0:
192,192,36871,1,0,0:0:0:0:
64,192,37187,1,2,0:0:0:0:
64,192,37345,1,0,0:0:0:0:
448,192,37503,128,2,37818:0:0:0:0:
320,192,37503,1,0,0:0:0:0:
192,192,37661,1,0,0:0:0:0:
64,192,37818,1,2,0:0:0:0:
320,192,37976,1,0,0:0:0:0:
192,192,38134,1,2,0:0:0:0:
320,192,38134,128,0,39397:0:0:0:0:
64,192,38450,1,2,0:0:0:0:
192,192,38608,1,0,0:0:0:0:
64,192,38766,1,2,0:0:0:0:
192,192,39082,1,2,0:0:0:0:
64,192,39240,1,0,0:0:0:0:
192,192,39397,1,2,0:0:0:0:
448,192,39397,1,8,0:0:0:0:
192,192,39713,1,2,0:0:0:0:
448,192,39713,1,0,0:0:0:0:
64,192,39871,1,8,0:0:0:0:
448,192,40029,1,0,0:0:0:0:
192,192,40029,1,2,0:0:0:0:
320,192,40187,1,0,0:0:0:0:
192,192,40345,1,2,0:0:0:0:
64,192,40503,1,8,0:0:0:0:
448,192,40661,1,0,0:0:0:0:
192,192,40661,1,2,0:0:0:0:
448,192,40976,1,0,0:0:0:0:
192,192,40976,1,2,0:0:0:0:
64,192,41134,1,8,0:0:0:0:
192,192,41292,1,2,0:0:0:0:
448,192,41292,1,0,0:0:0:0:
320,192,41450,1,0,0:0:0:0:
448,192,41608,1,0,0:0:0:0:
192,192,41608,1,2,0:0:0:0:
64,192,41766,1,0,0:0:0:0:
320,192,41924,1,0,0:0:0:0:
192,192,41924,128,2,42240:0:0:0:0:
64,192,42240,128,2,42555:0:0:0:0:
448,192,42240,1,0,0:0:0:0:
448,192,42397,1,0,0:0:0:0:
192,192,42555,1,2,0:0:0:0:
320,192,42713,1,0,0:0:0:0:
448,192,42871,1,2,0:0:0:0:
192,192,43029,1,0,0:0:0:0:
320,192,43187,1,2,0:0:0:0:
448,192,43503,1,2,0:0:0:0:
64,192,43503,128,0,44450:0:0:0:0:
320,192,43661,1,0,0:0:0:0:
448,192,43818,1,2,0:0:0:0:
320,192,44134,1,2,0:0:0:0:
448,192,44292,1,0,0:0:0:0:
320,192,44450,1,2,0:0:0:0:
192,192,44450,128,10,44766:0:0:0:0:
192,192,44924,1,0,0:0:0:0:
448,192,44924,1,8,0:0:0:0:
448,192,45082,128,2,45397:0:0:0:0:
448,192,45555,1,0,0:0:0:0:
64,192,45555,1,8,0:0:0:0:
64,192,45713,128,2,46029:0:0:0:0:
64,192,46187,1,0,0:0:0:0:
320,192,46187,1,8,0:0:0:0:
320,192,46345,128,2,46661:0:0:0:0:
192,192,46976,128,2,47292:0:0:0:0:
448,192,46976,1,0,0:0:0:0:
448,192,47608,128,2,47924:0:0:0:0:
64,192,47608,1,0,0:0:0:0:
64,192,48240,128,2,48555:0:0:0:0:
320,192,48240,1,0,0:0:0:0:
320,192,48871,128,2,49187:0:0:0:0:
192,192,48871,1,0,0:0:0:0:
320,192,49345,1,0,0:0:0:0:
192,192,49345,1,8,0:0:0:0:
192,192,49503,128,2,49818:0:0:0:0:
192,192,49976,1,0,0:0:0:0:
448,192,49976,1,8,0:0:0:0:
448,192,50134,128,2,50450:0:0:0:0:
448,192,50608,1,0,0:0:0:0:
64,192,50608,1,8,0:0:0:0:
64,192,50766,128,2,51082:0:0:0:0:
64,192,51240,1,0,0:0:0:0:
320,192,51240,1,8,0:0:0:0:
320,192,51397,128,2,51713:0:0:0:0:
192,192,52029,128,2,52345:0:0:0:0:
448,192,52029,1,0,0:0:0:0:
448,192,52661,128,2,52976:0:0:0:0:
64,192,52661,1,0,0:0:0:0:
64,192,53292,128,2,53608:0:0:0:0:
320,192,53292,1,0,0:0:0:0:
320,192,53924,128,2,54240:0:0:0:0:
192,192,53924,1,0,0:0:0:0:
192,192,54555,128,2,54871:0:0:0:0:
448,192,54555,1,8,0:0:0:0:
64,192,54555,1,4,0:0:0:0:
192,192,55029,1,0,0:0:0:0:
448,192,55029,1,8,0:0:0:0:
448,192,55187,128,2,55503:0:0:0:0:
64,192,55187,1,8,0:0:0:0:
448,192,55661,1,0,0:0:0:0:
64,192,55661,1,8,0:0:0:0:
64,192,55818,128,2,56134:0:0:0:0:
320,192,55818,1,8,0:0:0:0:
64,192,56292,1,0,0:0:0:0:
320,192,56292,1,8,0:0:0:0:
320,192,56450,128,2,56766:0:0:0:0:
192,192,56450,1,8,0:0:0:0:
192,192,57082,128,2,57397:0:0:0:0:
448,192,57082,1,0,0:0:0:0:
320,192,57240,1,0,0:0:0:0:
448,192,57397,1,0,0:0:0:0:
320,192,57555,1,0,0:0:0:0:
448,192,57713,128,2,58029:0:0:0:0:
64,192,57713,1,0,0:0:0:0:
192,192,57871,1,0,0:0:0:0:
64,192,58029,1,0,0:0:0:0:
192,192,58187,1,0,0:0:0:0:
64,192,58345,128,2,58661:0:0:0:0:
320,192,58345,1,0,0:0:0:0:
448,192,58503,1,0,0:0:0:0:
320,192,58661,1,0,0:0:0:0:
448,192,58818,1,0,0:0:0:0:
320,192,58976,128,2,59292:0:0:0:0:
192,192,58976,1,0,0:0:0:0:
64,192,59134,1,0,0:0:0:0:
192,192,59292,1,0,0:0:0:0:
64,192,59450,1,0,0:0:0:0:
192,192,59608,128,2,59924:0:0:0:0:
448,192,59608,1,8,0:0:0:0:
192,192,60082,1,0,0:0:0:0:
448,192,60082,1,8,0:0:0:0:
448,192,60240,128,2,60555:0:0:0:0:
64,192,60240,1,8,0:0:0:0:
448,192,60713,1,0,0:0:0:0:
64,192,60713,1,8,0:0:0:0:
320,192,60871,1,8,0:0:0:0:
64,192,60871,128,2,61187:0:0:0:0:
64,192,61345,1,0,0:0:0:0:
320,192,61345,1,8,0:0:0:0:
320,192,61503,128,2,61818:0:0:0:0:
192,192,61503,1,8,0:0:0:0:
192,192,62134,128,2,62450:0:0:0:0:
448,192,62134,1,0,0:0:0:0:
448,192,62766,128,2,63082:0:0:0:0:
64,192,62766,1,0,0:0:0:0:
64,192,63397,128,2,63713:0:0:0:0:
320,192,63397,1,0,0:0:0:0:
320,192,64029,128,2,64345:0:0:0:0:
192,192,64029,1,0,0:0:0:0:
448,192,64345,128,0,64661:0:0:0:0:
192,192,64661,1,8,0:0:0:0:
64,192,64661,1,4,0:0:0:0:
320,192,64661,1,0,0:0:0:0:
64,192,64818,1,0,0:0:0:0:
192,192,64976,1,0,0:0:0:0:
320,192,64976,1,8,0:0:0:0:
448,192,64976,1,0,0:0:0:0:
192,192,65134,1,0,0:0:0:0:
320,192,65292,1,0,0:0:0:0:
448,192,65292,1,8,0:0:0:0:
64,192,65292,1,0,0:0:0:0:
320,192,65450,1,0,0:0:0:0:
448,192,65608,1,0,0:0:0:0:
192,192,65608,1,0,0:0:0:0:
64,192,65608,1,8,0:0:0:0:
448,192,65766,1,0,0:0:0:0:
192,192,65766,1,4,0:0:0:0:
320,192,65766,1,8,0:0:0:0:
64,192,66082,1,4,0:0:0:0:
320,192,66082,1,0,0:0:0:0:
192,192,66082,1,8,0:0:0:0:
192,192,66397,1,0,0:0:0:0:
64,192,66397,1,8,0:0:0:0:
448,192,66397,1,4,0:0:0:0:
320,192,66555,1,2,0:0:0:0:
448,192,66555,1,0,0:0:0:0:
192,192,66713,1,8,0:0:0:0:
64,192,66713,1,0,0:0:0:0:
320,192,66766,1,8,0:0:0:0:
448,192,66766,1,0,0:0:0:0:
192,192,66818,1,8,0:0:0:0:
64,192,66818,1,0,0:0:0:0:
320,192,66871,1,8,0:0:0:0:
448,192,66871,1,0,0:0:0:0:
448,192,67029,1,0,0:0:0:0:
320,192,67029,1,8,0:0:0:0:
192,192,67082,1,8,0:0:0:0:
64,192,67082,1,0,0:0:0:0:
320,192,67134,1,8,0:0:0:0:
448,192,67134,1,0,0:0:0:0:
448,192,67187,1,4,0:0:0:0:
192,192,67187,1,0,0:0:0:0:
64,192,67187,1,8,0:0:0:0:
64,192,67345,1,0,0:0:0:0:
192,192,67503,1,0,0:0:0:0:
320,192,67503,1,8,0:0:0:0:
448,192,67503,1,0,0:0:0:0:
320,192,67661,1,0,0:0:0:0:
192,192,67818,1,0,0:0:0:0:
64,192,67818,1,8,0:0:0:0:
448,192,67818,1,0,0:0:0:0:
192,192,67976,1,0,0:0:0:0:
320,192,67976,1,8,0:0:0:0:
320,192,68134,1,0,0:0:0:0:
448,192,68134,1,8,0:0:0:0:
64,192,68134,1,0,0:0:0:0:
64,192,68292,128,4,68450:0:0:0:0:
192,192,68292,128,8,68450:0:0:0:0:
320,192,68292,128,0,68450:0:0:0:0:
448,192,68608,1,0,0:0:0:0:
320,192,68608,1,8,0:0:0:0:
192,192,68608,1,0,0:0:0:0:
448,192,68766,1,0,0:0:0:0:
64,192,68924,1,8,0:0:0:0:
192,192,68976,1,8,0:0:0:0:
320,192,69029,1,8,0:0:0:0:
192,192,69082,1,0,0:0:0:0:
64,192,69082,1,8,0:0:0:0:
448,192,69082,1,4,0:0:0:0:
192,192,69240,1,0,0:0:0:0:
320,192,69240,1,0,0:0:0:0:
320,192,69397,1,8,0:0:0:0:
64,192,69397,1,4,0:0:0:0:
448,192,69476,1,0,0:0:0:0:
192,192,69476,1,8,0:0:0:0:
320,192,69555,1,8,0:0:0:0:
64,192,69555,1,0,0:0:0:0:
448,192,69634,1,0,0:0:0:0:
192,192,69634,1,8,0:0:0:0:
320,192,69713,1,0,0:0:0:0:
64,192,69713,1,4,0:0:0:0:
192,192,69713,1,8,0:0:0:0:
64,192,69871,1,0,0:0:0:0:
448,192,70029,1,0,0:0:0:0:
320,192,70029,1,8,0:0:0:0:
192,192,70029,1,0,0:0:0:0:
192,192,70187,1,0,0:0:0:0:
64,192,70345,1,0,0:0:0:0:
448,192,70345,1,8,0:0:0:0:
320,192,70345,1,0,0:0:0:0:
320,192,70503,1,0,0:0:0:0:
64,192,70661,1,8,0:0:0:0:
192,192,70661,1,0,0:0:0:0:
448,192,70661,1,0,0:0:0:0:
320,192,70818,1,8,0:0:0:0:
192,192,70818,1,4,0:0:0:0:
448,192,70818,1,0,0:0:0:0:
192,192,71134,1,8,0:0:0:0:
320,192,71134,1,0,0:0:0:0:
64,192,71134,1,4,0:0:0:0:
448,192,71450,1,4,0:0:0:0:
64,192,71450,1,8,0:0:0:0:
192,192,71450,1,0,0:0:0:0:
448,192,71608,1,0,0:0:0:0:
320,192,71608,1,0,0:0:0:0:
448,192,71766,1,0,0:0:0:0:
320,192,71766,1,8,0:0:0:0:
64,192,71818,1,0,0:0:0:0:
192,192,71818,1,8,0:0:0:0:
448,192,71871,1,0,0:0:0:0:
320,192,71871,1,8,0:0:0:0:
64,192,71924,1,0,0:0:0:0:
192,192,71924,1,8,0:0:0:0:
192,192,72082,1,8,0:0:0:0:
64,192,72082,1,0,0:0:0:0:
448,192,72134,1,0,0:0:0:0:
320,192,72134,1,8,0:0:0:0:
64,192,72187,1,0,0:0:0:0:
192,192,72187,1,8,0:0:0:0:
448,192,72240,1,8,0:0:0:0:
320,192,72240,1,4,0:0:0:0:
64,192,72240,1,0,0:0:0:0:
448,192,72397,1,0,0:0:0:0:
64,192,72555,1,4,0:0:0:0:
192,192,72555,1,8,0:0:0:0:
320,192,72555,1,0,0:0:0:0:
192,192,72713,1,0,0:0:0:0:
64,192,72871,1,0,0:0:0:0:
448,192,72871,1,8,0:0:0:0:
320,192,72871,1,4,0:0:0:0:
320,192,73029,1,0,0:0:0:0:
448,192,73187,1,4,0:0:0:0:
64,192,73187,1,8,0:0:0:0:
192,192,73187,1,0,0:0:0:0:
192,192,73345,128,4,73503:0:0:0:0:
320,192,73345,128,0,73503:0:0:0:0:
448,192,73345,128,0,73503:0:0:0:0:
320,192,73661,1,0,0:0:0:0:
192,192,73661,1,8,0:0:0:0:
64,192,73661,1,0,0:0:0:0:
64,192,73818,1,0,0:0:0:0:
448,192,73976,1,8,0:0:0:0:
320,192,74029,1,8,0:0:0:0:
192,192,74082,1,8,0:0:0:0:
64,192,74134,1,0,0:0:0:0:
448,192,74134,1,0,0:0:0:0:
320,192,74134,1,4,0:0:0:0:
64,192,74371,1,0,0:0:0:0:
192,192,74371,1,0,0:0:0:0:
448,192,74371,1,4,0:0:0:0:
64,192,74608,1,4,0:0:0:0:
320,192,74608,1,0,0:0:0:0:
192,192,74608,1,0,0:0:0:0:
448,192,74766,1,8,0:0:0:0:
320,192,74766,1,4,0:0:0:0:
64,192,74766,1,0,0:0:0:0:
448,192,74924,1,0,0:0:0:0:
320,192,75082,1,0,0:0:0:0:
192,192,75082,1,8,0:0:0:0:
64,192,75082,1,8,0:2:0:0:
192,192,75240,1,0,0:0:0:0:
64,192,75397,1,0,0:0:0:0:
320,192,75397,1,8,0:0:0:0:
320,192,75555,1,0,0:0:0:0:
192,192,75713,1,0,0:0:0:0:
64,192,75713,1,8,0:0:0:0:
448,192,75713,1,8,0:2:0:0:
64,192,75871,1,0,0:0:0:0:
192,192,76029,1,0,0:0:0:0:
320,192,76029,1,8,0:0:0:0:
192,192,76187,1,0,0:0:0:0:
320,192,76345,1,8,0:2:0:0:
448,192,76345,1,8,0:0:0:0:
64,192,76345,1,0,0:0:0:0:
448,192,76503,1,0,0:0:0:0:
64,192,76661,1,0,0:0:0:0:
320,192,76661,1,8,0:0:0:0:
64,192,76818,1,0,0:0:0:0:
192,192,76818,1,0,0:0:0:0:
320,192,76976,1,8,0:0:0:0:
192,192,76976,1,8,0:2:0:0:
448,192,76976,1,0,0:0:0:0:
320,192,77134,1,0,0:0:0:0:
192,192,77134,1,0,0:0:0:0:
64,192,77292,1,0,0:0:0:0:
192,192,77292,1,8,0:0:0:0:
64,192,77450,1,0,0:0:0:0:
320,192,77608,1,8,0:0:0:0:
448,192,77608,1,0,0:0:0:0:
192,192,77608,1,8,0:2:0:0:
320,192,77766,1,0,0:0:0:0:
448,192,77924,1,8,0:0:0:0:
192,192,77924,1,0,0:0:0:0:
192,192,78082,1,0,0:0:0:0:
320,192,78240,1,8,0:2:0:0:
448,192,78240,1,8,0:0:0:0:
64,192,78240,1,0,0:0:0:0:
448,192,78397,1,0,0:0:0:0:
320,192,78555,1,8,0:0:0:0:
192,192,78555,1,0,0:0:0:0:
320,192,78713,1,0,0:0:0:0:
64,192,78871,1,8,0:0:0:0:
448,192,78871,1,8,0:2:0:0:
192,192,78871,1,0,0:0:0:0:
64,192,79029,1,8,0:0:0:0:
192,192,79082,1,8,0:0:0:0:
320,192,79134,1,8,0:0:0:0:
448,192,79187,1,0,0:0:0:0:
64,192,79187,1,8,0:0:0:0:
320,192,79345,1,0,0:0:0:0:
192,192,79424,1,8,0:0:0:0:
64,192,79424,1,0,0:0:0:0:
448,192,79503,1,8,0:2:0:0:
192,192,79661,1,0,0:0:0:0:
320,192,79661,1,8,0:0:0:0:
320,192,79818,1,4,0:0:0:0:
448,192,79818,1,8,0:0:0:0:
64,192,79818,1,0,0:0:0:0:
448,192,79976,1,0,0:0:0:0:
320,192,80134,1,0,0:0:0:0:
64,192,80134,1,8,0:2:0:0:
192,192,80134,1,8,0:0:0:0:
192,192,80292,1,0,0:0:0:0:
320,192,80450,1,0,0:0:0:0:
64,192,80450,1,0,0:0:0:0:
320,192,80608,1,0,0:0:0:0:
448,192,80766,1,0,0:0:0:0:
64,192,80766,1,0,0:0:0:0:
192,192,80766,1,0,0:0:0:0:
64,192,80924,1,0,0:0:0:0:
320,192,81082,1,0,0:0:0:0:
192,192,81082,1,0,0:0:0:0:
192,192,81240,1,0,0:0:0:0:
320,192,81397,1,0,0:0:0:0:
64,192,81397,1,0,0:0:0:0:
448,192,81397,1,0,0:0:0:0:
448,192,81555,1,0,0:0:0:0:
320,192,81713,1,0,0:0:0:0:
64,192,81713,1,0,0:0:0:0:
64,192,81871,1,0,0:0:0:0:
192,192,81871,1,0,0:0:0:0:
320,192,82029,1,0,0:0:0:0:
448,192,82029,1,0,0:0:0:0:
192,192,82029,1,0,0:0:0:0:
320,192,82187,1,0,0:0:0:0:
192,192,82187,1,0,0:0:0:0:
64,192,82345,1,0,0:0:0:0:
192,192,82345,1,0,0:0:0:0:
64,192,82503,1,0,0:0:0:0:
320,192,82661,1,0,0:0:0:0:
448,192,82661,1,0,0:0:0:0:
192,192,82661,1,0,0:0:0:0:
320,192,82818,1,0,0:0:0:0:
448,192,82976,1,0,0:0:0:0:
192,192,82976,1,0,0:0:0:0:
192,192,83134,1,0,0:0:0:0:
320,192,83292,1,0,0:0:0:0:
448,192,83292,1,0,0:0:0:0:
64,192,83292,1,0,0:0:0:0:
448,192,83450,1,0,0:0:0:0:
320,192,83608,1,0,0:0:0:0:
192,192,83608,1,0,0:0:0:0:
320,192,83766,1,0,0:0:0:0:
448,192,83766,1,0,0:0:0:0:
64,192,83924,1,0,0:0:0:0:
448,192,83924,1,0,0:0:0:0:
192,192,83924,1,0,0:0:0:0:
64,192,84082,1,0,0:0:0:0:
192,192,84082,1,0,0:0:0:0:
320,192,84161,1,0,0:0:0:0:
448,192,84161,1,0,0:0:0:0:
64,192,84240,1,0,0:0:0:0:
192,192,84240,1,0,0:0:0:0:
320,192,84318,1,0,0:0:0:0:
64,192,84397,1,0,0:0:0:0:
448,192,84397,1,0,0:0:0:0:
192,192,84397,1,0,0:0:0:0:
192,192,84555,128,0,84634:0:0:0:0:
320,192,84555,128,0,84634:0:0:0:0:
448,192,84555,128,0,84634:0:0:0:0:
320,192,84713,128,0,84792:0:0:0:0:
192,192,84713,128,0,84792:0:0:0:0:
64,192,84713,128,0,84792:0:0:0:0:
320,192,84871,1,0,0:0:0:0:
448,192,84871,1,0,0:0:0:0:
64,192,84871,1,0,0:0:0:0:
448,192,85029,1,0,0:0:0:0:
320,192,85187,1,0,0:0:0:0:
192,192,85187,1,0,0:0:0:0:
64,192,85187,1,0,0:0:0:0:
192,192,85345,1,0,0:0:0:0:
64,192,85503,1,0,0:0:0:0:
320,192,85503,1,0,0:0:0:0:
64,192,85661,1,0,0:0:0:0:
320,192,85818,1,0,0:0:0:0:
192,192,85818,1,0,0:0:0:0:
448,192,85818,1,0,0:0:0:0:
320,192,85976,1,0,0:0:0:0:
64,192,86134,1,0,0:0:0:0:
192,192,86134,1,0,0:0:0:0:
192,192,86292,1,0,0:0:0:0:
448,192,86450,1,0,0:0:0:0:
320,192,86450,1,0,0:0:0:0:
64,192,86450,1,0,0:0:0:0:
448,192,86608,1,0,0:0:0:0:
320,192,86766,1,0,0:0:0:0:
64,192,86766,1,0,0:0:0:0:
320,192,86924,1,0,0:0:0:0:
448,192,86924,1,0,0:0:0:0:
64,192,87082,1,0,0:0:0:0:
192,192,87082,1,0,0:0:0:0:
448,192,87082,1,0,0:0:0:0:
192,192,87240,1,0,0:0:0:0:
320,192,87240,1,0,0:0:0:0:
64,192,87397,1,0,0:0:0:0:
192,192,87397,1,0,0:0:0:0:
64,192,87555,1,0,0:0:0:0:
448,192,87713,1,0,0:0:0:0:
192,192,87713,1,0,0:0:0:0:
320,192,87713,1,0,0:0:0:0:
320,192,87871,1,0,0:0:0:0:
448,192,88029,1,0,0:0:0:0:
192,192,88029,1,0,0:0:0:0:
448,192,88187,1,0,0:0:0:0:
320,192,88345,1,0,0:0:0:0:
192,192,88345,1,0,0:0:0:0:
64,192,88345,1,0,0:0:0:0:
192,192,88503,1,0,0:0:0:0:
448,192,88661,1,0,0:0:0:0:
320,192,88661,1,0,0:0:0:0:
320,192,88818,1,0,0:0:0:0:
192,192,88976,1,0,0:0:0:0:
448,192,88976,1,0,0:0:0:0:
64,192,88976,1,0,0:0:0:0:
64,192,89134,1,0,0:0:0:0:
192,192,89187,1,0,0:0:0:0:
320,192,89240,1,0,0:0:0:0:
448,192,89292,1,0,0:0:0:0:
64,192,89292,1,0,0:0:0:0:
192,192,89450,1,0,0:0:0:0:
448,192,89529,1,0,0:0:0:0:
320,192,89529,1,0,0:0:0:0:
64,192,89608,1,0,0:0:0:0:
192,192,89766,1,0,0:0:0:0:
320,192,89766,1,0,0:0:0:0:
320,192,89924,1,0,0:0:0:0:
64,192,89924,1,0,0:0:0:0:
448,192,89924,1,0,0:0:0:0:
448,192,90082,1,0,0:0:0:0:
64,192,90240,1,0,0:0:0:0:
320,192,90240,1,0,0:0:0:0:
192,192,90240,1,0,0:0:0:0:
192,192,90397,1,0,0:0:0:0:
320,192,90555,1,0,0:0:0:0:
64,192,90555,1,0,0:0:0:0:
64,192,90713,1,0,0:0:0:0:
192,192,90871,1,0,0:0:0:0:
448,192,90871,1,0,0:0:0:0:
320,192,90871,1,0,0:0:0:0:
320,192,91029,1,0,0:0:0:0:
192,192,91187,1,0,0:0:0:0:
64,192,91187,1,0,0:0:0:0:
192,192,91345,1,0,0:0:0:0:
320,192,91503,1,0,0:0:0:0:
448,192,91503,1,0,0:0:0:0:
64,192,91503,1,0,0:0:0:0:
448,192,91661,1,0,0:0:0:0:
320,192,91818,1,0,0:0:0:0:
64,192,91818,1,0,0:0:0:0:
448,192,91976,1,0,0:0:0:0:
320,192,91976,1,0,0:0:0:0:
192,192,92134,1,0,0:0:0:0:
448,192,92134,1,0,0:0:0:0:
64,192,92134,1,0,0:0:0:0:
192,192,92292,1,0,0:0:0:0:
320,192,92292,1,0,0:0:0:0:
192,192,92450,1,0,0:0:0:0:
64,192,92450,1,0,0:0:0:0:
448,192,92450,1,0,0:0:0:0:
64,192,92608,1,0,0:0:0:0:
320,192,92766,1,0,0:0:0:0:
192,192,92766,1,0,0:0:0:0:
448,192,92766,1,0,0:0:0:0:
192,192,92924,1,0,0:0:0:0:
448,192,93082,1,0,0:0:0:0:
320,192,93082,1,0,0:0:0:0:
64,192,93082,1,0,0:0:0:0:
448,192,93240,1,0,0:0:0:0:
320,192,93397,1,0,0:0:0:0:
64,192,93397,1,0,0:0:0:0:
192,192,93397,1,0,0:0:0:0:
320,192,93555,1,0,0:0:0:0:
448,192,93713,1,0,0:0:0:0:
64,192,93713,1,0,0:0:0:0:
192,192,93713,1,0,0:0:0:0:
320,192,93792,1,0,0:0:0:0:
192,192,93871,1,0,0:0:0:0:
64,192,93950,1,0,0:0:0:0:
192,192,94029,1,0,0:0:0:0:
320,192,94029,1,0,0:0:0:0:
448,192,94029,1,0,0:0:0:0:
64,192,94108,1,0,0:0:0:0:
192,192,94187,1,0,0:0:0:0:
320,192,94266,1,0,0:0:0:0:
448,192,94345,1,0,0:0:0:0:
192,192,94345,1,0,0:0:0:0:
64,192,94345,1,0,0:0:0:0:
320,192,94424,1,0,0:0:0:0:
192,192,94503,1,0,0:0:0:0:
64,192,94582,1,0,0:0:0:0:
192,192,94661,1,0,0:0:0:0:
320,192,94661,1,0,0:0:0:0:
448,192,94661,1,0,0:0:0:0:
64,192,94740,1,0,0:0:0:0:
192,192,94818,1,0,0:0:0:0:
320,192,94897,1,0,0:0:0:0:
64,192,94976,128,0,95134:0:0:0:0:
192,192,94976,128,0,95134:0:0:0:0:
448,192,94976,128,0,95134:0:0:0:0:
192,192,95292,1,0,0:0:0:0:
320,192,95292,1,0,0:0:0:0:
448,192,95292,1,0,0:0:0:0:
64,192,95766,1,0,0:0:0:0:
448,192,95766,1,0,0:0:0:0:
320,192,95766,1,0,0:0:0:0:
64,192,96240,1,0,0:0:0:0:
192,192,96240,1,0,0:0:0:0:
448,192,96240,1,0,0:0:0:0:
320,192,96713,1,0,0:0:0:0:
192,192,96713,1,0,0:0:0:0:
64,192,96713,1,0,0:0:0:0:
448,192,97029,1,0,0:0:0:0:
320,192,97029,1,0,0:0:0:0:
192,192,97029,1,0,0:0:0:0:
64,192,97345,1,0,0:0:0:0:
320,192,97345,1,0,0:0:0:0:
448,192,97345,1,0,0:0:0:0:
192,192,97503,1,0,0:0:0:0:
64,192,97503,1,0,0:0:0:0:
448,192,97503,1,0,0:0:0:0:
320,192,97818,1,0,0:0:0:0:
448,192,97818,1,0,0:0:0:0:
192,192,97818,1,0,0:0:0:0:
64,192,97976,1,0,0:0:0:0:
320,192,98134,1,0,0:0:0:0:
448,192,98134,1,0,0:0:0:0:
320,192,98292,1,0,0:0:0:0:
192,192,98292,1,0,0:0:0:0:
64,192,98292,1,0,0:0:0:0:
192,192,98766,1,0,0:0:0:0:
64,192,98766,1,0,0:0:0:0:
448,192,98766,1,0,0:0:0:0:
64,192,99240,1,0,0:0:0:0:
320,192,99240,1,0,0:0:0:0:
448,192,99240,1,0,0:0:0:0:
192,192,99397,1,0,0:0:0:0:
192,192,99555,1,0,0:0:0:0:
320,192,99555,1,0,0:0:0:0:
448,192,99555,1,0,0:0:0:0:
192,192,99713,1,0,0:0:0:0:
64,192,99713,1,0,0:0:0:0:
448,192,99792,1,0,0:0:0:0:
320,192,99792,1,0,0:0:0:0:
192,192,99871,1,0,0:0:0:0:
64,192,99871,1,0,0:0:0:0:
320,192,99950,1,0,0:0:0:0:
448,192,99950,1,0,0:0:0:0:
192,192,100029,1,0,0:0:0:0:
64,192,100029,1,0,0:0:0:0:
320,192,100187,1,0,0:0:0:0:
64,192,100345,1,0,0:0:0:0:
192,192,100345,1,0,0:0:0:0:
448,192,100345,1,0,0:0:0:0:
320,192,100503,1,0,0:0:0:0:
192,192,100661,1,0,0:0:0:0:
448,192,100818,1,0,0:0:0:0:
320,192,100818,1,0,0:0:0:0:
64,192,100818,1,0,0:0:0:0:
192,192,100976,1,0,0:0:0:0:
320,192,101134,1,0,0:0:0:0:
192,192,101292,1,0,0:0:0:0:
64,192,101292,1,0,0:0:0:0:
448,192,101292,1,0,0:0:0:0:
320,192,101450,1,0,0:0:0:0:
448,192,101608,1,0,0:0:0:0:
320,192,101766,1,0,0:0:0:0:
192,192,101766,1,0,0:0:0:0:
64,192,101766,1,0,0:0:0:0:
192,192,102082,1,0,0:0:0:0:
448,192,102082,1,0,0:0:0:0:
320,192,102082,1,0,0:0:0:0:
192,192,102240,1,0,0:0:0:0:
448,192,102397,1,0,0:0:0:0:
64,192,102397,1,0,0:0:0:0:
320,192,102397,1,0,0:0:0:0:
320,192,102555,1,0,0:0:0:0:
192,192,102713,1,0,0:0:0:0:
64,192,102792,1,0,0:0:0:0:
192,192,102871,1,0,0:0:0:0:
320,192,102871,1,0,0:0:0:0:
448,192,102871,1,0,0:0:0:0:
64,192,103029,1,0,0:0:0:0:
192,192,103029,1,0,0:0:0:0:
320,192,103187,1,0,0:0:0:0:
448,192,103266,1,0,0:0:0:0:
192,192,103345,1,0,0:0:0:0:
320,192,103345,1,0,0:0:0:0:
64,192,103345,1,0,0:0:0:0:
320,192,103503,1,0,0:0:0:0:
448,192,103503,1,0,0:0:0:0:
192,192,103661,1,0,0:0:0:0:
320,192,103740,1,0,0:0:0:0:
448,192,103818,1,0,0:0:0:0:
64,192,103818,1,0,0:0:0:0:
192,192,103818,1,0,0:0:0:0:
448,192,103976,1,0,0:0:0:0:
64,192,104055,1,0,0:0:0:0:
192,192,104055,1,0,0:0:0:0:
320,192,104134,1,0,0:0:0:0:
320,192,104292,1,0,0:0:0:0:
448,192,104292,1,0,0:0:0:0:
64,192,104292,1,0,0:0:0:0:
320,192,104450,1,0,0:0:0:0:
192,192,104529,1,0,0:0:0:0:
448,192,104608,1,0,0:0:0:0:
64,192,104608,1,0,0:0:0:0:
320,192,104608,1,0,0:0:0:0:
192,192,104766,1,0,0:0:0:0:
64,192,104766,1,0,0:0:0:0:
320,192,104845,1,0,0:0:0:0:
448,192,104845,1,0,0:0:0:0:
192,192,104924,1,0,0:0:0:0:
64,192,104924,1,0,0:0:0:0:
320,192,105003,1,0,0:0:0:0:
448,192,105003,1,0,0:0:0:0:
448,192,105082,1,0,0:0:0:0:
192,192,105082,1,0,0:0:0:0:
64,192,105082,1,0,0:0:0:0:
64,192,105240,1,0,0:0:0:0:
192,192,105397,1,0,0:0:0:0:
448,192,105397,1,0,0:0:0:0:
320,192,105397,1,0,0:0:0:0:
320,192,105555,1,0,0:0:0:0:
192,192,105713,1,0,0:0:0:0:
64,192,105713,1,0,0:0:0:0:
320,192,105871,1,0,0:0:0:0:
192,192,105871,1,0,0:0:0:0:
448,192,106029,1,0,0:0:0:0:
64,192,106029,1,0,0:0:0:0:
448,192,106187,1,0,0:0:0:0:
320,192,106345,1,0,0:0:0:0:
192,192,106345,1,0,0:0:0:0:
64,192,106345,1,0,0:0:0:0:
192,192,106503,1,0,0:0:0:0:
320,192,106661,1,0,0:0:0:0:
448,192,106661,1,0,0:0:0:0:
320,192,106818,1,0,0:0:0:0:
192,192,106818,1,0,0:0:0:0:
64,192,106976,1,0,0:0:0:0:
448,192,106976,1,0,0:0:0:0:
64,192,107134,1,0,0:0:0:0:
320,192,107134,1,0,0:0:0:0:
448,192,107292,1,0,0:0:0:0:
192,192,107292,1,0,0:0:0:0:
448,192,107450,1,0,0:0:0:0:
320,192,107450,1,0,0:0:0:0:
192,192,107608,1,0,0:0:0:0:
64,192,107608,1,0,0:0:0:0:
320,192,107766,1,0,0:0:0:0:
192,192,107924,1,0,0:0:0:0:
64,192,107924,1,0,0:0:0:0:
448,192,107924,1,0,0:0:0:0:
64,192,108082,1,0,0:0:0:0:
448,192,108240,1,0,0:0:0:0:
320,192,108240,1,0,0:0:0:0:
448,192,108397,1,0,0:0:0:0:
64,192,108397,1,0,0:0:0:0:
192,192,108555,1,0,0:0:0:0:
320,192,108555,1,0,0:0:0:0:
192,192,108713,1,0,0:0:0:0:
64,192,108871,1,0,0:0:0:0:
320,192,108871,1,0,0:0:0:0:
448,192,108871,1,0,0:0:0:0:
448,192,109029,1,0,0:0:0:0:
64,192,109187,1,0,0:0:0:0:
192,192,109187,1,0,0:0:0:0:
64,192,109345,1,0,0:0:0:0:
448,192,109345,1,0,0:0:0:0:
320,192,109503,1,0,0:0:0:0:
192,192,109503,1,0,0:0:0:0:
320,192,109661,1,0,0:0:0:0:
192,192,109818,1,0,0:0:0:0:
64,192,109818,1,0,0:0:0:0:
448,192,109818,1,0,0:0:0:0:
192,192,109976,1,0,0:0:0:0:
320,192,110134,1,0,0:0:0:0:
64,192,110134,1,0,0:0:0:0:
448,192,110134,1,0,0:0:0:0:
320,192,110292,1,0,0:0:0:0:
192,192,110450,1,0,0:0:0:0:
64,192,110450,1,0,0:0:0:0:
448,192,110450,1,0,0:0:0:0:
64,192,110608,1,0,0:0:0:0:
448,192,110766,1,0,0:0:0:0:
320,192,110766,1,0,0:0:0:0:
448,192,110924,1,0,0:0:0:0:
64,192,110924,1,0,0:0:0:0:
192,192,111082,1,0,0:0:0:0:
320,192,111082,1,0,0:0:0:0:
192,192,111240,1,0,0:0:0:0:
320,192,111397,1,0,0:0:0:0:
448,192,111397,1,0,0:0:0:0:
64,192,111397,1,0,0:0:0:0:
448,192,111555,1,0,0:0:0:0:
320,192,111713,1,0,0:0:0:0:
192,192,111713,1,0,0:0:0:0:
320,192,111871,1,0,0:0:0:0:
64,192,111871,1,0,0:0:0:0:
192,192,112029,1,0,0:0:0:0:
448,192,112029,1,0,0:0:0:0:
192,192,112187,1,0,0:0:0:0:
320,192,112187,1,0,0:0:0:0:
64,192,112345,1,0,0:0:0:0:
448,192,112345,1,0,0:0:0:0:
192,192,112503,1,0,0:0:0:0:
320,192,112503,1,0,0:0:0:0:
64,192,112661,1,0,0:0:0:0:
448,192,112661,1,0,0:0:0:0:
320,192,112661,128,0,112976:0:0:0:0:
64,192,112976,1,0,0:0:0:0:
192,192,112976,1,0,0:0:0:0:
448,192,112976,128,0,113450:0:0:0:0:
192,192,113450,1,0,0:0:0:0:
320,192,113450,1,0,0:0:0:0:
64,192,113450,128,0,113924:0:0:0:0:
320,192,113924,1,0,0:0:0:0:
448,192,113924,1,0,0:0:0:0:
192,192,113924,128,0,114397:0:0:0:0:
320,192,114397,128,0,114713:0:0:0:0:
64,192,114397,1,0,0:0:0:0:
448,192,114397,1,0,0:0:0:0:
64,192,114713,1,0,0:0:0:0:
192,192,114713,1,0,0:0:0:0:
448,192,114713,1,0,0:0:0:0:
192,192,114871,1,0,0:0:0:0:
448,192,114871,1,0,0:0:0:0:
64,192,114950,1,0,0:0:0:0:
320,192,114950,1,0,0:0:0:0:
192,192,115029,1,0,0:0:0:0:
448,192,115029,1,0,0:0:0:0:
64,192,115108,1,0,0:0:0:0:
320,192,115108,1,0,0:0:0:0:
448,192,115187,1,0,0:0:0:0:
192,192,115187,1,0,0:0:0:0:
448,192,115345,128,0,115503:0:0:0:0:
320,192,115345,1,0,0:0:0:0:
192,192,115503,1,0,0:0:0:0:
448,192,115661,128,0,115818:0:0:0:0:
64,192,115661,1,0,0:0:0:0:
192,192,115818,1,0,0:0:0:0:
448,192,115976,128,0,116134:0:0:0:0:
320,192,115976,1,0,0:0:0:0:
192,192,116134,1,0,0:0:0:0:
448,192,116292,128,0,116450:0:0:0:0:
64,192,116292,1,0,0:0:0:0:
192,192,116450,1,0,0:0:0:0:
64,192,116608,1,0,0:0:0:0:
448,192,116608,128,0,116766:0:0:0:0:
64,192,116766,1,0,0:0:0:0:
192,192,116845,1,0,0:0:0:0:
320,192,116924,1,0,0:0:0:0:
448,192,116924,128,0,117082:0:0:0:0:
192,192,117003,1,0,0:0:0:0:
64,192,117082,1,0,0:0:0:0:
192,192,117161,1,0,0:0:0:0:
448,192,117240,128,0,117397:0:0:0:0:
320,192,117240,1,0,0:0:0:0:
192,192,117318,1,0,0:0:0:0:
64,192,117397,1,0,0:0:0:0:
192,192,117476,1,0,0:0:0:0:
448,192,117555,128,0,117713:0:0:0:0:
320,192,117555,1,0,0:0:0:0:
192,192,117634,1,0,0:0:0:0:
64,192,117713,1,0,0:0:0:0:
448,192,117871,128,0,118029:0:0:0:0:
320,192,117871,1,0,0:0:0:0:
64,192,118029,1,0,0:0:0:0:
448,192,118187,128,0,118345:0:0:0:0:
192,192,118187,1,0,0:0:0:0:
64,192,118345,1,0,0:0:0:0:
448,192,118503,128,0,118661:0:0:0:0:
320,192,118503,1,0,0:0:0:0:
64,192,118661,1,0,0:0:0:0:
192,192,118740,1,0,0:0:0:0:
448,192,118818,128,0,118976:0:0:0:0:
64,192,118818,1,0,0:0:0:0:
192,192,118897,1,0,0:0:0:0:
64,192,118976,1,0,0:0:0:0:
192,192,119055,1,0,0:0:0:0:
320,192,119134,1,0,0:0:0:0:
448,192,119134,128,0,119292:0:0:0:0:
64,192,119292,1,0,0:0:0:0:
448,192,119450,128,0,119608:0:0:0:0:
192,192,119450,1,0,0:0:0:0:
64,192,119608,1,0,0:0:0:0:
448,192,119766,128,0,119924:0:0:0:0:
320,192,119766,1,0,0:0:0:0:
64,192,119924,1,0,0:0:0:0:
448,192,120082,128,0,120240:0:0:0:0:
192,192,120082,1,0,0:0:0:0:
64,192,120240,1,0,0:0:0:0:
320,192,120240,1,0,0:0:0:0:
192,192,120240,1,0,0:0:0:0:
64,192,120397,1,0,0:0:0:0:
192,192,120555,1,0,0:0:0:0:
320,192,120555,1,0,0:0:0:0:
448,192,120555,1,0,0:0:0:0:
192,192,120713,1,0,0:0:0:0:
448,192,120871,1,0,0:0:0:0:
320,192,120871,1,0,0:0:0:0:
64,192,120871,1,0,0:0:0:0:
448,192,121029,1,0,0:0:0:0:
320,192,121187,1,0,0:0:0:0:
192,192,121187,1,0,0:0:0:0:
64,192,121187,1,0,0:0:0:0:
320,192,121345,1,0,0:0:0:0:
192,192,121503,1,0,0:0:0:0:
64,192,121503,1,0,0:0:0:0:
448,192,121503,1,0,0:0:0:0:
448,192,121661,1,0,0:0:0:0:
64,192,121818,1,0,0:0:0:0:
192,192,121818,1,0,0:0:0:0:
320,192,121818,1,0,0:0:0:0:
64,192,121976,1,0,0:0:0:0:
320,192,122134,1,0,0:0:0:0:
192,192,122134,1,0,0:0:0:0:
448,192,122213,1,0,0:0:0:0:
320,192,122292,1,0,0:0:0:0:
192,192,122450,1,0,0:0:0:0:
64,192,122450,1,0,0:0:0:0:
448,192,122450,1,0,0:0:0:0:
192,192,122608,1,0,0:0:0:0:
320,192,122608,1,0,0:0:0:0:
64,192,122766,1,0,0:0:0:0:
320,192,122766,1,0,0:0:0:0:
448,192,122766,1,0,0:0:0:0:
64,192,122924,1,0,0:0:0:0:
192,192,123082,1,0,0:0:0:0:
320,192,123082,1,0,0:0:0:0:
448,192,123082,1,0,0:0:0:0:
192,192,123240,1,0,0:0:0:0:
320,192,123397,1,0,0:0:0:0:
64,192,123397,1,0,0:0:0:0:
448,192,123397,1,0,0:0:0:0:
320,192,123555,1,0,0:0:0:0:
448,192,123713,1,0,0:0:0:0:
192,192,123713,1,0,0:0:0:0:
64,192,123713,1,0,0:0:0:0:
448,192,123871,1,0,0:0:0:0:
192,192,124029,1,0,0:0:0:0:
320,192,124029,1,0,0:0:0:0:
192,192,124187,1,0,0:0:0:0:
64,192,124187,1,0,0:0:0:0:
448,192,124266,1,0,0:0:0:0:
192,192,124345,1,0,0:0:0:0:
320,192,124345,1,0,0:0:0:0:
64,192,124424,1,0,0:0:0:0:
192,192,124503,1,0,0:0:0:0:
320,192,124582,1,0,0:0:0:0:
64,192,124661,1,0,0:0:0:0:
192,192,124661,1,0,0:0:0:0:
320,192,124740,1,0,0:0:0:0:
448,192,124740,1,0,0:0:0:0:
192,192,124818,1,0,0:0:0:0:
64,192,124818,1,0,0:0:0:0:
320,192,124897,1,0,0:0:0:0:
448,192,124976,1,0,0:0:0:0:
192,192,124976,1,0,0:0:0:0:
64,192,124976,1,0,0:0:0:0:
192,192,125134,1,0,0:0:0:0:
320,192,125134,1,0,0:0:0:0:
448,192,125292,1,0,0:0:0:0:
64,192,125292,1,0,0:0:0:0:
320,192,125292,1,0,0:0:0:0:
448,192,125450,1,0,0:0:0:0:
320,192,125608,1,0,0:0:0:0:
192,192,125608,1,0,0:0:0:0:
64,192,125608,1,0,0:0:0:0:
320,192,125766,1,0,0:0:0:0:
64,192,125924,1,0,0:0:0:0:
192,192,125924,1,0,0:0:0:0:
448,192,125924,1,0,0:0:0:0:
64,192,126082,1,0,0:0:0:0:
320,192,126240,1,0,0:0:0:0:
448,192,126240,1,0,0:0:0:0:
192,192,126240,1,0,0:0:0:0:
192,192,126397,1,0,0:0:0:0:
320,192,126555,1,0,0:0:0:0:
64,192,126555,1,0,0:0:0:0:
448,192,126555,1,0,0:0:0:0:
64,192,126713,1,0,0:0:0:0:
320,192,126871,1,0,0:0:0:0:
192,192,126871,1,0,0:0:0:0:
448,192,126950,1,0,0:0:0:0:
320,192,127029,1,0,0:0:0:0:
448,192,127108,1,0,0:0:0:0:
192,192,127187,1,0,0:0:0:0:
320,192,127187,1,0,0:0:0:0:
64,192,127266,1,0,0:0:0:0:
192,192,127345,1,0,0:0:0:0:
64,192,127424,1,0,0:0:0:0:
320,192,127503,1,0,0:0:0:0:
192,192,127503,1,0,0:0:0:0:
448,192,127582,1,0,0:0:0:0:
320,192,127661,1,0,0:0:0:0:
192,192,127661,1,0,0:0:0:0:
64,192,127740,1,0,0:0:0:0:
192,192,127818,1,0,0:0:0:0:
320,192,127818,1,0,0:0:0:0:
448,192,127818,1,0,0:0:0:0:
448,192,127976,1,0,0:0:0:0:
320,192,128134,1,0,0:0:0:0:
192,192,128134,1,0,0:0:0:0:
64,192,128134,1,0,0:0:0:0:
320,192,128292,1,0,0:0:0:0:
192,192,128450,1,0,0:0:0:0:
64,192,128450,1,0,0:0:0:0:
448,192,128450,1,0,0:0:0:0:
192,192,128608,1,0,0:0:0:0:
64,192,128766,1,0,0:0:0:0:
320,192,128766,1,0,0:0:0:0:
448,192,128766,1,0,0:0:0:0:
192,192,128845,1,0,0:0:0:0:
64,192,128924,1,0,0:0:0:0:
320,192,129003,1,0,0:0:0:0:
192,192,129082,1,0,0:0:0:0:
448,192,129082,1,0,0:0:0:0:
64,192,129082,1,0,0:0:0:0:
64,192,129318,1,0,0:0:0:0:
320,192,129318,1,0,0:0:0:0:
448,192,129318,1,0,0:0:0:0:
192,192,129555,1,0,0:0:0:0:
320,192,129555,1,0,0:0:0:0:
448,192,129555,1,0,0:0:0:0:
320,192,129792,1,0,0:0:0:0:
192,192,129792,1,0,0:0:0:0:
64,192,129792,1,0,0:0:0:0:
192,192,130029,1,0,0:0:0:0:
64,192,130029,1,0,0:0:0:0:
448,192,130029,1,0,0:0:0:0:
64,192,130187,1,0,0:0:0:0:
320,192,130187,1,0,0:0:0:0:
448,192,130187,1,0,0:0:0:0:
192,192,130345,1,0,0:0:0:0:
320,192,130345,1,0,0:0:0:0:
448,192,130345,1,0,0:0:0:0:
192,192,130503,1,0,0:0:0:0:
320,192,130661,1,0,0:0:0:0:
64,192,130661,1,0,0:0:0:0:
448,192,130661,1,0,0:0:0:0:
320,192,130818,1,0,0:0:0:0:
448,192,130976,1,0,0:0:0:0:
192,192,130976,1,0,0:0:0:0:
64,192,130976,1,0,0:0:0:0:
448,192,131134,1,0,0:0:0:0:
64,192,131292,1,0,0:0:0:0:
320,192,131292,1,0,0:0:0:0:
192,192,131371,1,0,0:0:0:0:
64,192,131450,1,0,0:0:0:0:
448,192,131529,1,0,0:0:0:0:
192,192,131608,1,0,0:0:0:0:
64,192,131608,1,0,0:0:0:0:
320,192,131608,1,0,0:0:0:0:
192,192,131766,1,0,0:0:0:0:
64,192,131924,1,0,0:0:0:0:
320,192,131924,1,0,0:0:0:0:
448,192,131924,1,0,0:0:0:0:
64,192,132082,1,0,0:0:0:0:
320,192,132240,1,0,0:0:0:0:
192,192,132240,1,0,0:0:0:0:
448,192,132240,1,0,0:0:0:0:
320,192,132397,1,0,0:0:0:0:
448,192,132555,1,0,0:0:0:0:
192,192,132555,1,0,0:0:0:0:
64,192,132555,1,0,0:0:0:0:
448,192,132713,1,0,0:0:0:0:
320,192,132713,1,0,0:0:0:0:
320,192,132871,1,0,0:0:0:0:
192,192,132871,1,0,0:0:0:0:
64,192,132871,1,0,0:0:0:0:
64,192,133029,1,0,0:0:0:0:
320,192,133187,1,0,0:0:0:0:
192,192,133187,1,0,0:0:0:0:
448,192,133187,1,0,0:0:0:0:
192,192,133345,1,0,0:0:0:0:
448,192,133503,1,0,0:0:0:0:
64,192,133503,1,0,0:0:0:0:
320,192,133503,1,0,0:0:0:0:
320,192,133661,1,0,0:0:0:0:
192,192,133818,1,0,0:0:0:0:
64,192,133818,1,0,0:0:0:0:
448,192,133818,1,0,0:0:0:0:
448,192,133976,1,0,0:0:0:0:
64,192,134134,1,0,0:0:0:0:
192,192,134134,1,0,0:0:0:0:
320,192,134134,1,0,0:0:0:0:
448,192,134213,1,0,0:0:0:0:
320,192,134292,1,0,0:0:0:0:
64,192,134292,1,0,0:0:0:0:
192,192,134371,1,0,0:0:0:0:
64,192,134411,1,0,0:0:0:0:
448,192,134450,1,0,0:0:0:0:
320,192,134450,1,0,0:0:0:0:
192,192,134450,1,0,0:0:0:0:
64,192,134529,1,0,0:0:0:0:
192,192,134608,1,0,0:0:0:0:
448,192,134608,1,0,0:0:0:0:
320,192,134687,1,0,0:0:0:0:
448,192,134726,1,0,0:0:0:0:
192,192,134766,1,0,0:0:0:0:
64,192,134766,1,0,0:0:0:0:
320,192,134766,1,0,0:0:0:0:
448,192,134845,1,0,0:0:0:0:
320,192,134924,1,0,0:0:0:0:
64,192,134924,1,0,0:0:0:0:
192,192,135003,1,0,0:0:0:0:
64,192,135042,1,0,0:0:0:0:
320,192,135082,1,0,0:0:0:0:
448,192,135082,1,0,0:0:0:0:
192,192,135082,1,0,0:0:0:0:
64,192,135161,1,0,0:0:0:0:
192,192,135240,1,0,0:0:0:0:
320,192,135318,1,0,0:0:0:0:
192,192,135397,128,0,136187:0:0:0:0:
64,192,135397,128,0,140450:0:0:0:0:
448,192,135397,1,0,0:0:0:0:
320,192,136187,128,0,136661:0:0:0:0:
448,192,136661,128,0,137134:0:0:0:0:
192,192,136661,128,0,136976:0:0:0:0:
192,192,137134,128,0,137608:0:0:0:0:
320,192,137608,128,0,137924:0:0:0:0:
192,192,137924,128,0,138713:0:0:0:0:
320,192,138713,128,0,139187:0:0:0:0:
448,192,139187,128,0,139661:0:0:0:0:
192,192,139187,128,0,139503:0:0:0:0:
192,192,139661,128,0,140134:0:0:0:0:
320,192,140134,128,0,140450:0:0:0:0:
448,192,140450,128,0,141240:0:0:0:0:
192,192,140450,1,0,0:0:0:0:
320,192,141240,128,0,141713:0:0:0:0:
64,192,141713,128,0,142818:0:0:0:0:
192,192,141713,128,0,142029:0:0:0:0:
192,192,142187,128,0,142818:0:0:0:0:
320,192,142661,128,0,142818:0:0:0:0:
448,192,142976,128,0,143766:0:0:0:0:
192,192,142976,1,0,0:0:0:0:
320,192,143766,128,0,143924:0:0:0:0:
448,192,143924,128,0,144240:0:0:0:0:
192,192,144240,128,0,144555:0:0:0:0:
64,192,144240,128,0,145345:0:0:0:0:
192,192,144713,128,0,145345:0:0:0:0:
320,192,145187,128,0,145345:0:0:0:0:
64,192,145503,1,0,0:0:0:0:
320,192,145503,128,0,145818:0:0:0:0:
448,192,145503,128,0,145818:0:0:0:0:
192,192,145661,1,0,0:0:0:0:
64,192,145818,1,0,0:0:0:0:
192,192,145976,1,0,0:0:0:0:
320,192,145976,128,0,146292:0:0:0:0:
448,192,145976,128,0,146292:0:0:0:0:
64,192,146134,1,0,0:0:0:0:
192,192,146292,1,0,0:0:0:0:
64,192,146450,1,0,0:0:0:0:
320,192,146450,128,0,146766:0:0:0:0:
448,192,146450,128,0,146766:0:0:0:0:
192,192,146608,1,0,0:0:0:0:
64,192,146766,1,0,0:0:0:0:
192,192,146924,1,0,0:0:0:0:
448,192,146924,128,0,147240:0:0:0:0:
320,192,146924,128,0,147240:0:0:0:0:
64,192,147082,1,0,0:0:0:0:
192,192,147240,1,0,0:0:0:0:
448,192,147397,128,0,147713:0:0:0:0:
320,192,147397,128,0,147713:0:0:0:0:
64,192,147397,1,0,0:0:0:0:
192,192,147555,1,0,0:0:0:0:
64,192,147713,128,0,147871:0:0:0:0:
192,192,147713,128,0,147871:0:0:0:0:
320,192,148029,128,0,148345:0:0:0:0:
64,192,148029,1,0,0:0:0:0:
448,192,148029,128,0,148345:0:0:0:0:
192,192,148187,1,0,0:0:0:0:
64,192,148345,1,0,0:0:0:0:
320,192,148503,128,0,148818:0:0:0:0:
192,192,148503,1,0,0:0:0:0:
448,192,148503,128,0,148818:0:0:0:0:
64,192,148661,1,0,0:0:0:0:
192,192,148818,1,0,0:0:0:0:
320,192,148976,128,0,149292:0:0:0:0:
64,192,148976,1,0,0:0:0:0:
448,192,148976,128,0,149292:0:0:0:0:
192,192,149134,1,0,0:0:0:0:
64,192,149292,1,0,0:0:0:0:
448,192,149450,128,0,149766:0:0:0:0:
192,192,149450,1,0,0:0:0:0:
320,192,149450,128,0,149766:0:0:0:0:
64,192,149608,1,0,0:0:0:0:
192,192,149766,1,0,0:0:0:0:
64,192,149924,1,0,0:0:0:0:
320,192,149924,128,0,150240:0:0:0:0:
448,192,149924,128,0,150240:0:0:0:0:
192,192,150082,1,0,0:0:0:0:
64,192,150240,128,0,150397:0:0:0:0:
192,192,150240,128,0,150397:0:0:0:0:
64,192,150555,1,0,0:0:0:0:
448,192,150555,128,0,150871:0:0:0:0:
320,192,150555,128,0,150871:0:0:0:0:
64,192,150713,1,0,0:0:0:0:
192,192,150871,1,0,0:0:0:0:
448,192,151029,128,0,151345:0:0:0:0:
320,192,151029,128,0,151345:0:0:0:0:
192,192,151029,1,0,0:0:0:0:
64,192,151187,1,0,0:0:0:0:
64,192,151345,1,0,0:0:0:0:
448,192,151503,128,0,151818:0:0:0:0:
320,192,151503,128,0,151818:0:0:0:0:
192,192,151503,1,0,0:0:0:0:
192,192,151661,1,0,0:0:0:0:
64,192,151818,1,0,0:0:0:0:
64,192,151976,1,0,0:0:0:0:
320,192,151976,128,0,152292:0:0:0:0:
448,192,151976,128,0,152292:0:0:0:0:
192,192,152134,1,0,0:0:0:0:
192,192,152292,1,0,0:0:0:0:
448,192,152450,128,0,152766:0:0:0:0:
320,192,152450,128,0,152766:0:0:0:0:
64,192,152450,1,0,0:0:0:0:
64,192,152608,1,0,0:0:0:0:
64,192,152766,128,0,152924:0:0:0:0:
192,192,152766,128,0,152924:0:0:0:0:
192,192,153082,1,0,0:0:0:0:
320,192,153082,1,0,0:0:0:0:
448,192,153082,1,0,0:0:0:0:
64,192,153318,1,0,0:0:0:0:
192,192,153318,1,0,0:0:0:0:
320,192,153318,1,0,0:0:0:0:
192,192,153555,1,0,0:0:0:0:
448,192,153555,1,0,0:0:0:0:
64,192,153555,1,0,0:0:0:0:
64,192,153792,1,0,0:0:0:0:
320,192,153792,1,0,0:0:0:0:
448,192,153792,1,0,0:0:0:0:
448,192,154029,1,0,0:0:0:0:
320,192,154029,1,0,0:0:0:0:
192,192,154029,1,0,0:0:0:0:
320,192,154187,1,0,0:0:0:0:
192,192,154187,1,0,0:0:0:0:
64,192,154187,1,0,0:0:0:0:
448,192,154266,1,0,0:0:0:0:
64,192,154345,1,0,0:0:0:0:
192,192,154345,1,0,0:0:0:0:
320,192,154345,1,0,0:0:0:0:
448,192,154582,1,0,0:0:0:0:
320,192,154582,1,0,0:0:0:0:
192,192,154582,1,0,0:0:0:0:
448,192,154818,1,0,0:0:0:0:
64,192,154818,1,0,0:0:0:0:
320,192,154818,1,0,0:0:0:0:
192,192,155055,1,0,0:0:0:0:
64,192,155055,1,0,0:0:0:0:
448,192,155055,1,0,0:0:0:0:
64,192,155292,128,0,155608:0:0:0:0:
192,192,155292,128,0,155608:0:0:0:0:
320,192,155292,128,0,155608:0:0:0:0:
448,192,155608,128,0,156240:0:0:0:0:
192,192,156240,128,0,156555:0:0:0:0:
320,192,156240,128,0,156555:0:0:0:0:
64,192,156555,128,0,156871:0:0:0:0:
192,192,156871,128,0,157029:0:0:0:0:
448,192,156871,128,0,157818:0:0:0:0:
320,192,156871,128,0,157345:0:0:0:0:
64,192,157029,1,0,0:0:0:0:
192,192,157345,1,0,0:0:0:0:
64,192,157503,128,0,157661:0:0:0:0:
320,192,157503,1,0,0:0:0:0:
192,192,157661,128,0,157818:0:0:0:0:
320,192,157818,128,0,157976:0:0:0:0:
64,192,157818,1,0,0:0:0:0:
192,192,157976,128,0,158134:0:0:0:0:
64,192,158134,1,0,0:0:0:0:
448,192,158134,1,0,0:0:0:0:
192,192,158174,1,0,0:0:0:0:
320,192,158213,1,0,0:0:0:0:
448,192,158253,1,0,0:0:0:0:
64,192,158292,1,0,0:0:0:0:
192,192,158371,1,0,0:0:0:0:
64,192,158450,1,0,0:0:0:0:
448,192,158450,1,0,0:0:0:0:
320,192,158529,1,0,0:0:0:0:
448,192,158608,1,0,0:0:0:0:
64,192,158608,1,0,0:0:0:0:
320,192,158766,1,0,0:0:0:0:
192,192,158766,128,0,158924:0:0:0:0:
64,192,158924,128,0,159082:0:0:0:0:
192,192,159082,128,0,159397:0:0:0:0:
448,192,159082,1,0,0:0:0:0:
64,192,159397,128,0,159871:0:0:0:0:
320,192,159397,128,0,159555:0:0:0:0:
448,192,159555,1,0,0:0:0:0:
320,192,159871,1,0,0:0:0:0:
64,192,160029,1,0,0:0:0:0:
448,192,160029,128,0,160187:0:0:0:0:
320,192,160187,128,0,160345:0:0:0:0:
192,192,160345,128,0,160503:0:0:0:0:
448,192,160345,1,0,0:0:0:0:
320,192,160503,128,0,160661:0:0:0:0:
64,192,160661,1,0,0:0:0:0:
448,192,160661,1,0,0:0:0:0:
320,192,160700,1,0,0:0:0:0:
192,192,160740,1,0,0:0:0:0:
64,192,160779,1,0,0:0:0:0:
448,192,160818,1,0,0:0:0:0:
320,192,160976,1,0,0:0:0:0:
64,192,160976,1,0,0:0:0:0:
192,192,161055,1,0,0:0:0:0:
64,192,161134,1,0,0:0:0:0:
320,192,161134,1,0,0:0:0:0:
448,192,161292,1,0,0:0:0:0:
192,192,161292,1,0,0:0:0:0:
320,192,161292,128,0,161450:0:0:0:0:
64,192,161450,1,0,0:0:0:0:
64,192,161608,1,0,0:0:0:0:
320,192,161608,1,0,0:0:0:0:
192,192,161608,128,0,161766:0:0:0:0:
448,192,161766,1,0,0:0:0:0:
320,192,161924,128,0,162082:0:0:0:0:
64,192,161924,128,0,162871:0:0:0:0:
192,192,161924,128,0,162397:0:0:0:0:
448,192,162082,1,0,0:0:0:0:
320,192,162397,1,0,0:0:0:0:
192,192,162555,1,0,0:0:0:0:
448,192,162555,128,0,162713:0:0:0:0:
320,192,162713,128,0,162871:0:0:0:0:
448,192,162871,1,0,0:0:0:0:
192,192,162871,128,0,163029:0:0:0:0:
320,192,163029,128,0,163187:0:0:0:0:
448,192,163187,1,0,0:0:0:0:
64,192,163187,1,0,0:0:0:0:
320,192,163226,1,0,0:0:0:0:
192,192,163266,1,0,0:0:0:0:
64,192,163305,1,0,0:0:0:0:
448,192,163345,1,0,0:0:0:0:
448,192,163503,1,0,0:0:0:0:
64,192,163503,1,0,0:0:0:0:
192,192,163582,1,0,0:0:0:0:
320,192,163582,1,0,0:0:0:0:
448,192,163661,1,0,0:0:0:0:
64,192,163661,1,0,0:0:0:0:
192,192,163818,1,0,0:0:0:0:
320,192,163818,128,0,163976:0:0:0:0:
448,192,163976,128,0,164134:0:0:0:0:
320,192,164134,128,0,164450:0:0:0:0:
64,192,164134,1,0,0:0:0:0:
192,192,164450,1,0,0:0:0:0:
448,192,164450,1,0,0:0:0:0:
64,192,164608,128,0,164924:0:0:0:0:
320,192,164608,128,0,164924:0:0:0:0:
192,192,164924,1,0,0:0:0:0:
448,192,164924,1,0,0:0:0:0:
192,192,165082,128,0,165397:0:0:0:0:
320,192,165082,128,0,165397:0:0:0:0:
64,192,165397,1,0,0:0:0:0:
448,192,165397,1,0,0:0:0:0:
192,192,165555,128,0,165871:0:0:0:0:
448,192,165555,128,0,165871:0:0:0:0:
64,192,165871,1,0,0:0:0:0:
320,192,165871,1,0,0:0:0:0:
448,192,166029,1,0,0:0:0:0:
64,192,166029,1,0,0:0:0:0:
448,192,166187,1,0,0:0:0:0:
192,192,166187,1,0,0:0:0:0:
320,192,166266,1,0,0:0:0:0:
192,192,166345,1,0,0:0:0:0:
448,192,166345,1,0,0:0:0:0:
64,192,166424,1,0,0:0:0:0:
320,192,166503,1,0,0:0:0:0:
192,192,166503,1,0,0:0:0:0:
448,192,166582,1,0,0:0:0:0:
320,192,166661,1,0,0:0:0:0:
64,192,166661,1,0,0:0:0:0:
192,192,166740,1,0,0:0:0:0:
64,192,166818,1,0,0:0:0:0:
320,192,166818,1,0,0:0:0:0:
448,192,166897,1,0,0:0:0:0:
320,192,166976,1,0,0:0:0:0:
192,192,166976,1,0,0:0:0:0:
64,192,166976,1,0,0:0:0:0:
192,192,167134,1,0,0:0:0:0:
320,192,167450,1,0,0:0:0:0:
320,192,167608,1,0,0:0:0:0:
448,192,167608,1,0,0:0:0:0:
192,192,167608,1,0,0:0:0:0:
64,192,167924,1,0,0:0:0:0:
64,192,168082,1,0,0:0:0:0:
192,192,168240,1,0,0:0:0:0:
320,192,168240,1,0,0:0:0:0:
448,192,168397,1,0,0:0:0:0:
448,192,168555,1,0,0:0:0:0:
192,192,168871,1,0,0:0:0:0:
320,192,168871,1,0,0:0:0:0:
64,192,168871,1,0,0:0:0:0:
192,192,169187,1,0,0:0:0:0:
448,192,169503,1,0,0:0:0:0:
320,192,169503,1,0,0:0:0:0:
64,192,169503,1,0,0:0:0:0:
448,192,169661,1,0,0:0:0:0:
320,192,169976,1,0,0:0:0:0:
320,192,170134,1,0,0:0:0:0:
192,192,170134,1,0,0:0:0:0:
448,192,170134,1,0,0:0:0:0:
64,192,170450,1,0,0:0:0:0:
64,192,170608,1,0,0:0:0:0:
320,192,170766,1,0,0:0:0:0:
448,192,170766,1,0,0:0:0:0:
192,192,170924,1,0,0:0:0:0:
192,192,171082,1,0,0:0:0:0:
448,192,171397,1,0,0:0:0:0:
320,192,171397,1,0,0:0:0:0:
64,192,171397,1,0,0:0:0:0:
448,192,171713,1,0,0:0:0:0:
320,192,172029,1,0,0:0:0:0:
192,192,172029,1,0,0:0:0:0:
64,192,172029,1,0,0:0:0:0:
320,192,172187,1,0,0:0:0:0:
192,192,172503,1,0,0:0:0:0:
192,192,172661,1,0,0:0:0:0:
320,192,172661,1,0,0:0:0:0:
64,192,172661,1,0,0:0:0:0:
448,192,172976,1,0,0:0:0:0:
448,192,173134,1,0,0:0:0:0:
192,192,173292,1,0,0:0:0:0:
320,192,173292,1,0,0:0:0:0:
64,192,173450,1,0,0:0:0:0:
64,192,173608,1,0,0:0:0:0:
192,192,173924,1,0,0:0:0:0:
320,192,173924,1,0,0:0:0:0:
448,192,173924,1,0,0:0:0:0:
320,192,174240,1,0,0:0:0:0:
64,192,174555,1,0,0:0:0:0:
192,192,174555,1,0,0:0:0:0:
448,192,174555,1,0,0:0:0:0:
64,192,174713,1,0,0:0:0:0:
192,192,175029,1,0,0:0:0:0:
192,192,175187,1,0,0:0:0:0:
320,192,175187,1,0,0:0:0:0:
64,192,175187,1,0,0:0:0:0:
448,192,175503,1,0,0:0:0:0:
448,192,175661,1,0,0:0:0:0:
192,192,175818,1,0,0:0:0:0:
64,192,175818,1,0,0:0:0:0:
320,192,175976,1,0,0:0:0:0:
320,192,176134,1,0,0:0:0:0:
64,192,176450,1,0,0:0:0:0:
192,192,176450,1,0,0:0:0:0:
448,192,176450,1,0,0:0:0:0:
64,192,176766,1,0,0:0:0:0:
320,192,177082,1,0,0:0:0:0:
192,192,177082,1,0,0:0:0:0:
448,192,177082,1,0,0:0:0:0:
320,192,177240,1,0,0:0:0:0:
192,192,177555,1,0,0:0:0:0:
192,192,177713,1,0,0:0:0:0:
320,192,177713,1,0,0:0:0:0:
448,192,177713,1,0,0:0:0:0:
64,192,178029,1,0,0:0:0:0:
64,192,178187,1,0,0:0:0:0:
192,192,178345,1,0,0:0:0:0:
320,192,178345,1,0,0:0:0:0:
448,192,178503,1,0,0:0:0:0:
448,192,178661,1,0,0:0:0:0:
320,192,178976,1,0,0:0:0:0:
192,192,178976,1,0,0:0:0:0:
64,192,178976,1,0,0:0:0:0:
320,192,179292,1,0,0:0:0:0:
192,192,179608,1,0,0:0:0:0:
64,192,179608,1,0,0:0:0:0:
448,192,179608,1,0,0:0:0:0:
192,192,179766,1,0,0:0:0:0:
64,192,180082,1,0,0:0:0:0:
64,192,180240,1,0,0:0:0:0:
192,192,180240,1,0,0:0:0:0:
320,192,180240,1,0,0:0:0:0:
448,192,180555,1,0,0:0:0:0:
448,192,180713,1,0,0:0:0:0:
192,192,180871,1,0,0:0:0:0:
64,192,180871,1,0,0:0:0:0:
320,192,181029,1,0,0:0:0:0:
320,192,181187,1,0,0:0:0:0:
192,192,181503,1,0,0:0:0:0:
64,192,181503,1,0,0:0:0:0:
448,192,181503,1,0,0:0:0:0:
192,192,181818,1,0,0:0:0:0:
64,192,182134,1,0,0:0:0:0:
320,192,182134,1,0,0:0:0:0:
448,192,182134,1,0,0:0:0:0:
64,192,182292,1,0,0:0:0:0:
448,192,182608,1,0,0:0:0:0:
448,192,182766,1,0,0:0:0:0:
192,192,182766,1,0,0:0:0:0:
64,192,182766,1,0,0:0:0:0:
320,192,183082,1,0,0:0:0:0:
320,192,183240,1,0,0:0:0:0:
64,192,183397,1,0,0:0:0:0:
448,192,183397,1,0,0:0:0:0:
192,192,183555,1,0,0:0:0:0:
192,192,183713,1,0,0:0:0:0:
64,192,184029,1,0,0:0:0:0:
320,192,184029,1,0,0:0:0:0:
448,192,184029,1,0,0:0:0:0:
64,192,184345,1,0,0:0:0:0:
448,192,184661,1,0,0:0:0:0:
192,192,184661,1,0,0:0:0:0:
448,192,184818,1,0,0:0:0:0:
320,192,185134,1,0,0:0:0:0:
320,192,185292,1,0,0:0:0:0:
192,192,185608,1,0,0:0:0:0:
192,192,185766,1,0,0:0:0:0:
64,192,186082,1,0,0:0:0:0:
64,192,186240,1,0,0:0:0:0:
448,192,186555,1,0,0:0:0:0:
448,192,186871,1,0,0:0:0:0:
320,192,187187,1,0,0:0:0:0:
192,192,187187,1,0,0:0:0:0:
64,192,187187,128,0,188542:0:0:0:0:
448,192,187525,1,0,0:0:0:0:
320,192,187864,1,0,0:0:0:0:
192,192,188203,1,0,0:0:0:0:
448,192,188373,1,0,0:0:0:0:
320,192,188542,1,0,0:0:0:0:
192,192,188542,128,0,189220:0:0:0:0:
448,192,188881,1,0,0:0:0:0:
320,192,189220,128,0,189898:0:0:0:0:
64,192,189220,1,0,0:0:0:0:
192,192,189559,1,0,0:0:0:0:
448,192,189898,128,0,191085:0:0:0:0:
64,192,189898,1,0,0:0:0:0:
192,192,190237,1,0,0:0:0:0:
320,192,190576,1,0,0:0:0:0:
192,192,190915,1,0,0:0:0:0:
320,192,191085,1,0,0:0:0:0:
64,192,191254,1,0,0:0:0:0:
448,192,191254,128,0,191763:0:0:0:0:
192,192,191424,1,0,0:0:0:0:
64,192,191593,1,0,0:0:0:0:
320,192,191763,128,0,192271:0:0:0:0:
192,192,191932,1,0,0:0:0:0:
448,192,192271,128,0,192610:0:0:0:0:
64,192,192271,1,0,0:0:0:0:
192,192,192610,1,0,0:0:0:0:
64,192,192610,128,0,193458:0:0:0:0:
448,192,192780,1,0,0:0:0:0:
320,192,192949,1,0,0:0:0:0:
448,192,193288,1,0,0:0:0:0:
192,192,193458,128,0,193966:0:0:0:0:
320,192,193627,1,0,0:0:0:0:
64,192,193966,128,0,194814:0:0:0:0:
448,192,193966,1,0,0:0:0:0:
192,192,194136,1,0,0:0:0:0:
320,192,194305,1,0,0:0:0:0:
192,192,194644,1,0,0:0:0:0:
320,192,194814,128,0,195322:0:0:0:0:
64,192,194983,1,0,0:0:0:0:
192,192,195322,128,0,196509:0:0:0:0:
448,192,195322,1,0,0:0:0:0:
320,192,195661,1,0,0:0:0:0:
448,192,196000,1,0,0:0:0:0:
320,192,196339,1,0,0:0:0:0:
320,192,196509,128,0,196678:0:0:0:0:
64,192,196509,1,0,0:0:0:0:
192,192,196678,1,0,0:0:0:0:
448,192,196678,128,0,198034:0:0:0:0:
320,192,196932,1,0,0:0:0:0:
64,192,197187,1,0,0:0:0:0:
192,192,197356,1,0,0:0:0:0:
320,192,197525,1,0,0:0:0:0:
192,192,197695,1,0,0:0:0:0:
64,192,197695,1,0,0:0:0:0:
320,192,197864,1,0,0:0:0:0:
64,192,198034,128,0,199390:0:0:0:0:
192,192,198034,128,0,198119:0:0:0:0:
448,192,198373,1,0,0:0:0:0:
320,192,198712,1,0,0:0:0:0:
448,192,198881,1,0,0:0:0:0:
192,192,199051,1,0,0:0:0:0:
448,192,199220,1,0,0:0:0:0:
192,192,199390,128,0,200068:0:0:0:0:
320,192,199390,128,0,199644:0:0:0:0:
448,192,199729,128,0,199983:0:0:0:0:
320,192,200068,128,0,200746:0:0:0:0:
64,192,200068,128,0,200153:0:0:0:0:
192,192,200407,1,0,0:0:0:0:
64,192,200746,1,0,0:0:0:0:
448,192,200746,128,0,201932:0:0:0:0:
320,192,200915,1,0,0:0:0:0:
192,192,201085,1,0,0:0:0:0:
320,192,201424,1,0,0:0:0:0:
192,192,201763,1,0,0:0:0:0:
320,192,201932,1,0,0:0:0:0:
448,192,202102,128,0,202610:0:0:0:0:
64,192,202102,128,0,202356:0:0:0:0:
192,192,202271,1,0,0:0:0:0:
64,192,202441,128,0,202695:0:0:0:0:
320,192,202610,128,0,203119:0:0:0:0:
192,192,202780,1,0,0:0:0:0:
64,192,203119,1,0,0:0:0:0:
448,192,203119,128,0,203458:0:0:0:0:
192,192,203458,1,0,0:0:0:0:
64,192,203458,128,0,204305:0:0:0:0:
448,192,203627,1,0,0:0:0:0:
320,192,203797,1,0,0:0:0:0:
448,192,204136,1,0,0:0:0:0:
192,192,204305,128,0,204814:0:0:0:0:
320,192,204475,1,0,0:0:0:0:
320,192,204729,1,0,0:0:0:0:
448,192,204814,1,0,0:0:0:0:
64,192,204814,128,0,205661:0:0:0:0:
320,192,205153,1,0,0:0:0:0:
192,192,205492,1,0,0:0:0:0:
320,192,205661,128,0,206170:0:0:0:0:
64,192,205831,1,0,0:0:0:0:
192,192,206170,128,0,207525:0:0:0:0:
448,192,206170,1,0,0:0:0:0:
320,192,206509,1,0,0:0:0:0:
448,192,206848,1,0,0:0:0:0:
448,192,207017,1,0,0:0:0:0:
320,192,207187,1,0,0:0:0:0:
320,192,207356,1,0,0:0:0:0:
448,192,207525,128,0,208881:0:0:0:0:
64,192,207525,128,0,207780:0:0:0:0:
192,192,207864,128,0,208119:0:0:0:0:
320,192,208203,1,0,0:0:0:0:
64,192,208373,1,0,0:0:0:0:
192,192,208542,1,0,0:0:0:0:
64,192,208881,128,0,210775:0:0:0:0:
192,192,208881,128,0,210144:0:0:0:0:
320,192,208881,128,0,209512:0:0:0:0:
448,192,209512,128,0,211407:0:0:0:0:
320,192,210144,128,0,212038:0:0:0:0:
192,192,210775,128,0,212670:0:0:0:0:
64,192,211407,1,0,0:0:0:0:
64,192,211565,1,0,0:0:0:0:
64,192,211723,128,0,213302:0:0:0:0:
448,192,212038,1,0,0:0:0:0:
448,192,212196,1,0,0:0:0:0:
448,192,212354,128,0,213933:0:0:0:0:
320,192,212670,1,0,0:0:0:0:
320,192,212828,1,0,0:0:0:0:
320,192,212986,128,0,214565:0:0:0:0:
192,192,213302,1,0,0:0:0:0:
192,192,213459,1,0,0:0:0:0:
192,192,213617,128,0,215196:0:0:0:0:
64,192,213933,1,0,0:0:0:0:
64,192,214091,1,0,0:0:0:0:
64,192,214249,128,0,215828:0:0:0:0:
448,192,214565,1,0,0:0:0:0:
448,192,214723,1,0,0:0:0:0:
448,192,214881,128,0,216459:0:0:0:0:
320,192,215196,1,0,0:0:0:0:
320,192,215354,1,0,0:0:0:0:
320,192,215512,128,0,216459:0:0:0:0:
192,192,215828,1,0,0:0:0:0:
192,192,215986,1,0,0:0:0:0:
192,192,216144,128,0,216459:0:0:0:0:
64,192,216459,1,0,0:0:0:0:
320,192,216617,1,0,0:0:0:0:
192,192,216775,1,0,0:0:0:0:
448,192,216933,1,0,0:0:0:0:
64,192,217091,1,0,0:0:0:0:
320,192,217249,1,0,0:0:0:0:
192,192,217407,1,0,0:0:0:0:
448,192,217565,1,0,0:0:0:0:
64,192,217723,128,0,218196:0:0:0:0:
192,192,217881,128,0,218196:0:0:0:0:
320,192,218038,128,0,218196:0:0:0:0:
448,192,218196,128,0,218354:0:0:0:0:
64,192,218354,128,0,218670:0:0:0:0:
192,192,218512,128,0,218670:0:0:0:0:
448,192,218670,1,0,0:0:0:0:
320,192,218670,128,0,218986:0:0:0:0:
64,192,218986,1,0,0:0:0:0:
192,192,218986,1,0,0:0:0:0:
448,192,218986,1,0,0:0:0:0:
192,192,219144,1,0,0:0:0:0:
320,192,219302,1,0,0:0:0:0:
64,192,219302,1,0,0:0:0:0:
320,192,219459,1,0,0:0:0:0:
448,192,219617,1,0,0:0:0:0:
192,192,219617,1,0,0:0:0:0:
320,192,219696,1,0,0:0:0:0:
64,192,219696,1,0,0:0:0:0:
448,192,219775,1,0,0:0:0:0:
192,192,219775,1,0,0:0:0:0:
64,192,219933,1,0,0:0:0:0:
320,192,219933,1,0,0:0:0:0:
192,192,220012,1,0,0:0:0:0:
448,192,220012,1,0,0:0:0:0:
64,192,220091,1,0,0:0:0:0:
320,192,220091,1,0,0:0:0:0:
320,192,220249,1,0,0:0:0:0:
192,192,220249,1,0,0:0:0:0:
320,192,220407,1,0,0:0:0:0:
192,192,220407,1,0,0:0:0:0:
64,192,220565,1,0,0:0:0:0:
448,192,220565,1,0,0:0:0:0:
64,192,220723,1,0,0:0:0:0:
320,192,220723,1,0,0:0:0:0:
448,192,220723,1,0,0:0:0:0:
192,192,220881,1,0,0:0:0:0:
192,192,221038,1,0,0:0:0:0:
320,192,221038,1,0,0:0:0:0:
448,192,221196,1,0,0:0:0:0:
320,192,221275,1,0,0:0:0:0:
448,192,221354,1,0,0:0:0:0:
320,192,221433,1,0,0:0:0:0:
64,192,221512,1,0,0:0:0:0:
192,192,221512,1,0,0:0:0:0:
448,192,221512,1,0,0:0:0:0:
64,192,221670,1,0,0:0:0:0:
320,192,221828,1,0,0:0:0:0:
192,192,221828,1,0,0:0:0:0:
448,192,221828,1,0,0:0:0:0:
320,192,221986,1,0,0:0:0:0:
448,192,222144,1,0,0:0:0:0:
64,192,222144,1,0,0:0:0:0:
448,192,222302,1,0,0:0:0:0:
320,192,222302,1,0,0:0:0:0:
192,192,222459,1,0,0:0:0:0:
320,192,222459,1,0,0:0:0:0:
192,192,222617,1,0,0:0:0:0:
448,192,222775,1,0,0:0:0:0:
64,192,222775,1,0,0:0:0:0:
192,192,222828,1,0,0:0:0:0:
320,192,222881,1,0,0:0:0:0:
448,192,222933,1,0,0:0:0:0:
320,192,222986,1,0,0:0:0:0:
192,192,223038,1,0,0:0:0:0:
64,192,223091,1,0,0:0:0:0:
320,192,223091,1,0,0:0:0:0:
64,192,223249,1,0,0:0:0:0:
448,192,223249,1,0,0:0:0:0:
192,192,223407,1,0,0:0:0:0:
64,192,223486,1,0,0:0:0:0:
192,192,223565,1,0,0:0:0:0:
448,192,223565,1,0,0:0:0:0:
64,192,223644,1,0,0:0:0:0:
320,192,223723,1,0,0:0:0:0:
192,192,223723,1,0,0:0:0:0:
448,192,223802,1,0,0:0:0:0:
320,192,223881,1,0,0:0:0:0:
192,192,223881,1,0,0:0:0:0:
64,192,224038,1,0,0:0:0:0:
192,192,224038,1,0,0:0:0:0:
448,192,224038,1,0,0:0:0:0:
64,192,224196,1,0,0:0:0:0:
192,192,224354,1,0,0:0:0:0:
320,192,224354,1,0,0:0:0:0:
192,192,224512,1,0,0:0:0:0:
448,192,224670,1,0,0:0:0:0:
64,192,224670,1,0,0:0:0:0:
448,192,224828,1,0,0:0:0:0:
192,192,224828,1,0,0:0:0:0:
320,192,224986,1,0,0:0:0:0:
192,192,224986,1,0,0:0:0:0:
320,192,225144,1,0,0:0:0:0:
192,192,225302,1,0,0:0:0:0:
64,192,225302,1,0,0:0:0:0:
448,192,225302,1,0,0:0:0:0:
192,192,225459,1,0,0:0:0:0:
448,192,225538,1,0,0:0:0:0:
64,192,225617,1,0,0:0:0:0:
320,192,225617,1,0,0:0:0:0:
64,192,225775,1,0,0:0:0:0:
448,192,225775,1,0,0:0:0:0:
192,192,225775,1,0,0:0:0:0:
320,192,225933,1,0,0:0:0:0:
448,192,226012,1,0,0:0:0:0:
320,192,226091,1,0,0:0:0:0:
192,192,226091,1,0,0:0:0:0:
448,192,226249,1,0,0:0:0:0:
320,192,226328,1,0,0:0:0:0:
64,192,226407,1,0,0:0:0:0:
192,192,226407,1,0,0:0:0:0:
448,192,226486,1,0,0:0:0:0:
320,192,226565,1,0,0:0:0:0:
192,192,226565,1,0,0:0:0:0:
64,192,226565,1,0,0:0:0:0:
448,192,226644,1,0,0:0:0:0:
320,192,226723,1,0,0:0:0:0:
64,192,226802,1,0,0:0:0:0:
192,192,226881,1,0,0:0:0:0:
448,192,226881,1,0,0:0:0:0:
192,192,227038,1,0,0:0:0:0:
448,192,227196,1,0,0:0:0:0:
64,192,227196,1,0,0:0:0:0:
320,192,227275,1,0,0:0:0:0:
448,192,227354,1,0,0:0:0:0:
64,192,227354,1,0,0:0:0:0:
192,192,227433,1,0,0:0:0:0:
64,192,227512,1,0,0:0:0:0:
320,192,227512,1,0,0:0:0:0:
192,192,227591,1,0,0:0:0:0:
64,192,227670,1,0,0:0:0:0:
320,192,227749,1,0,0:0:0:0:
448,192,227828,1,0,0:0:0:0:
192,192,227828,1,0,0:0:0:0:
64,192,227828,1,0,0:0:0:0:
448,192,227986,1,0,0:0:0:0:
320,192,227986,1,0,0:0:0:0:
64,192,228144,1,0,0:0:0:0:
320,192,228144,1,0,0:0:0:0:
64,192,228302,1,0,0:0:0:0:
192,192,228302,1,0,0:0:0:0:
320,192,228459,1,0,0:0:0:0:
448,192,228459,1,0,0:0:0:0:
320,192,228617,1,0,0:0:0:0:
192,192,228617,1,0,0:0:0:0:
192,192,228775,1,0,0:0:0:0:
64,192,228775,1,0,0:0:0:0:
192,192,228933,1,0,0:0:0:0:
320,192,228933,1,0,0:0:0:0:
64,192,229091,1,0,0:0:0:0:
320,192,229091,1,0,0:0:0:0:
448,192,229091,1,0,0:0:0:0:
192,192,229407,128,0,229723:0:0:0:0:
320,192,229723,1,0,0:0:0:0:
64,192,229723,128,0,229881:0:0:0:0:
320,192,230038,128,0,230354:0:0:0:0:
448,192,230354,1,0,0:0:0:0:
192,192,230354,128,0,230512:0:0:0:0:
448,192,230670,128,0,230986:0:0:0:0:
64,192,230986,1,0,0:0:0:0:
320,192,230986,128,0,231144:0:0:0:0:
64,192,231302,128,0,231617:0:0:0:0:
448,192,231617,1,0,0:0:0:0:
192,192,231617,128,0,231775:0:0:0:0:
448,192,231933,128,0,232249:0:0:0:0:
320,192,232249,1,0,0:0:0:0:
64,192,232249,128,0,232407:0:0:0:0:
320,192,232565,128,0,232881:0:0:0:0:
192,192,232881,1,0,0:0:0:0:
448,192,232881,128,0,233038:0:0:0:0:
192,192,233196,128,0,233512:0:0:0:0:
64,192,233512,1,0,0:0:0:0:
320,192,233512,128,0,233670:0:0:0:0:
64,192,233828,128,0,234144:0:0:0:0:
192,192,234144,1,0,0:0:0:0:
448,192,234144,128,0,234302:0:0:0:0:
320,192,234144,1,0,0:0:0:0:
192,192,234459,128,0,234775:0:0:0:0:
320,192,234775,1,0,0:0:0:0:
64,192,234775,128,0,234933:0:0:0:0:
320,192,235091,128,0,235407:0:0:0:0:
448,192,235407,1,0,0:0:0:0:
192,192,235407,128,0,235565:0:0:0:0:
448,192,235723,128,0,236038:0:0:0:0:
64,192,236038,1,0,0:0:0:0:
320,192,236038,128,0,236196:0:0:0:0:
64,192,236354,128,0,236670:0:0:0:0:
448,192,236670,1,0,0:0:0:0:
192,192,236670,128,0,236828:0:0:0:0:
448,192,236986,128,0,237302:0:0:0:0:
320,192,237302,1,0,0:0:0:0:
64,192,237302,128,0,237459:0:0:0:0:
320,192,237617,128,0,237933:0:0:0:0:
192,192,237933,1,0,0:0:0:0:
448,192,237933,128,0,238091:0:0:0:0:
192,192,238249,128,0,238565:0:0:0:0:
64,192,238565,1,0,0:0:0:0:
320,192,238565,128,0,238723:0:0:0:0:
64,192,238881,128,0,239196:0:0:0:0:
320,192,238881,128,0,239038:0:0:0:0:
192,192,239196,1,0,0:0:0:0:
448,192,239196,128,0,239354:0:0:0:0:
320,192,239196,1,0,0:0:0:0:
192,192,239512,128,0,239828:0:0:0:0:
320,192,239828,1,0,0:0:0:0:
64,192,239828,128,0,239986:0:0:0:0:
448,192,239828,1,0,0:0:0:0:
320,192,240144,128,0,240459:0:0:0:0:
448,192,240459,1,0,0:0:0:0:
192,192,240459,128,0,240617:0:0:0:0:
64,192,240459,1,0,0:0:0:0:
448,192,240775,128,0,241091:0:0:0:0:
64,192,241091,1,0,0:0:0:0:
320,192,241091,128,0,241249:0:0:0:0:
192,192,241091,1,0,0:0:0:0:
64,192,241407,128,0,241723:0:0:0:0:
320,192,241407,128,0,241565:0:0:0:0:
448,192,241407,1,0,0:0:0:0:
192,192,241407,1,0,0:0:0:0:
448,192,241723,1,0,0:0:0:0:
192,192,241723,128,0,241881:0:0:0:0:
320,192,241723,1,0,0:0:0:0:
448,192,242038,128,0,242354:0:0:0:0:
320,192,242354,1,0,0:0:0:0:
64,192,242354,128,0,242512:0:0:0:0:
192,192,242354,1,0,0:0:0:0:
320,192,242670,128,0,242986:0:0:0:0:
192,192,242986,1,0,0:0:0:0:
448,192,242986,128,0,243144:0:0:0:0:
64,192,242986,1,0,0:0:0:0:
192,192,243302,128,0,243617:0:0:0:0:
64,192,243617,1,0,0:0:0:0:
320,192,243617,1,0,0:0:0:0:
448,192,243617,1,0,0:0:0:0:
320,192,243723,1,0,0:0:0:0:
320,192,243828,1,0,0:0:0:0:
64,192,243933,128,0,244249:0:0:0:0:
448,192,243933,1,0,0:0:0:0:
192,192,243933,1,0,0:0:0:0:
448,192,244038,1,0,0:0:0:0:
448,192,244144,1,0,0:0:0:0:
192,192,244249,1,0,0:0:0:0:
448,192,244249,128,0,244407:0:0:0:0:
320,192,244249,1,0,0:0:0:0:
448,192,244565,128,0,244723:0:0:0:0:
192,192,244565,128,0,244881:0:0:0:0:
320,192,244565,1,0,0:0:0:0:
64,192,244565,1,0,0:0:0:0:
320,192,244881,1,0,0:0:0:0:
64,192,244881,128,0,245038:0:0:0:0:
448,192,244881,1,0,0:0:0:0:
320,192,245196,128,0,245512:0:0:0:0:
64,192,245196,128,0,245354:0:0:0:0:
448,192,245196,1,0,0:0:0:0:
192,192,245196,1,0,0:0:0:0:
64,192,245512,1,0,0:0:0:0:
448,192,245512,1,0,0:0:0:0:
192,192,245512,1,0,0:0:0:0:
192,192,245670,1,0,0:0:0:0:
64,192,245670,1,0,0:0:0:0:
448,192,245828,128,0,246144:0:0:0:0:
192,192,245828,1,0,0:0:0:0:
64,192,245828,1,0,0:0:0:0:
64,192,245986,1,0,0:0:0:0:
192,192,245986,1,0,0:0:0:0:
192,192,246144,1,0,0:0:0:0:
64,192,246144,1,0,0:0:0:0:
320,192,246223,1,0,0:0:0:0:
448,192,246302,1,0,0:0:0:0:
64,192,246302,1,0,0:0:0:0:
192,192,246302,1,0,0:0:0:0:
320,192,246381,1,0,0:0:0:0:
64,192,246459,128,0,246775:0:0:0:0:
192,192,246459,1,0,0:0:0:0:
448,192,246459,1,0,0:0:0:0:
320,192,246538,1,0,0:0:0:0:
448,192,246617,1,0,0:0:0:0:
192,192,246617,1,0,0:0:0:0:
320,192,246657,1,0,0:0:0:0:
192,192,246696,1,0,0:0:0:0:
320,192,246736,1,0,0:0:0:0:
448,192,246775,128,0,248038:0:0:0:0:
192,192,248038,1,0,0:0:0:0:
64,192,248038,1,0,0:0:0:0:
320,192,248117,1,0,0:0:0:0:
64,192,248196,1,0,0:0:0:0:
448,192,248275,1,0,0:0:0:0:
192,192,248354,1,0,0:0:0:0:
320,192,248354,1,0,0:0:0:0:
448,192,248433,1,0,0:0:0:0:
64,192,248512,1,0,0:0:0:0:
320,192,248591,1,0,0:0:0:0:
192,192,248670,1,0,0:0:0:0:
448,192,248670,1,0,0:0:0:0:
320,192,248749,1,0,0:0:0:0:
64,192,248828,1,0,0:0:0:0:
192,192,248828,1,0,0:0:0:0:
448,192,248907,1,0,0:0:0:0:
64,192,248986,1,0,0:0:0:0:
192,192,248986,1,0,0:0:0:0:
320,192,249065,1,0,0:0:0:0:
192,192,249144,1,0,0:0:0:0:
64,192,249144,1,0,0:0:0:0:
448,192,249223,1,0,0:0:0:0:
64,192,249302,1,0,0:0:0:0:
192,192,249302,1,0,0:0:0:0:
320,192,249302,1,0,0:0:0:0:
192,192,249459,1,0,0:0:0:0:
320,192,249459,1,0,0:0:0:0:
320,192,249617,1,0,0:0:0:0:
448,192,249617,1,0,0:0:0:0:
64,192,249617,1,0,0:0:0:0:
448,192,249775,1,0,0:0:0:0:
320,192,249775,1,0,0:0:0:0:
64,192,249933,1,0,0:0:0:0:
192,192,249933,1,0,0:0:0:0:
448,192,249933,1,0,0:0:0:0:
192,192,250091,1,0,0:0:0:0:
64,192,250091,1,0,0:0:0:0:
192,192,250249,1,0,0:0:0:0:
320,192,250249,1,0,0:0:0:0:
448,192,250249,1,0,0:0:0:0:
320,192,250407,1,0,0:0:0:0:
192,192,250407,1,0,0:0:0:0:
64,192,250565,1,0,0:0:0:0:
320,192,250565,1,0,0:0:0:0:
192,192,250565,1,0,0:0:0:0:
320,192,250723,1,0,0:0:0:0:
192,192,250723,1,0,0:0:0:0:
448,192,250881,1,0,0:0:0:0:
64,192,250881,1,0,0:0:0:0:
320,192,250881,1,0,0:0:0:0:
448,192,251038,1,0,0:0:0:0:
320,192,251038,1,0,0:0:0:0:
64,192,251196,1,0,0:0:0:0:
448,192,251196,1,0,0:0:0:0:
192,192,251196,1,0,0:0:0:0:
192,192,251354,1,0,0:0:0:0:
64,192,251354,1,0,0:0:0:0:
192,192,251512,1,0,0:0:0:0:
320,192,251512,1,0,0:0:0:0:
64,192,251512,1,0,0:0:0:0:
448,192,251591,1,0,0:0:0:0:
192,192,251670,1,0,0:0:0:0:
320,192,251670,1,0,0:0:0:0:
64,192,251749,1,0,0:0:0:0:
192,192,251828,1,0,0:0:0:0:
320,192,251828,1,0,0:0:0:0:
448,192,251828,1,0,0:0:0:0:
320,192,251986,1,0,0:0:0:0:
448,192,251986,1,0,0:0:0:0:
64,192,252144,1,0,0:0:0:0:
192,192,252144,1,0,0:0:0:0:
320,192,252144,1,0,0:0:0:0:
192,192,252302,1,0,0:0:0:0:
64,192,252302,1,0,0:0:0:0:
192,192,252459,1,0,0:0:0:0:
320,192,252459,1,0,0:0:0:0:
448,192,252459,1,0,0:0:0:0:
320,192,252617,1,0,0:0:0:0:
192,192,252617,1,0,0:0:0:0:
64,192,252775,1,0,0:0:0:0:
448,192,252775,1,0,0:0:0:0:
192,192,252775,1,0,0:0:0:0:
64,192,252933,1,0,0:0:0:0:
448,192,252933,1,0,0:0:0:0:
448,192,253091,1,0,0:0:0:0:
320,192,253091,1,0,0:0:0:0:
192,192,253091,1,0,0:0:0:0:
448,192,253249,1,0,0:0:0:0:
320,192,253249,1,0,0:0:0:0:
320,192,253407,1,0,0:0:0:0:
192,192,253407,1,0,0:0:0:0:
64,192,253407,1,0,0:0:0:0:
64,192,253565,1,0,0:0:0:0:
192,192,253565,1,0,0:0:0:0:
448,192,253723,1,0,0:0:0:0:
320,192,253723,1,0,0:0:0:0:
192,192,253723,1,0,0:0:0:0:
192,192,253881,1,0,0:0:0:0:
320,192,253881,1,0,0:0:0:0:
448,192,254038,1,0,0:0:0:0:
64,192,254038,1,0,0:0:0:0:
320,192,254038,1,0,0:0:0:0:
192,192,254117,1,0,0:0:0:0:
448,192,254196,1,0,0:0:0:0:
64,192,254196,1,0,0:0:0:0:
320,192,254275,1,0,0:0:0:0:
192,192,254354,1,0,0:0:0:0:
64,192,254354,1,0,0:0:0:0:
448,192,254354,1,0,0:0:0:0:
192,192,254512,1,0,0:0:0:0:
448,192,254512,1,0,0:0:0:0:
64,192,254670,1,0,0:0:0:0:
320,192,254670,1,0,0:0:0:0:
448,192,254670,1,0,0:0:0:0:
64,192,254828,1,0,0:0:0:0:
320,192,254828,1,0,0:0:0:0:
192,192,254986,1,0,0:0:0:0:
448,192,254986,1,0,0:0:0:0:
64,192,254986,1,0,0:0:0:0:
192,192,255144,1,0,0:0:0:0:
448,192,255144,1,0,0:0:0:0:
64,192,255302,1,0,0:0:0:0:
320,192,255302,1,0,0:0:0:0:
448,192,255302,1,0,0:0:0:0:
192,192,255381,1,0,0:0:0:0:
64,192,255459,1,0,0:0:0:0:
320,192,255459,1,0,0:0:0:0:
448,192,255538,1,0,0:0:0:0:
320,192,255617,1,0,0:0:0:0:
192,192,255617,1,0,0:0:0:0:
64,192,255617,1,0,0:0:0:0:
192,192,255775,1,0,0:0:0:0:
64,192,255775,1,0,0:0:0:0:
320,192,255933,1,0,0:0:0:0:
448,192,255933,1,0,0:0:0:0:
192,192,255933,1,0,0:0:0:0:
320,192,256091,1,0,0:0:0:0:
448,192,256091,1,0,0:0:0:0:
192,192,256249,1,0,0:0:0:0:
64,192,256249,1,0,0:0:0:0:
320,192,256249,1,0,0:0:0:0:
64,192,256407,1,0,0:0:0:0:
192,192,256407,1,0,0:0:0:0:
320,192,256565,1,0,0:0:0:0:
448,192,256565,1,0,0:0:0:0:
192,192,256565,1,0,0:0:0:0:
64,192,256644,1,0,0:0:0:0:
320,192,256723,1,0,0:0:0:0:
448,192,256723,1,0,0:0:0:0:
192,192,256802,1,0,0:0:0:0:
320,192,256881,1,0,0:0:0:0:
448,192,256881,1,0,0:0:0:0:
64,192,256881,1,0,0:0:0:0:
320,192,257038,1,0,0:0:0:0:
448,192,257038,1,0,0:0:0:0:
192,192,257196,1,0,0:0:0:0:
320,192,257196,1,0,0:0:0:0:
64,192,257196,1,0,0:0:0:0:
192,192,257354,1,0,0:0:0:0:
320,192,257354,1,0,0:0:0:0:
64,192,257512,1,0,0:0:0:0:
192,192,257512,1,0,0:0:0:0:
448,192,257512,1,0,0:0:0:0:
192,192,257670,1,0,0:0:0:0:
64,192,257670,1,0,0:0:0:0:
192,192,257828,1,0,0:0:0:0:
320,192,257828,1,0,0:0:0:0:
448,192,257828,1,0,0:0:0:0:
192,192,257986,1,0,0:0:0:0:
320,192,257986,1,0,0:0:0:0:
64,192,258144,1,0,0:0:0:0:
192,192,258144,1,0,0:0:0:0:
320,192,258144,1,0,0:0:0:0:
448,192,258223,1,0,0:0:0:0:
320,192,258302,1,0,0:0:0:0:
64,192,258302,1,0,0:0:0:0:
192,192,258381,1,0,0:0:0:0:
448,192,258459,1,0,0:0:0:0:
320,192,258459,1,0,0:0:0:0:
192,192,258538,1,0,0:0:0:0:
64,192,258617,1,0,0:0:0:0:
320,192,258617,1,0,0:0:0:0:
448,192,258696,1,0,0:0:0:0:
64,192,258775,1,0,0:0:0:0:
192,192,258775,1,0,0:0:0:0:
320,192,258775,1,0,0:0:0:0:
448,192,258854,1,0,0:0:0:0:
320,192,258933,1,0,0:0:0:0:
64,192,258933,1,0,0:0:0:0:
192,192,259012,1,0,0:0:0:0:
320,192,259091,1,0,0:0:0:0:
448,192,259091,1,0,0:0:0:0:
192,192,259170,1,0,0:0:0:0:
64,192,259170,1,0,0:0:0:0:
320,192,259249,1,0,0:0:0:0:
448,192,259249,1,0,0:0:0:0:
64,192,259328,1,0,0:0:0:0:
192,192,259328,1,0,0:0:0:0:
64,192,259407,1,0,0:0:0:0:
320,192,259407,1,0,0:0:0:0:
448,192,259407,1,0,0:0:0:0:
192,192,259565,1,0,0:0:0:0:
64,192,259565,1,0,0:0:0:0:
320,192,259723,1,0,0:0:0:0:
448,192,259723,1,0,0:0:0:0:
192,192,259723,1,0,0:0:0:0:
64,192,259881,1,0,0:0:0:0:
448,192,259881,1,0,0:0:0:0:
320,192,260038,1,0,0:0:0:0:
192,192,260038,1,0,0:0:0:0:
64,192,260038,1,0,0:0:0:0:
320,192,260196,1,0,0:0:0:0:
448,192,260196,1,0,0:0:0:0:
192,192,260354,1,0,0:0:0:0:
64,192,260354,1,0,0:0:0:0:
448,192,260354,1,0,0:0:0:0:
192,192,260512,1,0,0:0:0:0:
320,192,260512,1,0,0:0:0:0:
64,192,260670,1,0,0:0:0:0:
320,192,260670,1,0,0:0:0:0:
448,192,260670,1,0,0:0:0:0:
64,192,260828,1,0,0:0:0:0:
192,192,260828,1,0,0:0:0:0:
192,192,260986,1,0,0:0:0:0:
320,192,260986,1,0,0:0:0:0:
448,192,260986,1,0,0:0:0:0:
64,192,261144,1,0,0:0:0:0:
448,192,261144,1,0,0:0:0:0:
320,192,261302,1,0,0:0:0:0:
192,192,261302,1,0,0:0:0:0:
64,192,261302,1,0,0:0:0:0:
448,192,261459,1,0,0:0:0:0:
320,192,261459,1,0,0:0:0:0:
192,192,261617,1,0,0:0:0:0:
64,192,261617,1,0,0:0:0:0:
448,192,261617,1,0,0:0:0:0:
320,192,261696,1,0,0:0:0:0:
448,192,261775,1,0,0:0:0:0:
64,192,261775,1,0,0:0:0:0:
192,192,261854,1,0,0:0:0:0:
320,192,261933,1,0,0:0:0:0:
448,192,261933,1,0,0:0:0:0:
64,192,261933,1,0,0:0:0:0:
192,192,262091,1,0,0:0:0:0:
64,192,262091,1,0,0:0:0:0:
320,192,262249,1,0,0:0:0:0:
192,192,262249,1,0,0:0:0:0:
448,192,262249,1,0,0:0:0:0:
448,192,262407,1,0,0:0:0:0:
64,192,262407,1,0,0:0:0:0:
64,192,262565,1,0,0:0:0:0:
192,192,262565,1,0,0:0:0:0:
320,192,262565,1,0,0:0:0:0:
448,192,262723,1,0,0:0:0:0:
320,192,262723,1,0,0:0:0:0:
64,192,262881,1,0,0:0:0:0:
192,192,262881,1,0,0:0:0:0:
448,192,262881,1,0,0:0:0:0:
192,192,263038,1,0,0:0:0:0:
320,192,263038,1,0,0:0:0:0:
448,192,263196,1,0,0:0:0:0:
64,192,263196,1,0,0:0:0:0:
320,192,263196,1,0,0:0:0:0:
64,192,263354,1,0,0:0:0:0:
192,192,263354,1,0,0:0:0:0:
448,192,263354,1,0,0:0:0:0:
192,192,263512,1,0,0:0:0:0:
320,192,263512,1,0,0:0:0:0:
64,192,263670,1,0,0:0:0:0:
448,192,263670,1,0,0:0:0:0:
320,192,263670,1,0,0:0:0:0:
64,192,263828,1,0,0:0:0:0:
192,192,263828,1,0,0:0:0:0:
448,192,263828,1,0,0:0:0:0:
448,192,263986,1,0,0:0:0:0:
64,192,263986,1,0,0:0:0:0:
320,192,264025,1,0,0:0:0:0:
192,192,264065,1,0,0:0:0:0:
64,192,264104,1,0,0:0:0:0:
448,192,264144,1,0,0:0:0:0:
192,192,264144,1,0,0:0:0:0:
320,192,264144,1,0,0:0:0:0:
64,192,264223,1,0,0:0:0:0:
320,192,264302,1,0,0:0:0:0:
192,192,264302,1,0,0:0:0:0:
448,192,264381,1,0,0:0:0:0:
320,192,264459,1,0,0:0:0:0:
64,192,264459,1,0,0:0:0:0:
192,192,264459,1,0,0:0:0:0:
64,192,264617,1,0,0:0:0:0:
448,192,264617,1,0,0:0:0:0:
192,192,264775,1,0,0:0:0:0:
448,192,264775,1,0,0:0:0:0:
320,192,264775,1,0,0:0:0:0:
192,192,264933,1,0,0:0:0:0:
64,192,264933,1,0,0:0:0:0:
320,192,265091,1,0,0:0:0:0:
448,192,265091,1,0,0:0:0:0:
64,192,265091,1,0,0:0:0:0:
192,192,265249,1,0,0:0:0:0:
320,192,265249,1,0,0:0:0:0:
64,192,265407,1,0,0:0:0:0:
192,192,265407,1,0,0:0:0:0:
448,192,265407,1,0,0:0:0:0:
320,192,265565,1,0,0:0:0:0:
448,192,265644,1,0,0:0:0:0:
64,192,265723,1,0,0:0:0:0:
192,192,265723,1,0,0:0:0:0:
320,192,265723,1,0,0:0:0:0:
64,192,265881,1,0,0:0:0:0:
448,192,265881,1,0,0:0:0:0:
192,192,266038,1,0,0:0:0:0:
320,192,266038,1,0,0:0:0:0:
448,192,266038,1,0,0:0:0:0:
64,192,266196,1,0,0:0:0:0:
192,192,266196,1,0,0:0:0:0:
320,192,266354,1,0,0:0:0:0:
448,192,266354,1,0,0:0:0:0:
64,192,266354,1,0,0:0:0:0:
192,192,266512,1,0,0:0:0:0:
320,192,266512,1,0,0:0:0:0:
64,192,266670,1,0,0:0:0:0:
192,192,266670,1,0,0:0:0:0:
448,192,266670,1,0,0:0:0:0:
320,192,266749,1,0,0:0:0:0:
192,192,266828,1,0,0:0:0:0:
64,192,266828,1,0,0:0:0:0:
448,192,266907,1,0,0:0:0:0:
64,192,266986,128,0,267223:0:0:0:0:
192,192,266986,128,0,267223:0:0:0:0:
320,192,266986,128,0,267223:0:0:0:0:
320,192,267302,1,0,0:0:0:0:
192,192,267302,1,0,0:0:0:0:
64,192,267302,1,0,0:0:0:0:
192,192,267459,128,0,267696:0:0:0:0:
448,192,267459,128,0,267696:0:0:0:0:
320,192,267459,128,0,267696:0:0:0:0:
192,192,267775,1,0,0:0:0:0:
320,192,267775,1,0,0:0:0:0:
448,192,267775,1,0,0:0:0:0:
64,192,267933,128,0,268170:0:0:0:0:
448,192,267933,128,0,268170:0:0:0:0:
320,192,267933,128,0,268170:0:0:0:0:
64,192,268249,1,0,0:0:0:0:
320,192,268249,1,0,0:0:0:0:
448,192,268249,1,0,0:0:0:0:
64,192,268407,128,0,268644:0:0:0:0:
448,192,268407,128,0,268644:0:0:0:0:
192,192,268407,128,0,268644:0:0:0:0:
64,192,268723,1,0,0:0:0:0:
448,192,268723,1,0,0:0:0:0:
192,192,268723,1,0,0:0:0:0:
64,192,268881,1,0,0:0:0:0:
192,192,268881,1,0,0:0:0:0:
320,192,268881,1,0,0:0:0:0:
192,192,269038,1,0,0:0:0:0:
320,192,269038,1,0,0:0:0:0:
448,192,269038,1,0,0:0:0:0:
320,192,269196,128,0,269433:0:0:0:0:
448,192,269196,128,0,269433:0:0:0:0:
64,192,269196,128,0,269433:0:0:0:0:
64,192,269512,1,0,0:0:0:0:
192,192,269512,1,0,0:0:0:0:
448,192,269512,1,0,0:0:0:0:
64,192,269670,1,0,0:0:0:0:
192,192,269986,1,0,0:0:0:0:
192,192,270144,1,0,0:0:0:0:
448,192,270459,1,0,0:0:0:0:
448,192,270617,1,0,0:0:0:0:
320,192,270933,1,0,0:0:0:0:
320,192,271091,1,0,0:0:0:0:
64,192,271407,1,0,0:0:0:0:
64,192,271723,1,0,0:0:0:0:
320,192,272038,1,0,0:0:0:0:
320,192,272196,1,0,0:0:0:0:
192,192,272512,1,0,0:0:0:0:
192,192,272670,1,0,0:0:0:0:
448,192,272986,1,0,0:0:0:0:
448,192,273144,1,0,0:0:0:0:
64,192,273459,1,0,0:0:0:0:
64,192,273617,1,0,0:0:0:0:
320,192,273933,1,0,0:0:0:0:
320,192,274249,1,0,0:0:0:0:
192,192,274565,1,0,0:0:0:0:
448,192,274565,1,0,0:0:0:0:
192,192,274723,1,0,0:0:0:0:
320,192,274881,1,0,0:0:0:0:
64,192,275038,1,0,0:0:0:0:
64,192,275196,1,0,0:0:0:0:
448,192,275196,1,0,0:0:0:0:
320,192,275512,1,0,0:0:0:0:
192,192,275512,1,0,0:0:0:0:
320,192,275670,1,0,0:0:0:0:
64,192,275828,1,0,0:0:0:0:
448,192,275986,1,0,0:0:0:0:
448,192,276144,1,0,0:0:0:0:
320,192,276459,1,0,0:0:0:0:
192,192,276459,1,0,0:0:0:0:
192,192,276775,1,0,0:0:0:0:
320,192,277091,1,0,0:0:0:0:
448,192,277091,1,0,0:0:0:0:
448,192,277249,1,0,0:0:0:0:
192,192,277407,1,0,0:0:0:0:
64,192,277565,1,0,0:0:0:0:
64,192,277723,1,0,0:0:0:0:
448,192,277723,1,0,0:0:0:0:
320,192,278038,1,0,0:0:0:0:
320,192,278196,1,0,0:0:0:0:
64,192,278354,1,0,0:0:0:0:
448,192,278354,1,0,0:0:0:0:
192,192,278512,1,0,0:0:0:0:
192,192,278670,1,0,0:0:0:0:
448,192,278986,1,0,0:0:0:0:
64,192,278986,1,0,0:0:0:0:
448,192,279302,1,0,0:0:0:0:
64,192,279617,1,0,0:0:0:0:
192,192,279617,1,0,0:0:0:0:
320,192,279617,1,0,0:0:0:0:
192,192,279775,1,0,0:0:0:0:
320,192,279933,1,0,0:0:0:0:
448,192,279933,1,0,0:0:0:0:
64,192,280091,1,0,0:0:0:0:
64,192,280249,1,0,0:0:0:0:
192,192,280249,1,0,0:0:0:0:
448,192,280328,1,0,0:0:0:0:
320,192,280407,1,0,0:0:0:0:
192,192,280407,1,0,0:0:0:0:
448,192,280565,1,0,0:0:0:0:
192,192,280565,1,0,0:0:0:0:
448,192,280723,1,0,0:0:0:0:
320,192,280723,1,0,0:0:0:0:
192,192,280881,1,0,0:0:0:0:
64,192,280881,1,0,0:0:0:0:
320,192,280881,1,0,0:0:0:0:
320,192,281038,1,0,0:0:0:0:
448,192,281038,1,0,0:0:0:0:
320,192,281196,1,0,0:0:0:0:
192,192,281196,1,0,0:0:0:0:
64,192,281354,1,0,0:0:0:0:
320,192,281354,1,0,0:0:0:0:
192,192,281512,1,0,0:0:0:0:
448,192,281512,1,0,0:0:0:0:
320,192,281670,1,0,0:0:0:0:
64,192,281670,1,0,0:0:0:0:
192,192,281828,1,0,0:0:0:0:
448,192,281828,1,0,0:0:0:0:
320,192,281907,1,0,0:0:0:0:
64,192,281986,1,0,0:0:0:0:
448,192,281986,1,0,0:0:0:0:
192,192,282065,1,0,0:0:0:0:
64,192,282144,1,0,0:0:0:0:
320,192,282144,1,0,0:0:0:0:
64,192,282302,1,0,0:0:0:0:
192,192,282459,1,0,0:0:0:0:
320,192,282459,1,0,0:0:0:0:
448,192,282459,1,0,0:0:0:0:
448,192,282617,1,0,0:0:0:0:
320,192,282617,1,0,0:0:0:0:
192,192,282775,1,0,0:0:0:0:
64,192,282775,1,0,0:0:0:0:
320,192,282933,1,0,0:0:0:0:
448,192,282933,1,0,0:0:0:0:
64,192,282933,1,0,0:0:0:0:
320,192,283091,1,0,0:0:0:0:
192,192,283091,1,0,0:0:0:0:
64,192,283249,1,0,0:0:0:0:
64,192,283407,1,0,0:0:0:0:
448,192,283407,1,0,0:0:0:0:
192,192,283459,1,0,0:0:0:0:
320,192,283512,1,0,0:0:0:0:
448,192,283565,1,0,0:0:0:0:
64,192,283565,1,0,0:0:0:0:
192,192,283617,1,0,0:0:0:0:
320,192,283670,1,0,0:0:0:0:
448,192,283723,1,0,0:0:0:0:
64,192,283723,1,0,0:0:0:0:
192,192,283881,1,0,0:0:0:0:
320,192,283881,1,0,0:0:0:0:
448,192,283881,1,0,0:0:0:0:
64,192,284038,1,0,0:0:0:0:
448,192,284038,1,0,0:0:0:0:
192,192,284117,1,0,0:0:0:0:
320,192,284196,1,0,0:0:0:0:
192,192,284275,1,0,0:0:0:0:
64,192,284354,1,0,0:0:0:0:
320,192,284354,1,0,0:0:0:0:
448,192,284512,1,0,0:0:0:0:
192,192,284512,1,0,0:0:0:0:
320,192,284670,1,0,0:0:0:0:
448,192,284670,1,0,0:0:0:0:
64,192,284670,1,0,0:0:0:0:
448,192,284828,1,0,0:0:0:0:
192,192,284986,1,0,0:0:0:0:
64,192,284986,1,0,0:0:0:0:
320,192,285144,1,0,0:0:0:0:
448,192,285223,1,0,0:0:0:0:
320,192,285302,1,0,0:0:0:0:
64,192,285302,1,0,0:0:0:0:
448,192,285459,1,0,0:0:0:0:
192,192,285459,1,0,0:0:0:0:
64,192,285459,1,0,0:0:0:0:
192,192,285617,1,0,0:0:0:0:
320,192,285617,1,0,0:0:0:0:
192,192,285775,1,0,0:0:0:0:
64,192,285775,1,0,0:0:0:0:
320,192,285933,1,0,0:0:0:0:
448,192,285933,1,0,0:0:0:0:
192,192,285933,1,0,0:0:0:0:
64,192,286091,1,0,0:0:0:0:
64,192,286249,1,0,0:0:0:0:
192,192,286407,1,0,0:0:0:0:
448,192,286407,1,0,0:0:0:0:
320,192,286407,1,0,0:0:0:0:
192,192,286565,1,0,0:0:0:0:
320,192,286565,1,0,0:0:0:0:
64,192,286723,1,0,0:0:0:0:
448,192,286881,1,0,0:0:0:0:
192,192,286881,1,0,0:0:0:0:
320,192,286959,1,0,0:0:0:0:
448,192,287038,1,0,0:0:0:0:
64,192,287038,1,0,0:0:0:0:
192,192,287117,1,0,0:0:0:0:
320,192,287196,1,0,0:0:0:0:
64,192,287196,1,0,0:0:0:0:
320,192,287354,1,0,0:0:0:0:
192,192,287433,1,0,0:0:0:0:
64,192,287512,1,0,0:0:0:0:
448,192,287512,1,0,0:0:0:0:
320,192,287591,1,0,0:0:0:0:
192,192,287670,1,0,0:0:0:0:
448,192,287670,1,0,0:0:0:0:
64,192,287749,1,0,0:0:0:0:
192,192,287828,1,0,0:0:0:0:
448,192,287828,1,0,0:0:0:0:
64,192,287907,1,0,0:0:0:0:
320,192,287986,1,0,0:0:0:0:
192,192,287986,1,0,0:0:0:0:
448,192,288065,1,0,0:0:0:0:
64,192,288144,1,0,0:0:0:0:
320,192,288144,1,0,0:0:0:0:
192,192,288223,1,0,0:0:0:0:
64,192,288302,1,0,0:0:0:0:
320,192,288302,1,0,0:0:0:0:
448,192,288381,1,0,0:0:0:0:
320,192,288459,1,0,0:0:0:0:
192,192,288459,1,0,0:0:0:0:
64,192,288459,1,0,0:0:0:0:
448,192,288617,1,0,0:0:0:0:
192,192,288617,1,0,0:0:0:0:
64,192,288696,1,0,0:0:0:0:
320,192,288696,1,0,0:0:0:0:
448,192,288775,1,0,0:0:0:0:
192,192,288775,1,0,0:0:0:0:
320,192,288854,1,0,0:0:0:0:
64,192,288854,1,0,0:0:0:0:
448,192,288933,1,0,0:0:0:0:
192,192,288933,1,0,0:0:0:0:
320,192,289012,1,0,0:0:0:0:
448,192,289091,1,0,0:0:0:0:
64,192,289091,128,0,289723:0:0:0:0:
192,192,289091,128,0,289723:0:0:0:0:
448,192,289723,1,0,0:0:0:0:
320,192,289723,128,0,291302:0:0:0:0:
64,192,290038,1,0,0:0:0:0:
192,192,290038,1,0,0:0:0:0:
448,192,290354,1,0,0:0:0:0:
192,192,290512,1,0,0:0:0:0:
64,192,290670,1,0,0:0:0:0:
448,192,290670,1,0,0:0:0:0:
192,192,290986,1,0,0:0:0:0:
64,192,291144,1,0,0:0:0:0:
192,192,291302,1,0,0:0:0:0:
448,192,291302,1,0,0:0:0:0:
320,192,291459,1,0,0:0:0:0:
192,192,291617,128,0,292249:0:0:0:0:
448,192,291617,1,0,0:0:0:0:
320,192,291775,1,0,0:0:0:0:
64,192,291933,1,0,0:0:0:0:
448,192,291933,1,0,0:0:0:0:
320,192,292091,1,0,0:0:0:0:
448,192,292249,128,0,293828:0:0:0:0:
64,192,292249,1,0,0:0:0:0:
192,192,292565,1,0,0:0:0:0:
320,192,292565,1,0,0:0:0:0:
64,192,292881,1,0,0:0:0:0:
192,192,293038,1,0,0:0:0:0:
320,192,293196,1,0,0:0:0:0:
64,192,293196,1,0,0:0:0:0:
192,192,293512,1,0,0:0:0:0:
320,192,293670,1,0,0:0:0:0:
192,192,293828,1,0,0:0:0:0:
64,192,293828,1,0,0:0:0:0:
320,192,294144,128,0,294775:0:0:0:0:
64,192,294302,1,0,0:0:0:0:
192,192,294381,1,0,0:0:0:0:
64,192,294459,1,0,0:0:0:0:
64,192,294617,1,0,0:0:0:0:
192,192,294696,1,0,0:0:0:0:
64,192,294775,128,0,295249:0:0:0:0:
448,192,294775,1,0,0:0:0:0:
320,192,295091,1,0,0:0:0:0:
192,192,295249,128,0,295723:0:0:0:0:
448,192,295407,1,0,0:0:0:0:
320,192,295723,128,0,297302:0:0:0:0:
64,192,295723,1,0,0:0:0:0:
448,192,295723,1,0,0:0:0:0:
192,192,296038,1,0,0:0:0:0:
64,192,296196,1,0,0:0:0:0:
448,192,296354,1,0,0:0:0:0:
192,192,296354,1,0,0:0:0:0:
448,192,296670,1,0,0:0:0:0:
64,192,296828,1,0,0:0:0:0:
192,192,296986,1,0,0:0:0:0:
448,192,296986,1,0,0:0:0:0:
64,192,297144,1,0,0:0:0:0:
192,192,297302,128,0,297933:0:0:0:0:
448,192,297302,1,0,0:0:0:0:
320,192,297617,1,0,0:0:0:0:
64,192,297617,1,0,0:0:0:0:
320,192,297933,128,0,298407:0:0:0:0:
448,192,297933,1,0,0:0:0:0:
192,192,298091,1,0,0:0:0:0:
64,192,298249,1,0,0:0:0:0:
448,192,298249,1,0,0:0:0:0:
448,192,298407,128,0,299196:0:0:0:0:
192,192,298565,1,0,0:0:0:0:
64,192,298723,1,0,0:0:0:0:
192,192,298881,1,0,0:0:0:0:
320,192,298881,1,0,0:0:0:0:
64,192,299196,128,0,299828:0:0:0:0:
192,192,299196,1,0,0:0:0:0:
320,192,299196,1,0,0:0:0:0:
320,192,299354,1,0,0:0:0:0:
448,192,299354,1,0,0:0:0:0:
448,192,299512,1,0,0:0:0:0:
192,192,299512,1,0,0:0:0:0:
320,192,299670,1,0,0:0:0:0:
448,192,299749,1,0,0:0:0:0:
320,192,299828,128,0,301407:0:0:0:0:
192,192,299828,1,0,0:0:0:0:
64,192,300144,1,0,0:0:0:0:
448,192,300144,1,0,0:0:0:0:
192,192,300459,1,0,0:0:0:0:
64,192,300617,1,0,0:0:0:0:
192,192,300775,1,0,0:0:0:0:
448,192,300775,1,0,0:0:0:0:
64,192,301091,1,0,0:0:0:0:
192,192,301249,1,0,0:0:0:0:
448,192,301407,1,0,0:0:0:0:
64,192,301407,1,0,0:0:0:0:
192,192,301723,128,0,302354:0:0:0:0:
320,192,301723,1,0,0:0:0:0:
448,192,301881,1,0,0:0:0:0:
320,192,302038,1,0,0:0:0:0:
64,192,302038,1,0,0:0:0:0:
64,192,302196,1,0,0:0:0:0:
448,192,302196,1,0,0:0:0:0:
448,192,302354,128,0,303933:0:0:0:0:
320,192,302354,1,0,0:0:0:0:
192,192,302670,1,0,0:0:0:0:
320,192,302670,1,0,0:0:0:0:
64,192,302986,1,0,0:0:0:0:
320,192,303144,1,0,0:0:0:0:
192,192,303302,1,0,0:0:0:0:
64,192,303302,1,0,0:0:0:0:
320,192,303617,1,0,0:0:0:0:
192,192,303775,1,0,0:0:0:0:
64,192,303933,1,0,0:0:0:0:
320,192,303933,1,0,0:0:0:0:
320,192,304249,128,0,304881:0:0:0:0:
448,192,304249,1,0,0:0:0:0:
64,192,304407,1,0,0:0:0:0:
192,192,304486,1,0,0:0:0:0:
64,192,304565,1,0,0:0:0:0:
64,192,304723,1,0,0:0:0:0:
192,192,304802,1,0,0:0:0:0:
64,192,304881,128,0,305354:0:0:0:0:
448,192,304881,1,0,0:0:0:0:
320,192,305196,1,0,0:0:0:0:
192,192,305354,128,0,305828:0:0:0:0:
448,192,305512,1,0,0:0:0:0:
320,192,305828,128,0,307407:0:0:0:0:
64,192,305828,1,0,0:0:0:0:
448,192,305828,1,0,0:0:0:0:
192,192,306144,1,0,0:0:0:0:
64,192,306302,1,0,0:0:0:0:
192,192,306459,1,0,0:0:0:0:
448,192,306459,1,0,0:0:0:0:
64,192,306775,1,0,0:0:0:0:
192,192,306933,1,0,0:0:0:0:
64,192,307091,1,0,0:0:0:0:
448,192,307091,1,0,0:0:0:0:
192,192,307249,1,0,0:0:0:0:
64,192,307407,1,0,0:0:0:0:
448,192,307407,1,0,0:0:0:0:
192,192,307407,128,0,308038:0:0:0:0:
320,192,307565,1,0,0:0:0:0:
448,192,307723,1,0,0:0:0:0:
64,192,307723,1,0,0:0:0:0:
320,192,308038,128,0,308512:0:0:0:0:
448,192,308038,1,0,0:0:0:0:
192,192,308354,1,0,0:0:0:0:
64,192,308433,1,0,0:0:0:0:
448,192,308512,128,0,309302:0:0:0:0:
192,192,308512,1,0,0:0:0:0:
64,192,308591,1,0,0:0:0:0:
192,192,308670,1,0,0:0:0:0:
320,192,308670,1,0,0:0:0:0:
192,192,308907,1,0,0:0:0:0:
320,192,308907,1,0,0:0:0:0:
320,192,309144,1,0,0:0:0:0:
192,192,309144,1,0,0:0:0:0:
64,192,309302,128,0,309933:0:0:0:0:
192,192,309302,1,0,0:0:0:0:
320,192,309302,1,0,0:0:0:0:
192,192,309538,1,0,0:0:0:0:
320,192,309538,1,0,0:0:0:0:
448,192,309538,1,0,0:0:0:0:
192,192,309775,1,0,0:0:0:0:
320,192,309775,1,0,0:0:0:0:
448,192,309775,1,0,0:0:0:0:
320,192,309933,1,0,0:0:0:0:
448,192,309933,1,0,0:0:0:0:
192,192,309933,1,0,0:0:0:0:
64,192,310249,1,0,0:0:0:0:
320,192,310249,1,0,0:0:0:0:
448,192,310407,1,0,0:0:0:0:
192,192,310565,1,0,0:0:0:0:
64,192,310565,1,0,0:0:0:0:
320,192,310565,1,0,0:0:0:0:
320,192,310723,1,0,0:0:0:0:
448,192,310881,1,0,0:0:0:0:
64,192,311038,1,0,0:0:0:0:
320,192,311196,1,0,0:0:0:0:
448,192,311196,1,0,0:0:0:0:
192,192,311196,1,0,0:0:0:0:
320,192,311512,1,0,0:0:0:0:
64,192,311512,1,0,0:0:0:0:
448,192,311670,1,0,0:0:0:0:
192,192,311828,1,0,0:0:0:0:
64,192,311828,1,0,0:0:0:0:
320,192,311828,1,0,0:0:0:0:
320,192,311986,1,0,0:0:0:0:
448,192,312144,1,0,0:0:0:0:
192,192,312144,1,0,0:0:0:0:
64,192,312302,1,0,0:0:0:0:
448,192,312459,128,0,312775:0:0:0:0:
192,192,312459,1,0,0:0:0:0:
320,192,312459,1,0,0:0:0:0:
64,192,312775,1,0,0:0:0:0:
64,192,312933,1,0,0:0:0:0:
320,192,313091,1,0,0:0:0:0:
448,192,313091,128,0,313407:0:0:0:0:
192,192,313091,1,0,0:0:0:0:
192,192,313249,1,0,0:0:0:0:
64,192,313407,1,0,0:0:0:0:
320,192,313565,1,0,0:0:0:0:
320,192,313723,128,0,314986:0:0:0:0:
192,192,313723,1,0,0:0:0:0:
64,192,313723,1,0,0:0:0:0:
64,192,314038,1,0,0:0:0:0:
192,192,314196,1,0,0:0:0:0:
64,192,314354,1,0,0:0:0:0:
448,192,314354,1,0,0:0:0:0:
192,192,314670,1,0,0:0:0:0:
64,192,314828,1,0,0:0:0:0:
448,192,314986,1,0,0:0:0:0:
192,192,314986,1,0,0:0:0:0:
448,192,315302,1,0,0:0:0:0:
192,192,315302,1,0,0:0:0:0:
64,192,315459,1,0,0:0:0:0:
192,192,315617,1,0,0:0:0:0:
448,192,315617,1,0,0:0:0:0:
320,192,315617,1,0,0:0:0:0:
320,192,315775,1,0,0:0:0:0:
192,192,315933,1,0,0:0:0:0:
64,192,316091,1,0,0:0:0:0:
448,192,316249,1,0,0:0:0:0:
192,192,316249,1,0,0:0:0:0:
320,192,316249,1,0,0:0:0:0:
192,192,316565,1,0,0:0:0:0:
448,192,316565,1,0,0:0:0:0:
64,192,316723,1,0,0:0:0:0:
448,192,316881,1,0,0:0:0:0:
192,192,316881,1,0,0:0:0:0:
320,192,316881,1,0,0:0:0:0:
320,192,317038,1,0,0:0:0:0:
448,192,317196,1,0,0:0:0:0:
192,192,317196,1,0,0:0:0:0:
64,192,317354,1,0,0:0:0:0:
192,192,317512,128,0,317828:0:0:0:0:
320,192,317512,1,0,0:0:0:0:
448,192,317512,1,0,0:0:0:0:
448,192,317828,1,0,0:0:0:0:
448,192,317986,1,0,0:0:0:0:
192,192,318144,128,0,318459:0:0:0:0:
64,192,318144,1,0,0:0:0:0:
320,192,318144,1,0,0:0:0:0:
320,192,318302,1,0,0:0:0:0:
448,192,318459,1,0,0:0:0:0:
64,192,318617,1,0,0:0:0:0:
320,192,318775,1,0,0:0:0:0:
192,192,318775,1,0,0:0:0:0:
448,192,318775,1,0,0:0:0:0:
448,192,319091,1,0,0:0:0:0:
320,192,319249,1,0,0:0:0:0:
448,192,319407,1,0,0:0:0:0:
192,192,319407,1,0,0:0:0:0:
64,192,319407,1,0,0:0:0:0:
320,192,319723,1,0,0:0:0:0:
448,192,319881,1,0,0:0:0:0:
320,192,320038,1,0,0:0:0:0:
192,192,320038,1,0,0:0:0:0:
64,192,320038,1,0,0:0:0:0:
192,192,320354,1,0,0:0:0:0:
448,192,320354,1,0,0:0:0:0:
320,192,320512,1,0,0:0:0:0:
192,192,320670,1,0,0:0:0:0:
64,192,320670,1,0,0:0:0:0:
448,192,320670,1,0,0:0:0:0:
320,192,320828,1,0,0:0:0:0:
192,192,320986,1,0,0:0:0:0:
64,192,321144,1,0,0:0:0:0:
192,192,321302,1,0,0:0:0:0:
320,192,321302,1,0,0:0:0:0:
448,192,321302,1,0,0:0:0:0:
320,192,321617,1,0,0:0:0:0:
64,192,321617,1,0,0:0:0:0:
448,192,321775,1,0,0:0:0:0:
192,192,321933,1,0,0:0:0:0:
64,192,321933,1,0,0:0:0:0:
320,192,321933,1,0,0:0:0:0:
320,192,322091,1,0,0:0:0:0:
192,192,322249,1,0,0:0:0:0:
448,192,322249,1,0,0:0:0:0:
64,192,322407,1,0,0:0:0:0:
192,192,322565,1,0,0:0:0:0:
448,192,322565,128,0,322881:0:0:0:0:
320,192,322565,1,0,0:0:0:0:
64,192,322881,1,0,0:0:0:0:
64,192,323038,1,0,0:0:0:0:
320,192,323196,1,0,0:0:0:0:
448,192,323196,128,0,323512:0:0:0:0:
192,192,323196,1,0,0:0:0:0:
192,192,323354,1,0,0:0:0:0:
64,192,323512,1,0,0:0:0:0:
320,192,323670,1,0,0:0:0:0:
192,192,323828,1,0,0:0:0:0:
320,192,323828,128,0,325091:0:0:0:0:
64,192,323828,1,0,0:0:0:0:
64,192,324144,1,0,0:0:0:0:
192,192,324302,1,0,0:0:0:0:
64,192,324459,1,0,0:0:0:0:
448,192,324459,1,0,0:0:0:0:
192,192,324775,1,0,0:0:0:0:
64,192,324933,1,0,0:0:0:0:
192,192,325091,1,0,0:0:0:0:
448,192,325091,1,0,0:0:0:0:
192,192,325407,1,0,0:0:0:0:
448,192,325407,1,0,0:0:0:0:
64,192,325565,1,0,0:0:0:0:
448,192,325723,1,0,0:0:0:0:
192,192,325723,1,0,0:0:0:0:
320,192,325881,1,0,0:0:0:0:
192,192,326038,1,0,0:0:0:0:
64,192,326196,1,0,0:0:0:0:
448,192,326354,1,0,0:0:0:0:
192,192,326354,1,0,0:0:0:0:
448,192,326670,1,0,0:0:0:0:
192,192,326670,1,0,0:0:0:0:
64,192,326828,1,0,0:0:0:0:
448,192,326986,1,0,0:0:0:0:
192,192,326986,1,0,0:0:0:0:
320,192,327144,1,0,0:0:0:0:
448,192,327302,1,0,0:0:0:0:
192,192,327302,1,0,0:0:0:0:
64,192,327459,1,0,0:0:0:0:
320,192,327617,1,0,0:0:0:0:
192,192,327617,128,0,327933:0:0:0:0:
448,192,327933,1,0,0:0:0:0:
448,192,328091,1,0,0:0:0:0:
192,192,328249,128,0,328565:0:0:0:0:
320,192,328407,1,0,0:0:0:0:
448,192,328565,1,0,0:0:0:0:
192,192,328723,1,0,0:0:0:0:
320,192,328881,1,0,0:0:0:0:
448,192,329196,1,0,0:0:0:0:
64,192,329196,128,0,329986:0:0:0:0:
320,192,329354,1,0,0:0:0:0:
448,192,329512,1,0,0:0:0:0:
320,192,329828,1,0,0:0:0:0:
448,192,329986,1,0,0:0:0:0:
192,192,333302,1,0,0:0:0:0:
192,192,333617,1,0,0:0:0:0:
320,192,333775,1,0,0:0:0:0:
64,192,333933,1,0,0:0:0:0:
448,192,334091,1,0,0:0:0:0:
192,192,334407,1,0,0:0:0:0:
448,192,334723,1,0,0:0:0:0:
192,192,334881,1,0,0:0:0:0:
320,192,335038,1,0,0:0:0:0:
64,192,335354,1,0,0:0:0:0:
320,192,335354,128,0,335986:0:0:0:0:
192,192,335512,1,0,0:0:0:0:
448,192,335670,1,0,0:0:0:0:
192,192,335828,1,0,0:0:0:0:
64,192,335986,1,0,0:0:0:0:
448,192,336144,1,0,0:0:0:0:
320,192,336144,128,0,336459:0:0:0:0:
192,192,336302,1,0,0:0:0:0:
320,192,336617,1,0,0:0:0:0:
320,192,336933,1,0,0:0:0:0:
64,192,337091,1,0,0:0:0:0:
192,192,337091,1,0,0:0:0:0:
448,192,337249,1,0,0:0:0:0:
64,192,337565,1,0,0:0:0:0:
192,192,337565,1,0,0:0:0:0:
320,192,337723,1,0,0:0:0:0:
192,192,337881,1,0,0:0:0:0:
64,192,338038,1,0,0:0:0:0:
448,192,338144,1,0,0:0:0:0:
192,192,338196,1,0,0:0:0:0:
320,192,338354,128,0,338828:0:0:0:0:
64,192,338670,1,0,0:0:0:0:
192,192,338670,1,0,0:0:0:0:
448,192,338933,1,0,0:0:0:0:
320,192,338986,1,0,0:0:0:0:
64,192,339144,1,0,0:0:0:0:
192,192,339196,1,0,0:0:0:0:
448,192,339302,1,0,0:0:0:0:
320,192,339459,1,0,0:0:0:0:
64,192,339723,1,0,0:0:0:0:
192,192,339775,1,0,0:0:0:0:
320,192,339933,1,0,0:0:0:0:
448,192,340038,1,0,0:0:0:0:
64,192,340091,1,0,0:0:0:0:
320,192,340091,128,0,340407:0:0:0:0:
448,192,340302,1,0,0:0:0:0:
192,192,340407,1,0,0:0:0:0:
320,192,340565,128,0,340881:0:0:0:0:
64,192,340565,1,0,0:0:0:0:
192,192,340828,1,0,0:0:0:0:
64,192,340881,1,0,0:0:0:0:
320,192,341038,128,0,341354:0:0:0:0:
64,192,341091,1,0,0:0:0:0:
192,192,341196,1,0,0:0:0:0:
448,192,341354,1,0,0:0:0:0:
64,192,341512,1,0,0:0:0:0:
320,192,341512,128,0,341828:0:0:0:0:
192,192,341617,1,0,0:0:0:0:
448,192,341828,1,0,0:0:0:0:
192,192,341881,1,0,0:0:0:0:
192,192,342144,1,0,0:0:0:0:
64,192,342144,1,0,0:0:0:0:
320,192,342302,1,0,0:0:0:0:
448,192,342407,1,0,0:0:0:0:
64,192,342459,1,0,0:0:0:0:
448,192,342617,1,0,0:0:0:0:
192,192,342670,1,0,0:0:0:0:
192,192,342933,1,0,0:0:0:0:
64,192,342933,1,0,0:0:0:0:
320,192,343196,1,0,0:0:0:0:
448,192,343249,1,0,0:0:0:0:
64,192,343407,1,0,0:0:0:0:
192,192,343459,1,0,0:0:0:0:
320,192,343565,1,0,0:0:0:0:
448,192,343775,1,0,0:0:0:0:
192,192,343881,1,0,0:0:0:0:
64,192,344038,1,0,0:0:0:0:
320,192,344196,1,0,0:0:0:0:
64,192,344354,1,0,0:0:0:0:
448,192,344512,1,0,0:0:0:0:
320,192,344565,1,0,0:0:0:0:
192,192,344670,1,0,0:0:0:0:
448,192,344828,1,0,0:0:0:0:
64,192,344828,1,0,0:0:0:0:
320,192,345091,1,0,0:0:0:0:
64,192,345144,1,0,0:0:0:0:
192,192,345354,1,0,0:0:0:0:
448,192,345459,1,0,0:0:0:0:
192,192,345617,1,0,0:0:0:0:
64,192,345617,1,0,0:0:0:0:
320,192,345775,1,0,0:0:0:0:
448,192,345881,1,0,0:0:0:0:
64,192,346091,1,0,0:0:0:0:
192,192,346144,1,0,0:0:0:0:
448,192,346407,1,0,0:0:0:0:
320,192,346459,1,0,0:0:0:0:
192,192,346670,1,0,0:0:0:0:
64,192,346723,1,0,0:0:0:0:
320,192,346881,1,0,0:0:0:0:
448,192,346933,1,0,0:0:0:0:
64,192,347038,1,0,0:0:0:0:
192,192,347249,5,0,0:0:0:0:
448,192,347354,5,0,0:0:0:0:
320,192,347512,1,0,0:0:0:0:
192,192,347670,1,0,0:0:0:0:
64,192,347775,1,0,0:0:0:0:
320,192,347828,128,0,350354:0:0:0:0:
448,192,347828,1,0,0:0:0:0:
192,192,347986,1,0,0:0:0:0:
64,192,348038,1,0,0:0:0:0:
448,192,348144,1,0,0:0:0:0:
64,192,348302,1,0,0:0:0:0:
192,192,348459,1,0,0:0:0:0:
64,192,348565,1,0,0:0:0:0:
448,192,348775,1,0,0:0:0:0:
64,192,348828,1,0,0:0:0:0:
192,192,348933,1,0,0:0:0:0:
448,192,349091,1,0,0:0:0:0:
64,192,349091,1,0,0:0:0:0:
64,192,349354,1,0,0:0:0:0:
192,192,349407,1,0,0:0:0:0:
448,192,349723,1,0,0:0:0:0:
64,192,349881,5,0,0:0:0:0:
192,192,349881,1,0,0:0:0:0:
448,192,350038,1,0,0:0:0:0:
64,192,350354,5,0,0:0:0:0:
448,192,350354,1,0,0:0:0:0:
192,192,350354,128,0,350670:0:0:0:0:
64,192,350670,128,0,350986:0:0:0:0:
320,192,350986,128,0,351302:0:0:0:0:
192,192,351302,128,0,351617:0:0:0:0:
448,192,351617,128,0,351933:0:0:0:0:
320,192,351933,128,0,352091:0:0:0:0:
448,192,352091,128,0,352249:0:0:0:0:
448,192,352407,128,0,352565:0:0:0:0:
64,192,352723,128,0,352881:0:0:0:0:
192,192,352881,128,0,353196:0:0:0:0:
64,192,353196,128,0,353512:0:0:0:0:
320,192,353512,128,0,353828:0:0:0:0:
192,192,353828,128,0,354144:0:0:0:0:
448,192,354144,128,0,354459:0:0:0:0:
320,192,354459,128,0,354617:0:0:0:0:
448,192,354617,128,0,354775:0:0:0:0:
448,192,354933,128,0,355091:0:0:0:0:
320,192,355091,128,0,355249:0:0:0:0:
192,192,355249,128,0,355407:0:0:0:0:
64,192,355407,5,0,0:0:0:0:
448,192,355407,1,0,0:0:0:0:
320,192,355407,128,0,355723:0:0:0:0:
448,192,355723,128,0,356038:0:0:0:0:
192,192,356038,128,0,356354:0:0:0:0:
320,192,356354,128,0,356670:0:0:0:0:
64,192,356670,128,0,356986:0:0:0:0:
192,192,356986,128,0,357144:0:0:0:0:
64,192,357144,128,0,357302:0:0:0:0:
64,192,357459,128,0,357617:0:0:0:0:
448,192,357775,128,0,357933:0:0:0:0:
320,192,357933,128,0,358249:0:0:0:0:
448,192,358249,128,0,358565:0:0:0:0:
192,192,358565,128,0,358881:0:0:0:0:
320,192,358881,128,0,359196:0:0:0:0:
64,192,359196,128,0,359354:0:0:0:0:
320,192,359354,1,0,0:0:0:0:
192,192,359433,1,0,0:0:0:0:
64,192,359512,1,0,0:0:0:0:
448,192,359512,1,0,0:0:0:0:
192,192,359591,5,0,0:0:0:0:
320,192,359670,1,0,0:0:0:0:
448,192,359749,1,0,0:0:0:0:
192,192,359828,1,0,0:0:0:0:
64,192,359828,1,0,0:0:0:0:
320,192,359907,1,0,0:0:0:0:
448,192,359986,1,0,0:0:0:0:
320,192,360065,1,0,0:0:0:0:
192,192,360144,128,0,360459:0:0:0:0:
64,192,360144,1,0,0:0:0:0:
448,192,360459,5,0,0:0:0:0:
64,192,360459,1,0,0:0:0:0:
320,192,360459,1,0,0:0:0:0:
320,192,360617,1,0,0:0:0:0:
192,192,360775,1,0,0:0:0:0:
448,192,360775,1,0,0:0:0:0:
192,192,360933,1,0,0:0:0:0:
64,192,361091,1,0,0:0:0:0:
320,192,361091,1,0,0:0:0:0:
192,192,361170,1,0,0:0:0:0:
448,192,361170,1,0,0:0:0:0:
64,192,361249,1,0,0:0:0:0:
320,192,361249,1,0,0:0:0:0:
448,192,361407,1,0,0:0:0:0:
192,192,361407,1,0,0:0:0:0:
320,192,361486,1,0,0:0:0:0:
64,192,361486,1,0,0:0:0:0:
448,192,361565,1,0,0:0:0:0:
192,192,361565,1,0,0:0:0:0:
192,192,361723,1,0,0:0:0:0:
320,192,361723,1,0,0:0:0:0:
192,192,361881,1,0,0:0:0:0:
320,192,361881,1,0,0:0:0:0:
448,192,362038,1,0,0:0:0:0:
64,192,362038,1,0,0:0:0:0:
448,192,362196,1,0,0:0:0:0:
192,192,362196,1,0,0:0:0:0:
64,192,362196,1,0,0:0:0:0:
320,192,362354,1,0,0:0:0:0:
320,192,362512,1,0,0:0:0:0:
192,192,362512,1,0,0:0:0:0:
64,192,362670,1,0,0:0:0:0:
192,192,362749,1,0,0:0:0:0:
64,192,362828,1,0,0:0:0:0:
192,192,362907,1,0,0:0:0:0:
448,192,362986,1,0,0:0:0:0:
320,192,362986,1,0,0:0:0:0:
64,192,362986,1,0,0:0:0:0:
448,192,363144,1,0,0:0:0:0:
192,192,363302,1,0,0:0:0:0:
320,192,363302,1,0,0:0:0:0:
64,192,363302,1,0,0:0:0:0:
192,192,363459,1,0,0:0:0:0:
64,192,363617,1,0,0:0:0:0:
448,192,363617,1,0,0:0:0:0:
64,192,363775,1,0,0:0:0:0:
192,192,363775,1,0,0:0:0:0:
320,192,363933,1,0,0:0:0:0:
192,192,363933,1,0,0:0:0:0:
320,192,364091,1,0,0:0:0:0:
64,192,364249,1,0,0:0:0:0:
448,192,364249,1,0,0:0:0:0:
320,192,364302,1,0,0:0:0:0:
192,192,364354,1,0,0:0:0:0:
64,192,364407,1,0,0:0:0:0:
192,192,364459,1,0,0:0:0:0:
320,192,364512,1,0,0:0:0:0:
448,192,364565,1,0,0:0:0:0:
192,192,364565,1,0,0:0:0:0:
448,192,364723,1,0,0:0:0:0:
64,192,364723,1,0,0:0:0:0:
320,192,364881,1,0,0:0:0:0:
448,192,364959,1,0,0:0:0:0:
320,192,365038,1,0,0:0:0:0:
64,192,365038,1,0,0:0:0:0:
448,192,365117,1,0,0:0:0:0:
192,192,365196,1,0,0:0:0:0:
320,192,365196,1,0,0:0:0:0:
64,192,365275,1,0,0:0:0:0:
192,192,365354,1,0,0:0:0:0:
320,192,365354,1,0,0:0:0:0:
448,192,365512,1,0,0:0:0:0:
320,192,365512,1,0,0:0:0:0:
64,192,365512,1,0,0:0:0:0:
448,192,365670,1,0,0:0:0:0:
320,192,365828,1,0,0:0:0:0:
192,192,365828,1,0,0:0:0:0:
320,192,365986,1,0,0:0:0:0:
64,192,366144,1,0,0:0:0:0:
448,192,366144,1,0,0:0:0:0:
64,192,366302,1,0,0:0:0:0:
320,192,366302,1,0,0:0:0:0:
192,192,366459,1,0,0:0:0:0:
320,192,366459,1,0,0:0:0:0:
192,192,366617,1,0,0:0:0:0:
320,192,366775,1,0,0:0:0:0:
448,192,366775,1,0,0:0:0:0:
64,192,366775,1,0,0:0:0:0:
320,192,366933,1,0,0:0:0:0:
64,192,367012,1,0,0:0:0:0:
448,192,367091,1,0,0:0:0:0:
192,192,367091,1,0,0:0:0:0:
448,192,367249,1,0,0:0:0:0:
64,192,367249,1,0,0:0:0:0:
320,192,367249,1,0,0:0:0:0:
192,192,367407,1,0,0:0:0:0:
64,192,367486,1,0,0:0:0:0:
192,192,367565,1,0,0:0:0:0:
320,192,367565,1,0,0:0:0:0:
64,192,367723,1,0,0:0:0:0:
192,192,367802,1,0,0:0:0:0:
448,192,367881,1,0,0:0:0:0:
320,192,367881,1,0,0:0:0:0:
64,192,367959,1,0,0:0:0:0:
192,192,368038,1,0,0:0:0:0:
320,192,368038,1,0,0:0:0:0:
448,192,368038,1,0,0:0:0:0:
64,192,368117,1,0,0:0:0:0:
192,192,368196,1,0,0:0:0:0:
448,192,368275,1,0,0:0:0:0:
320,192,368354,1,0,0:0:0:0:
64,192,368354,1,0,0:0:0:0:
320,192,368512,1,0,0:0:0:0:
64,192,368670,1,0,0:0:0:0:
448,192,368670,1,0,0:0:0:0:
192,192,368749,1,0,0:0:0:0:
64,192,368828,1,0,0:0:0:0:
448,192,368828,1,0,0:0:0:0:
320,192,368907,1,0,0:0:0:0:
448,192,368986,1,0,0:0:0:0:
192,192,368986,1,0,0:0:0:0:
320,192,369065,1,0,0:0:0:0:
448,192,369144,1,0,0:0:0:0:
192,192,369223,1,0,0:0:0:0:
64,192,369302,1,0,0:0:0:0:
320,192,369302,1,0,0:0:0:0:
448,192,369302,1,0,0:0:0:0:
64,192,369459,1,0,0:0:0:0:
192,192,369459,1,0,0:0:0:0:
448,192,369617,1,0,0:0:0:0:
192,192,369617,1,0,0:0:0:0:
448,192,369775,1,0,0:0:0:0:
320,192,369775,1,0,0:0:0:0:
192,192,369933,1,0,0:0:0:0:
64,192,369933,1,0,0:0:0:0:
192,192,370091,1,0,0:0:0:0:
320,192,370091,1,0,0:0:0:0:
320,192,370249,1,0,0:0:0:0:
448,192,370249,1,0,0:0:0:0:
320,192,370407,1,0,0:0:0:0:
192,192,370407,1,0,0:0:0:0:
448,192,370565,1,0,0:0:0:0:
192,192,370565,1,0,0:0:0:0:
64,192,370565,1,0,0:0:0:0:
320,192,370881,128,0,371196:0:0:0:0:
448,192,371196,128,0,371354:0:0:0:0:
192,192,371196,1,0,0:0:0:0:
192,192,371512,128,0,371828:0:0:0:0:
320,192,371828,128,0,371986:0:0:0:0:
64,192,371828,1,0,0:0:0:0:
64,192,372144,128,0,372459:0:0:0:0:
192,192,372459,128,0,372617:0:0:0:0:
448,192,372459,1,0,0:0:0:0:
448,192,372775,128,0,373091:0:0:0:0:
320,192,373091,128,0,373249:0:0:0:0:
64,192,373091,1,0,0:0:0:0:
64,192,373407,128,0,373723:0:0:0:0:
448,192,373723,128,0,373881:0:0:0:0:
192,192,373723,1,0,0:0:0:0:
192,192,374038,128,0,374354:0:0:0:0:
64,192,374354,128,0,374512:0:0:0:0:
320,192,374354,1,0,0:0:0:0:
320,192,374670,128,0,374986:0:0:0:0:
192,192,374986,128,0,375144:0:0:0:0:
448,192,374986,1,0,0:0:0:0:
448,192,375302,128,0,375617:0:0:0:0:
64,192,375617,128,0,375775:0:0:0:0:
320,192,375617,1,0,0:0:0:0:
192,192,375617,1,0,0:0:0:0:
320,192,375933,128,0,376249:0:0:0:0:
448,192,376249,128,0,376407:0:0:0:0:
192,192,376249,1,0,0:0:0:0:
192,192,376565,128,0,376881:0:0:0:0:
320,192,376881,128,0,377038:0:0:0:0:
64,192,376881,1,0,0:0:0:0:
64,192,377196,128,0,377512:0:0:0:0:
192,192,377512,128,0,377670:0:0:0:0:
448,192,377512,1,0,0:0:0:0:
448,192,377828,128,0,378144:0:0:0:0:
320,192,378144,128,0,378302:0:0:0:0:
64,192,378144,1,0,0:0:0:0:
64,192,378459,128,0,378775:0:0:0:0:
448,192,378775,128,0,378933:0:0:0:0:
192,192,378775,1,0,0:0:0:0:
192,192,379091,128,0,379407:0:0:0:0:
64,192,379407,128,0,379565:0:0:0:0:
320,192,379407,1,0,0:0:0:0:
320,192,379723,128,0,380038:0:0:0:0:
192,192,380038,128,0,380196:0:0:0:0:
448,192,380038,1,0,0:0:0:0:
448,192,380354,128,0,380670:0:0:0:0:
192,192,380354,128,0,380512:0:0:0:0:
64,192,380670,128,0,380828:0:0:0:0:
320,192,380670,1,0,0:0:0:0:
192,192,380670,1,0,0:0:0:0:
320,192,380986,128,0,381302:0:0:0:0:
448,192,381302,128,0,381459:0:0:0:0:
192,192,381302,1,0,0:0:0:0:
64,192,381302,1,0,0:0:0:0:
192,192,381617,128,0,381933:0:0:0:0:
320,192,381933,128,0,382091:0:0:0:0:
64,192,381933,1,0,0:0:0:0:
448,192,381933,1,0,0:0:0:0:
64,192,382249,128,0,382565:0:0:0:0:
192,192,382565,128,0,382723:0:0:0:0:
448,192,382565,1,0,0:0:0:0:
320,192,382565,1,0,0:0:0:0:
448,192,382881,128,0,383196:0:0:0:0:
192,192,382881,128,0,383038:0:0:0:0:
64,192,382881,1,0,0:0:0:0:
320,192,382881,1,0,0:0:0:0:
320,192,383196,128,0,383354:0:0:0:0:
64,192,383196,1,0,0:0:0:0:
192,192,383196,1,0,0:0:0:0:
64,192,383512,128,0,383828:0:0:0:0:
448,192,383828,128,0,383986:0:0:0:0:
192,192,383828,1,0,0:0:0:0:
320,192,383828,1,0,0:0:0:0:
192,192,384144,128,0,384459:0:0:0:0:
64,192,384459,128,0,384617:0:0:0:0:
320,192,384459,1,0,0:0:0:0:
448,192,384459,1,0,0:0:0:0:
320,192,384775,128,0,385091:0:0:0:0:
448,192,385091,1,0,0:0:0:0:
192,192,385091,1,0,0:0:0:0:
64,192,385091,1,0,0:0:0:0:
192,192,385196,1,0,0:0:0:0:
192,192,385302,1,0,0:0:0:0:
448,192,385407,128,0,385723:0:0:0:0:
64,192,385407,1,0,0:0:0:0:
320,192,385407,1,0,0:0:0:0:
64,192,385512,1,0,0:0:0:0:
64,192,385617,1,0,0:0:0:0:
64,192,385723,128,0,385881:0:0:0:0:
320,192,385723,1,0,0:0:0:0:
192,192,385723,1,0,0:0:0:0:
320,192,386038,128,0,386354:0:0:0:0:
64,192,386038,128,0,386196:0:0:0:0:
192,192,386038,1,0,0:0:0:0:
448,192,386038,1,0,0:0:0:0:
448,192,386354,128,0,386512:0:0:0:0:
192,192,386354,1,0,0:0:0:0:
64,192,386354,1,0,0:0:0:0:
192,192,386670,128,0,386986:0:0:0:0:
448,192,386670,128,0,386828:0:0:0:0:
64,192,386670,1,0,0:0:0:0:
320,192,386670,1,0,0:0:0:0:
448,192,386986,1,0,0:0:0:0:
64,192,386986,1,0,0:0:0:0:
320,192,386986,1,0,0:0:0:0:
320,192,387144,1,0,0:0:0:0:
448,192,387144,1,0,0:0:0:0:
64,192,387302,128,0,387617:0:0:0:0:
320,192,387302,1,0,0:0:0:0:
448,192,387302,1,0,0:0:0:0:
448,192,387459,1,0,0:0:0:0:
320,192,387459,1,0,0:0:0:0:
320,192,387617,1,0,0:0:0:0:
448,192,387617,1,0,0:0:0:0:
192,192,387696,1,0,0:0:0:0:
64,192,387775,1,0,0:0:0:0:
448,192,387775,1,0,0:0:0:0:
320,192,387775,1,0,0:0:0:0:
192,192,387854,1,0,0:0:0:0:
448,192,387933,128,0,388249:0:0:0:0:
320,192,387933,1,0,0:0:0:0:
64,192,387933,1,0,0:0:0:0:
192,192,388012,1,0,0:0:0:0:
64,192,388091,1,0,0:0:0:0:
320,192,388091,1,0,0:0:0:0:
192,192,388131,1,0,0:0:0:0:
320,192,388170,1,0,0:0:0:0:
192,192,388209,1,0,0:0:0:0:
64,192,388249,128,0,389512:0:0:0:0:
320,192,389512,1,0,0:0:0:0:
448,192,389512,1,0,0:0:0:0:
192,192,389591,1,0,0:0:0:0:
448,192,389670,1,0,0:0:0:0:
64,192,389749,1,0,0:0:0:0:
320,192,389828,1,0,0:0:0:0:
192,192,389828,1,0,0:0:0:0:
64,192,389907,1,0,0:0:0:0:
448,192,389986,1,0,0:0:0:0:
192,192,390065,1,0,0:0:0:0:
320,192,390144,1,0,0:0:0:0:
64,192,390144,1,0,0:0:0:0:
192,192,390223,1,0,0:0:0:0:
448,192,390302,1,0,0:0:0:0:
320,192,390302,1,0,0:0:0:0:
64,192,390381,1,0,0:0:0:0:
448,192,390459,1,0,0:0:0:0:
320,192,390459,1,0,0:0:0:0:
192,192,390538,1,0,0:0:0:0:
320,192,390617,1,0,0:0:0:0:
448,192,390617,1,0,0:0:0:0:
64,192,390696,1,0,0:0:0:0:
448,192,390775,1,0,0:0:0:0:
320,192,390775,1,0,0:0:0:0:
192,192,390775,1,0,0:0:0:0:
320,192,390933,1,0,0:0:0:0:
192,192,390933,1,0,0:0:0:0:
192,192,391091,1,0,0:0:0:0:
64,192,391091,1,0,0:0:0:0:
448,192,391091,1,0,0:0:0:0:
64,192,391249,1,0,0:0:0:0:
192,192,391249,1,0,0:0:0:0:
448,192,391407,1,0,0:0:0:0:
320,192,391407,1,0,0:0:0:0:
64,192,391407,1,0,0:0:0:0:
320,192,391565,1,0,0:0:0:0:
448,192,391565,1,0,0:0:0:0:
320,192,391723,1,0,0:0:0:0:
192,192,391723,1,0,0:0:0:0:
64,192,391723,1,0,0:0:0:0:
192,192,391881,1,0,0:0:0:0:
320,192,391881,1,0,0:0:0:0:
448,192,392038,1,0,0:0:0:0:
192,192,392038,1,0,0:0:0:0:
320,192,392038,1,0,0:0:0:0:
192,192,392196,1,0,0:0:0:0:
320,192,392196,1,0,0:0:0:0:
64,192,392354,1,0,0:0:0:0:
448,192,392354,1,0,0:0:0:0:
192,192,392354,1,0,0:0:0:0:
64,192,392512,1,0,0:0:0:0:
192,192,392512,1,0,0:0:0:0:
448,192,392670,1,0,0:0:0:0:
64,192,392670,1,0,0:0:0:0:
320,192,392670,1,0,0:0:0:0:
320,192,392828,1,0,0:0:0:0:
448,192,392828,1,0,0:0:0:0:
320,192,392986,1,0,0:0:0:0:
192,192,392986,1,0,0:0:0:0:
448,192,392986,1,0,0:0:0:0:
64,192,393065,1,0,0:0:0:0:
320,192,393144,1,0,0:0:0:0:
192,192,393144,1,0,0:0:0:0:
448,192,393223,1,0,0:0:0:0:
320,192,393302,1,0,0:0:0:0:
192,192,393302,1,0,0:0:0:0:
64,192,393302,1,0,0:0:0:0:
192,192,393459,1,0,0:0:0:0:
64,192,393459,1,0,0:0:0:0:
448,192,393617,1,0,0:0:0:0:
320,192,393617,1,0,0:0:0:0:
192,192,393617,1,0,0:0:0:0:
320,192,393775,1,0,0:0:0:0:
448,192,393775,1,0,0:0:0:0:
320,192,393933,1,0,0:0:0:0:
192,192,393933,1,0,0:0:0:0:
64,192,393933,1,0,0:0:0:0:
192,192,394091,1,0,0:0:0:0:
320,192,394091,1,0,0:0:0:0:
448,192,394249,1,0,0:0:0:0:
64,192,394249,1,0,0:0:0:0:
320,192,394249,1,0,0:0:0:0:
448,192,394407,1,0,0:0:0:0:
64,192,394407,1,0,0:0:0:0:
64,192,394565,1,0,0:0:0:0:
192,192,394565,1,0,0:0:0:0:
320,192,394565,1,0,0:0:0:0:
64,192,394723,1,0,0:0:0:0:
192,192,394723,1,0,0:0:0:0:
192,192,394881,1,0,0:0:0:0:
320,192,394881,1,0,0:0:0:0:
448,192,394881,1,0,0:0:0:0:
448,192,395038,1,0,0:0:0:0:
320,192,395038,1,0,0:0:0:0:
64,192,395196,1,0,0:0:0:0:
192,192,395196,1,0,0:0:0:0:
320,192,395196,1,0,0:0:0:0:
320,192,395354,1,0,0:0:0:0:
192,192,395354,1,0,0:0:0:0:
64,192,395512,1,0,0:0:0:0:
448,192,395512,1,0,0:0:0:0:
192,192,395512,1,0,0:0:0:0:
320,192,395591,1,0,0:0:0:0:
64,192,395670,1,0,0:0:0:0:
448,192,395670,1,0,0:0:0:0:
192,192,395749,1,0,0:0:0:0:
320,192,395828,1,0,0:0:0:0:
448,192,395828,1,0,0:0:0:0:
64,192,395828,1,0,0:0:0:0:
320,192,395986,1,0,0:0:0:0:
64,192,395986,1,0,0:0:0:0:
448,192,396144,1,0,0:0:0:0:
192,192,396144,1,0,0:0:0:0:
64,192,396144,1,0,0:0:0:0:
448,192,396302,1,0,0:0:0:0:
192,192,396302,1,0,0:0:0:0:
320,192,396459,1,0,0:0:0:0:
64,192,396459,1,0,0:0:0:0:
448,192,396459,1,0,0:0:0:0:
320,192,396617,1,0,0:0:0:0:
64,192,396617,1,0,0:0:0:0:
448,192,396775,1,0,0:0:0:0:
192,192,396775,1,0,0:0:0:0:
64,192,396775,1,0,0:0:0:0:
320,192,396854,1,0,0:0:0:0:
448,192,396933,1,0,0:0:0:0:
192,192,396933,1,0,0:0:0:0:
64,192,397012,1,0,0:0:0:0:
192,192,397091,1,0,0:0:0:0:
320,192,397091,1,0,0:0:0:0:
448,192,397091,1,0,0:0:0:0:
320,192,397249,1,0,0:0:0:0:
448,192,397249,1,0,0:0:0:0:
192,192,397407,1,0,0:0:0:0:
64,192,397407,1,0,0:0:0:0:
320,192,397407,1,0,0:0:0:0:
192,192,397565,1,0,0:0:0:0:
64,192,397565,1,0,0:0:0:0:
320,192,397723,1,0,0:0:0:0:
448,192,397723,1,0,0:0:0:0:
192,192,397723,1,0,0:0:0:0:
448,192,397881,1,0,0:0:0:0:
320,192,397881,1,0,0:0:0:0:
192,192,398038,1,0,0:0:0:0:
64,192,398038,1,0,0:0:0:0:
320,192,398038,1,0,0:0:0:0:
448,192,398117,1,0,0:0:0:0:
192,192,398196,1,0,0:0:0:0:
64,192,398196,1,0,0:0:0:0:
320,192,398275,1,0,0:0:0:0:
192,192,398354,1,0,0:0:0:0:
64,192,398354,1,0,0:0:0:0:
448,192,398354,1,0,0:0:0:0:
192,192,398512,1,0,0:0:0:0:
64,192,398512,1,0,0:0:0:0:
320,192,398670,1,0,0:0:0:0:
192,192,398670,1,0,0:0:0:0:
448,192,398670,1,0,0:0:0:0:
320,192,398828,1,0,0:0:0:0:
192,192,398828,1,0,0:0:0:0:
448,192,398986,1,0,0:0:0:0:
320,192,398986,1,0,0:0:0:0:
64,192,398986,1,0,0:0:0:0:
320,192,399144,1,0,0:0:0:0:
448,192,399144,1,0,0:0:0:0:
320,192,399302,1,0,0:0:0:0:
192,192,399302,1,0,0:0:0:0:
64,192,399302,1,0,0:0:0:0:
320,192,399459,1,0,0:0:0:0:
192,192,399459,1,0,0:0:0:0:
448,192,399617,1,0,0:0:0:0:
320,192,399617,1,0,0:0:0:0:
192,192,399617,1,0,0:0:0:0:
64,192,399696,1,0,0:0:0:0:
192,192,399775,1,0,0:0:0:0:
448,192,399775,1,0,0:0:0:0:
320,192,399854,1,0,0:0:0:0:
64,192,399933,1,0,0:0:0:0:
192,192,399933,1,0,0:0:0:0:
320,192,400012,1,0,0:0:0:0:
448,192,400091,1,0,0:0:0:0:
192,192,400091,1,0,0:0:0:0:
64,192,400170,1,0,0:0:0:0:
448,192,400249,1,0,0:0:0:0:
320,192,400249,1,0,0:0:0:0:
192,192,400249,1,0,0:0:0:0:
64,192,400328,1,0,0:0:0:0:
192,192,400407,1,0,0:0:0:0:
448,192,400407,1,0,0:0:0:0:
320,192,400486,1,0,0:0:0:0:
192,192,400565,1,0,0:0:0:0:
64,192,400565,1,0,0:0:0:0:
320,192,400644,1,0,0:0:0:0:
448,192,400644,1,0,0:0:0:0:
192,192,400723,1,0,0:0:0:0:
64,192,400723,1,0,0:0:0:0:
448,192,400802,1,0,0:0:0:0:
320,192,400802,1,0,0:0:0:0:
448,192,400881,1,0,0:0:0:0:
192,192,400881,1,0,0:0:0:0:
64,192,400881,1,0,0:0:0:0:
320,192,401038,1,0,0:0:0:0:
448,192,401038,1,0,0:0:0:0:
192,192,401196,1,0,0:0:0:0:
64,192,401196,1,0,0:0:0:0:
320,192,401196,1,0,0:0:0:0:
448,192,401354,1,0,0:0:0:0:
64,192,401354,1,0,0:0:0:0:
192,192,401512,1,0,0:0:0:0:
320,192,401512,1,0,0:0:0:0:
448,192,401512,1,0,0:0:0:0:
192,192,401670,1,0,0:0:0:0:
64,192,401670,1,0,0:0:0:0:
320,192,401828,1,0,0:0:0:0:
448,192,401828,1,0,0:0:0:0:
64,192,401828,1,0,0:0:0:0:
320,192,401986,1,0,0:0:0:0:
192,192,401986,1,0,0:0:0:0:
448,192,402144,1,0,0:0:0:0:
192,192,402144,1,0,0:0:0:0:
64,192,402144,1,0,0:0:0:0:
448,192,402302,1,0,0:0:0:0:
320,192,402302,1,0,0:0:0:0:
320,192,402459,1,0,0:0:0:0:
192,192,402459,1,0,0:0:0:0:
64,192,402459,1,0,0:0:0:0:
448,192,402617,1,0,0:0:0:0:
64,192,402617,1,0,0:0:0:0:
192,192,402775,1,0,0:0:0:0:
320,192,402775,1,0,0:0:0:0:
448,192,402775,1,0,0:0:0:0:
64,192,402933,1,0,0:0:0:0:
192,192,402933,1,0,0:0:0:0:
320,192,403091,1,0,0:0:0:0:
448,192,403091,1,0,0:0:0:0:
64,192,403091,1,0,0:0:0:0:
192,192,403170,1,0,0:0:0:0:
64,192,403249,1,0,0:0:0:0:
448,192,403249,1,0,0:0:0:0:
320,192,403328,1,0,0:0:0:0:
192,192,403407,1,0,0:0:0:0:
64,192,403407,1,0,0:0:0:0:
448,192,403407,1,0,0:0:0:0:
320,192,403565,1,0,0:0:0:0:
448,192,403565,1,0,0:0:0:0:
192,192,403723,1,0,0:0:0:0:
320,192,403723,1,0,0:0:0:0:
64,192,403723,1,0,0:0:0:0:
64,192,403881,1,0,0:0:0:0:
448,192,403881,1,0,0:0:0:0:
448,192,404038,1,0,0:0:0:0:
320,192,404038,1,0,0:0:0:0:
192,192,404038,1,0,0:0:0:0:
64,192,404196,1,0,0:0:0:0:
192,192,404196,1,0,0:0:0:0:
448,192,404354,1,0,0:0:0:0:
320,192,404354,1,0,0:0:0:0:
64,192,404354,1,0,0:0:0:0:
320,192,404512,1,0,0:0:0:0:
192,192,404512,1,0,0:0:0:0:
64,192,404670,1,0,0:0:0:0:
448,192,404670,1,0,0:0:0:0:
192,192,404670,1,0,0:0:0:0:
448,192,404828,1,0,0:0:0:0:
320,192,404828,1,0,0:0:0:0:
64,192,404828,1,0,0:0:0:0:
320,192,404986,1,0,0:0:0:0:
192,192,404986,1,0,0:0:0:0:
448,192,405144,1,0,0:0:0:0:
64,192,405144,1,0,0:0:0:0:
448,192,405302,1,0,0:0:0:0:
320,192,405302,1,0,0:0:0:0:
64,192,405302,1,0,0:0:0:0:
192,192,405459,1,0,0:0:0:0:
64,192,405459,1,0,0:0:0:0:
448,192,405459,1,0,0:0:0:0:
64,192,405617,1,0,0:0:0:0:
320,192,405617,1,0,0:0:0:0:
192,192,405617,1,0,0:0:0:0:
448,192,405696,1,0,0:0:0:0:
192,192,405775,1,0,0:0:0:0:
320,192,405775,1,0,0:0:0:0:
64,192,405854,1,0,0:0:0:0:
192,192,405933,1,0,0:0:0:0:
448,192,405933,1,0,0:0:0:0:
320,192,405933,1,0,0:0:0:0:
448,192,406091,1,0,0:0:0:0:
64,192,406091,1,0,0:0:0:0:
320,192,406249,1,0,0:0:0:0:
64,192,406249,1,0,0:0:0:0:
192,192,406249,1,0,0:0:0:0:
320,192,406407,1,0,0:0:0:0:
448,192,406407,1,0,0:0:0:0:
192,192,406565,1,0,0:0:0:0:
64,192,406565,1,0,0:0:0:0:
448,192,406565,1,0,0:0:0:0:
320,192,406723,1,0,0:0:0:0:
192,192,406723,1,0,0:0:0:0:
448,192,406881,1,0,0:0:0:0:
320,192,406881,1,0,0:0:0:0:
64,192,406881,1,0,0:0:0:0:
192,192,406959,1,0,0:0:0:0:
320,192,407038,1,0,0:0:0:0:
64,192,407117,1,0,0:0:0:0:
448,192,407196,1,0,0:0:0:0:
320,192,407196,1,0,0:0:0:0:
192,192,407196,1,0,0:0:0:0:
448,192,407354,1,0,0:0:0:0:
64,192,407354,1,0,0:0:0:0:
320,192,407512,1,0,0:0:0:0:
192,192,407512,1,0,0:0:0:0:
64,192,407512,1,0,0:0:0:0:
448,192,407670,1,0,0:0:0:0:
320,192,407670,1,0,0:0:0:0:
192,192,407828,1,0,0:0:0:0:
64,192,407828,1,0,0:0:0:0:
448,192,407828,1,0,0:0:0:0:
320,192,407986,1,0,0:0:0:0:
192,192,407986,1,0,0:0:0:0:
448,192,408144,1,0,0:0:0:0:
320,192,408144,1,0,0:0:0:0:
64,192,408144,1,0,0:0:0:0:
192,192,408223,1,0,0:0:0:0:
320,192,408302,1,0,0:0:0:0:
448,192,408302,1,0,0:0:0:0:
64,192,408381,1,0,0:0:0:0:
192,192,408459,1,0,0:0:0:0:
448,192,408459,1,0,0:0:0:0:
320,192,408459,1,0,0:0:0:0:
320,192,408617,1,0,0:0:0:0:
192,192,408775,1,0,0:0:0:0:
320,192,408775,1,0,0:0:0:0:
64,192,408775,1,0,0:0:0:0:
192,192,408933,1,0,0:0:0:0:
64,192,409091,1,0,0:0:0:0:
448,192,409091,1,0,0:0:0:0:
192,192,409091,1,0,0:0:0:0:
320,192,409249,1,0,0:0:0:0:
192,192,409328,1,0,0:0:0:0:
64,192,409407,1,0,0:0:0:0:
448,192,409407,1,0,0:0:0:0:
320,192,409407,1,0,0:0:0:0:
192,192,409486,1,0,0:0:0:0:
320,192,409565,1,0,0:0:0:0:
448,192,409644,1,0,0:0:0:0:
192,192,409723,1,0,0:0:0:0:
320,192,409723,1,0,0:0:0:0:
64,192,409723,1,0,0:0:0:0:
448,192,409802,1,0,0:0:0:0:
320,192,409881,1,0,0:0:0:0:
192,192,409881,1,0,0:0:0:0:
448,192,409959,1,0,0:0:0:0:
320,192,410038,1,0,0:0:0:0:
64,192,410038,1,0,0:0:0:0:
192,192,410117,1,0,0:0:0:0:
320,192,410196,1,0,0:0:0:0:
192,192,410275,1,0,0:0:0:0:
64,192,410354,1,0,0:0:0:0:
448,192,410354,1,0,0:0:0:0:
192,192,410433,1,0,0:0:0:0:
320,192,410512,1,0,0:0:0:0:
448,192,410591,1,0,0:0:0:0:
192,192,410670,1,0,0:0:0:0:
64,192,410670,1,0,0:0:0:0:
320,192,410749,1,0,0:0:0:0:
448,192,410828,1,0,0:0:0:0:
192,192,410828,1,0,0:0:0:0:
320,192,410907,1,0,0:0:0:0:
64,192,410986,1,0,0:0:0:0:
192,192,410986,1,0,0:0:0:0:
320,192,411065,1,0,0:0:0:0:
448,192,411065,1,0,0:0:0:0:
64,192,411144,1,0,0:0:0:0:
192,192,411144,1,0,0:0:0:0:
320,192,411223,1,0,0:0:0:0:
448,192,411223,1,0,0:0:0:0:
64,192,411302,1,0,0:0:0:0:
192,192,411302,1,0,0:0:0:0:
320,192,411381,1,0,0:0:0:0:
192,192,411459,1,0,0:0:0:0:
448,192,411459,1,0,0:0:0:0:
320,192,411538,1,0,0:0:0:0:
64,192,411538,1,0,0:0:0:0:
192,192,411617,1,0,0:0:0:0:
448,192,411617,1,0,0:0:0:0:
64,192,411696,1,0,0:0:0:0:
320,192,411696,1,0,0:0:0:0:
192,192,411775,1,0,0:0:0:0:
448,192,411775,1,0,0:0:0:0:
64,192,411854,1,0,0:0:0:0:
192,192,411933,1,0,0:0:0:0:
320,192,411933,1,0,0:0:0:0:
448,192,412012,1,0,0:0:0:0:
64,192,412091,1,0,0:0:0:0:
320,192,412091,1,0,0:0:0:0:
192,192,412170,1,0,0:0:0:0:
320,192,412249,1,0,0:0:0:0:
448,192,412249,1,0,0:0:0:0:
192,192,412328,1,0,0:0:0:0:
64,192,412407,1,0,0:0:0:0:
320,192,412407,1,0,0:0:0:0:
448,192,412486,1,0,0:0:0:0:
320,192,412565,1,0,0:0:0:0:
192,192,412565,1,0,0:0:0:0:
64,192,412644,1,0,0:0:0:0:
192,192,412723,1,0,0:0:0:0:
448,192,412723,1,0,0:0:0:0:
320,192,412802,1,0,0:0:0:0:
192,192,412881,1,0,0:0:0:0:
64,192,412881,1,0,0:0:0:0:
320,192,412959,1,0,0:0:0:0:
448,192,413038,1,0,0:0:0:0:
192,192,413038,1,0,0:0:0:0:
64,192,413117,1,0,0:0:0:0:
192,192,413196,1,0,0:0:0:0:
320,192,413196,1,0,0:0:0:0:
448,192,413275,1,0,0:0:0:0:
320,192,413354,1,0,0:0:0:0:
64,192,413354,1,0,0:0:0:0:
192,192,413433,1,0,0:0:0:0:
448,192,413512,1,0,0:0:0:0:
320,192,413512,1,0,0:0:0:0:
192,192,413591,1,0,0:0:0:0:
64,192,413591,1,0,0:0:0:0:
320,192,413670,1,0,0:0:0:0:
448,192,413670,1,0,0:0:0:0:
192,192,413749,1,0,0:0:0:0:
64,192,413749,1,0,0:0:0:0:
320,192,413828,1,0,0:0:0:0:
448,192,413828,1,0,0:0:0:0:
192,192,413907,1,0,0:0:0:0:
64,192,413986,1,0,0:0:0:0:
320,192,413986,1,0,0:0:0:0:
448,192,414065,1,0,0:0:0:0:
192,192,414065,1,0,0:0:0:0:
64,192,414144,1,0,0:0:0:0:
320,192,414144,1,0,0:0:0:0:
192,192,414223,1,0,0:0:0:0:
448,192,414223,1,0,0:0:0:0:
64,192,414302,1,0,0:0:0:0:
320,192,414302,1,0,0:0:0:0:
448,192,414381,1,0,0:0:0:0:
320,192,414459,1,0,0:0:0:0:
192,192,414459,1,0,0:0:0:0:
64,192,414538,1,0,0:0:0:0:
448,192,414538,1,0,0:0:0:0:
192,192,414617,1,0,0:0:0:0:
320,192,414617,1,0,0:0:0:0:
448,192,414696,1,0,0:0:0:0:
64,192,414696,1,0,0:0:0:0:
192,192,414775,1,0,0:0:0:0:
320,192,414775,1,0,0:0:0:0:
64,192,414854,1,0,0:0:0:0:
192,192,414933,1,0,0:0:0:0:
448,192,414933,1,0,0:0:0:0:
320,192,415012,1,0,0:0:0:0:
64,192,415012,1,0,0:0:0:0:
192,192,415091,1,0,0:0:0:0:
448,192,415091,1,0,0:0:0:0:
64,192,415170,1,0,0:0:0:0:
320,192,415170,1,0,0:0:0:0:
192,192,415249,1,0,0:0:0:0:
448,192,415249,1,0,0:0:0:0:
320,192,415328,1,0,0:0:0:0:
64,192,415407,1,0,0:0:0:0:
192,192,415407,1,0,0:0:0:0:
320,192,415486,1,0,0:0:0:0:
64,192,415565,1,0,0:0:0:0:
192,192,415565,1,0,0:0:0:0:
320,192,415644,1,0,0:0:0:0:
448,192,415723,1,0,0:0:0:0:
64,192,415723,1,0,0:0:0:0:
192,192,415802,1,0,0:0:0:0:
320,192,415802,1,0,0:0:0:0:
448,192,415881,1,0,0:0:0:0:
64,192,415881,1,0,0:0:0:0:
320,192,415959,1,0,0:0:0:0:
192,192,415959,1,0,0:0:0:0:
448,192,416038,1,0,0:0:0:0:
64,192,416038,1,0,0:0:0:0:
192,192,416038,1,0,0:0:0:0:
320,192,416117,1,0,0:0:0:0:
448,192,416196,1,0,0:0:0:0:
64,192,416275,1,0,0:0:0:0:
192,192,416275,1,0,0:0:0:0:
320,192,416275,1,0,0:0:0:0:
448,192,416354,1,0,0:0:0:0:
64,192,416433,1,0,0:0:0:0:
192,192,416512,1,0,0:0:0:0:
320,192,416512,1,0,0:0:0:0:
448,192,416512,1,0,0:0:0:0:
64,192,416591,1,0,0:0:0:0:
192,192,416670,1,0,0:0:0:0:
64,192,416749,1,0,0:0:0:0:
320,192,416749,1,0,0:0:0:0:
448,192,416749,1,0,0:0:0:0:
192,192,416828,1,0,0:0:0:0:
320,192,416907,1,0,0:0:0:0:
192,192,416986,1,0,0:0:0:0:
64,192,416986,1,0,0:0:0:0:
448,192,416986,1,0,0:0:0:0:
320,192,417065,1,0,0:0:0:0:
192,192,417144,1,0,0:0:0:0:
64,192,417144,1,0,0:0:0:0:
448,192,417144,1,0,0:0:0:0:
320,192,417223,1,0,0:0:0:0:
448,192,417302,1,0,0:0:0:0:
192,192,417302,1,0,0:0:0:0:
64,192,417302,1,0,0:0:0:0:
320,192,417381,1,0,0:0:0:0:
192,192,417459,1,0,0:0:0:0:
64,192,417538,1,0,0:0:0:0:
448,192,417538,1,0,0:0:0:0:
320,192,417538,1,0,0:0:0:0:
192,192,417617,1,0,0:0:0:0:
64,192,417696,1,0,0:0:0:0:
192,192,417775,1,0,0:0:0:0:
320,192,417775,1,0,0:0:0:0:
448,192,417775,1,0,0:0:0:0:
64,192,417854,1,0,0:0:0:0:
448,192,417933,1,0,0:0:0:0:
64,192,418012,1,0,0:0:0:0:
192,192,418012,1,0,0:0:0:0:
320,192,418012,1,0,0:0:0:0:
448,192,418091,1,0,0:0:0:0:
320,192,418170,1,0,0:0:0:0:
192,192,418249,1,0,0:0:0:0:
64,192,418249,1,0,0:0:0:0:
448,192,418328,1,0,0:0:0:0:
320,192,418407,1,0,0:0:0:0:
192,192,418486,1,0,0:0:0:0:
320,192,418565,1,0,0:0:0:0:
448,192,418565,1,0,0:0:0:0:
192,192,418644,1,0,0:0:0:0:
64,192,418644,1,0,0:0:0:0:
448,192,418723,1,0,0:0:0:0:
320,192,418723,1,0,0:0:0:0:
192,192,418802,1,0,0:0:0:0:
64,192,418802,1,0,0:0:0:0:
448,192,418881,1,0,0:0:0:0:
320,192,418881,1,0,0:0:0:0:
64,192,418959,1,0,0:0:0:0:
192,192,418959,1,0,0:0:0:0:
448,192,419038,1,0,0:0:0:0:
320,192,419038,1,0,0:0:0:0:
64,192,419117,1,0,0:0:0:0:
192,192,419117,1,0,0:0:0:0:
448,192,419196,1,0,0:0:0:0:
320,192,419196,1,0,0:0:0:0:
64,192,419236,1,0,0:0:0:0:
448,192,419275,1,0,0:0:0:0:
192,192,419275,1,0,0:0:0:0:
320,192,419315,1,0,0:0:0:0:
192,192,419354,1,0,0:0:0:0:
64,192,419354,1,0,0:0:0:0:
448,192,419394,1,0,0:0:0:0:
320,192,419433,1,0,0:0:0:0:
64,192,419433,1,0,0:0:0:0:
192,192,419473,1,0,0:0:0:0:
448,192,419512,1,0,0:0:0:0:
320,192,419512,1,0,0:0:0:0:
64,192,419552,1,0,0:0:0:0:
192,192,419591,1,0,0:0:0:0:
448,192,419591,1,0,0:0:0:0:
320,192,419631,1,0,0:0:0:0:
192,192,419670,1,0,0:0:0:0:
64,192,419670,1,0,0:0:0:0:
448,192,419709,1,0,0:0:0:0:
320,192,419749,1,0,0:0:0:0:
64,192,419749,1,0,0:0:0:0:
192,192,419788,1,0,0:0:0:0:
320,192,419828,1,0,0:0:0:0:
448,192,419828,1,0,0:0:0:0:
192,192,419907,1,0,0:0:0:0:
64,192,419986,1,0,0:0:0:0:
448,192,420065,1,0,0:0:0:0:
192,192,420144,1,0,0:0:0:0:
320,192,420223,1,0,0:0:0:0:
448,192,420302,1,0,0:0:0:0:
64,192,420381,1,0,0:0:0:0:
448,192,420459,1,0,0:0:0:0:
192,192,420538,1,0,0:0:0:0:
320,192,420617,1,0,0:0:0:0:
64,192,420696,1,0,0:0:0:0:
320,192,420775,1,0,0:0:0:0:
192,192,420854,1,0,0:0:0:0:
448,192,420933,1,0,0:0:0:0:
64,192,421012,1,0,0:0:0:0:
448,192,421091,1,0,0:0:0:0:
320,192,421091,1,0,0:0:0:0:
192,192,421091,1,0,0:0:0:0:
192,192,426144,132,0,426744:0:0:0:0:
320,192,426744,128,0,427344:0:0:0:0:
64,192,427344,128,0,427644:0:0:0:0:
192,192,427644,128,0,427944:0:0:0:0:
320,192,427944,128,0,428244:0:0:0:0:
448,192,428244,128,0,428544:0:0:0:0:
192,192,428544,1,0,0:0:0:0:
320,192,428844,128,0,429144:0:0:0:0:
64,192,429144,1,0,0:0:0:0:
192,192,429444,128,0,429744:0:0:0:0:
320,192,429744,1,0,0:0:0:0:
192,192,430044,128,0,430344:0:0:0:0:
320,192,430344,128,0,430644:0:0:0:0:
448,192,430644,128,0,430944:0:0:0:0:
64,192,430644,1,0,0:0:0:0:
192,192,430944,128,0,431544:0:0:0:0:
320,192,431544,128,0,432144:0:0:0:0:
64,192,432144,128,0,432444:0:0:0:0:
448,192,432144,1,0,0:0:0:0:
192,192,432444,128,0,432744:0:0:0:0:
320,192,432744,128,0,433044:0:0:0:0:
64,192,432744,1,0,0:0:0:0:
448,192,433044,128,0,433344:0:0:0:0:
192,192,433044,1,0,0:0:0:0:
64,192,433344,1,0,0:0:0:0:
320,192,433644,128,0,433944:0:0:0:0:
192,192,433944,1,0,0:0:0:0:
192,192,434244,128,0,434544:0:0:0:0:
320,192,434544,1,0,0:0:0:0:
64,192,434844,128,0,435144:0:0:0:0:
448,192,435144,128,0,435444:0:0:0:0:
192,192,435144,1,0,0:0:0:0:
320,192,435444,128,0,435744:0:0:0:0:
64,192,435444,1,0,0:0:0:0:
192,192,435744,128,0,436375:0:0:0:0:
448,192,435744,1,0,0:0:0:0:
320,192,436375,128,0,437007:0:0:0:0:
64,192,437007,128,0,437638:0:0:0:0:
320,192,437638,128,0,437954:0:0:0:0:
448,192,437954,128,0,438270:0:0:0:0:
320,192,438270,128,0,438596:0:0:0:0:
448,192,438596,128,0,438922:0:0:0:0:
192,192,438922,1,0,0:0:0:0:
448,192,439248,128,0,439574:0:0:0:0:
64,192,439574,128,0,439918:0:0:0:0:
320,192,439574,1,0,0:0:0:0:
192,192,439918,128,0,440263:0:0:0:0:
320,192,440263,128,0,440608:0:0:0:0:
320,192,440953,128,0,442037:0:0:0:0:
448,192,440953,1,0,0:0:0:0:
192,192,441675,1,0,0:0:0:0:
64,192,442398,1,0,0:0:0:0:
64,192,443121,128,0,443483:0:0:0:0:
192,192,443483,128,0,443830:0:0:0:0:
320,192,443830,128,0,444640:0:0:0:0:
64,192,444640,1,0,0:0:0:0:
448,192,445451,128,0,446262:0:0:0:0:
192,192,446262,1,0,0:0:0:0:
192,192,447073,128,0,447275:0:0:0:0:
