osu file format v14

[General]
AudioFilename: audio.mp3
AudioLeadIn: 0
PreviewTime: 311
Countdown: 0
SampleSet: Soft
StackLeniency: 0.7
Mode: 0
LetterboxInBreaks: 0
WidescreenStoryboard: 1

[Editor]
Bookmarks: 13211,26011,51611,77211,102811,128411
DistanceSpacing: 1.9
BeatDivisor: 8
GridSize: 16
TimelineZoom: 2.3

[Metadata]
Title:Lunatic set 16 ~ The Space Shrine Maiden Returns Home
TitleUnicode:Lunatic set 16 〜 宇宙巫女帰還する
Artist:Rin
ArtistUnicode:Rin
Creator:defiance
Version:Hard
Source:東方紺珠伝 ~ Legacy of Lunatic Kingdom.
Tags:osuskrub quanhitter39 touhou project mappers’ guild featured artist fa osu!
BeatmapID:2084492
BeatmapSetID:996256

[Difficulty]
HPDrainRate:5
CircleSize:3.8
OverallDifficulty:6
ApproachRate:7.3
SliderMultiplier:1.6
SliderTickRate:1

[Events]
//Background and Video events
0,0,"reimu bg #0912330123.jpg",0,0
//Break Periods
//Storyboard Layer 0 (Background)
//Storyboard Layer 1 (Fail)
//Storyboard Layer 2 (Pass)
//Storyboard Layer 3 (Foreground)
//Storyboard Layer 4 (Overlay)
//Storyboard Sound Samples

[TimingPoints]
411,400,4,2,1,40,1,0
411,-166.666666666667,4,2,1,50,0,0
13211,-100,4,2,1,55,0,0
14011,-83.3333333333333,4,2,1,55,0,0
14611,-100,4,2,1,55,0,0
17211,-83.3333333333333,4,2,1,55,0,0
17811,-100,4,2,1,55,0,0
20411,-83.3333333333333,4,2,1,55,0,0
21011,-100,4,2,1,55,0,0
23611,-83.3333333333333,4,2,1,55,0,0
24411,-100,4,2,1,55,0,0
25611,-250,4,2,1,55,0,0
26011,-83.3333333333333,4,2,1,65,0,0
26811,-71.4285714285714,4,2,1,65,0,0
28011,-83.3333333333333,4,2,1,65,0,0
30011,-71.4285714285714,4,2,1,65,0,0
31011,-83.3333333333333,4,2,1,65,0,0
33211,-71.4285714285714,4,2,1,65,0,0
33811,-83.3333333333333,4,2,1,65,0,0
36411,-71.4285714285714,4,2,1,65,0,0
37411,-83.3333333333333,4,2,1,65,0,0
38811,-100,4,2,1,75,0,0
39611,-71.4285714285714,4,2,1,75,0,0
40811,-83.3333333333333,4,2,1,75,0,0
42811,-71.4285714285714,4,2,1,75,0,0
44011,-83.3333333333333,4,2,1,75,0,0
46011,-71.4285714285714,4,2,1,75,0,0
47211,-83.3333333333333,4,2,1,75,0,0
49211,-71.4285714285714,4,2,1,75,0,0
50611,-100,4,2,1,50,0,0
51611,-142.857142857143,4,2,2,50,0,0
53211,-142.857142857143,4,2,2,60,0,0
75611,-100,4,2,1,50,0,0
77211,-111.111111111111,4,2,1,60,0,0
102811,-125,4,2,1,40,0,0

[Colours]
Combo1 : 255,220,81
Combo2 : 224,44,48
Combo3 : 192,129,129

[HitObjects]
114,247,13211,6,0,P|100:197|110:155,1,80,8|2,3:0|0:0,0:0:0:0:
139,96,13511,1,0,3:0:0:0:
139,96,13611,1,8,3:0:0:0:
60,38,13811,1,2,0:0:0:0:
195,26,14011,2,0,L|312:58,2,95.9999970703126,6|8|4,3:0|3:0|3:0,0:0:0:0:
499,125,15011,1,8,3:0:0:0:
419,166,15211,2,0,L|396:268,1,80,8|0,3:0|0:0,3:3:0:0:
431,343,15611,1,6,3:0:0:0:
355,312,15811,1,2,0:0:0:0:
433,329,16011,1,4,3:0:0:0:
499,279,16211,1,2,0:0:0:0:
408,222,16411,6,0,P|386:178|364:119,1,80,8|0,3:0|0:0,0:0:0:0:
344,79,16711,1,0,0:0:0:0:
344,79,16811,1,2,0:0:0:0:
434,50,17011,1,2,0:0:0:0:
274,10,17211,2,0,L|150:30,2,95.9999970703126,6|0|4,3:0|0:0|3:0,0:0:0:0:
37,217,18211,1,8,3:0:0:0:
111,266,18411,2,0,L|137:168,1,80,8|0,3:0|0:0,0:0:0:0:
168,104,18811,1,6,3:0:0:0:
233,66,19011,1,2,0:0:0:0:
147,104,19211,1,4,3:0:0:0:
73,52,19411,1,2,0:0:0:0:
149,10,19611,6,0,L|235:35,1,80,8|2,3:0|0:0,0:0:0:0:
303,10,19911,1,0,3:0:0:0:
303,10,20011,1,8,3:0:0:0:
379,69,20211,1,2,0:0:0:0:
300,184,20411,2,0,P|281:118|266:75,2,95.9999970703126,6|8|4,3:0|3:0|3:0,0:0:0:0:
391,371,21411,5,8,3:0:0:0:
455,320,21611,2,0,L|421:230,1,80,8|0,3:0|0:0,0:0:0:0:
367,184,22011,1,6,3:0:0:0:
296,131,22211,1,2,0:0:0:0:
384,180,22411,1,4,3:0:0:0:
460,134,22611,1,2,0:0:0:0:
363,62,22811,6,0,L|264:42,1,80,8|2,3:0|0:0,0:0:0:0:
214,70,23111,1,0,3:0:0:0:
214,70,23211,1,8,3:0:0:0:
252,165,23411,1,2,0:0:0:0:
226,266,23611,2,0,L|106:307,2,95.9999970703126,6|0|8,3:0|0:0|3:0,0:0:0:0:
95,126,24611,1,8,3:0:0:0:
31,177,24811,2,0,L|77:269,1,80,8|0,3:0|0:0,0:0:0:0:
182,281,25211,1,6,3:0:0:0:
256,232,25411,1,2,0:0:0:0:
166,273,25611,2,2,L|152:218,1,48,2|0,1:0|0:0,1:1:0:0:
134,198,26011,6,0,P|162:143|178:97,1,95.9999970703126,4|2,3:0|0:0,0:0:0:0:
156,14,26411,1,2,0:0:0:0:
230,50,26611,1,2,0:0:0:0:
329,48,26811,2,0,P|298:122|285:172,2,111.999996582031,6|8|4,3:0|3:0|3:0,0:0:0:0:
408,9,27411,1,4,3:0:0:0:
497,159,27811,2,0,L|507:228,1,55.9999982910157,8|0,3:0|3:0,0:0:0:0:
485,245,28011,6,0,L|329:216,1,143.999995605469,8|0,3:0|0:0,0:0:0:0:
301,234,28411,1,4,3:0:0:0:
255,159,28611,1,2,0:0:0:0:
301,87,28811,1,8,3:0:0:0:
383,89,29011,1,8,3:0:0:0:
435,162,29211,6,0,L|404:275,1,95.9999970703126,8|2,3:0|0:0,0:0:0:0:
356,315,29611,1,2,0:0:0:0:
276,281,29811,1,2,0:0:0:0:
214,356,30011,2,0,L|81:377,2,111.999996582031,6|8|4,3:0|3:0|3:0,0:0:0:0:
282,293,30611,1,4,3:0:0:0:
150,231,31011,2,0,L|132:181,1,47.9999985351563,8|0,3:0|3:0,0:0:0:0:
112,143,31211,6,0,L|270:153,1,143.999995605469,0|0,3:0|0:0,0:0:0:0:
288,121,31611,1,6,3:0:0:0:
385,183,31811,2,0,L|377:216,3,23.9999992675781,0|0|0|0,3:0|3:0|3:0|3:0,3:3:0:0:
391,152,32011,2,0,L|369:50,1,95.9999970703126,0|2,3:0|0:0,0:0:0:0:
256,22,32411,6,0,L|112:65,1,143.999995605469,12|0,3:0|0:0,0:0:0:0:
84,55,32811,2,0,P|120:112|137:160,1,95.9999970703126,8|2,3:0|0:0,0:0:0:0:
139,262,33211,2,0,P|101:318|42:350,2,111.999996582031,6|8|4,3:0|3:0|3:0,0:0:0:0:
59,202,33811,1,4,3:0:0:0:
255,225,34211,2,0,L|238:166,1,47.9999985351563,8|0,3:0|3:0,0:0:0:0:
211,142,34411,6,0,L|366:185,1,143.999995605469,8|0,3:0|0:0,0:0:0:0:
386,167,34811,1,4,3:0:0:0:
447,240,35011,1,2,0:0:0:0:
393,318,35211,1,8,3:0:0:0:
300,291,35411,1,2,0:0:0:0:
229,357,35611,6,0,L|121:366,1,95.9999970703126,10|8,3:0|3:0,0:0:0:0:
64,285,36011,1,0,3:0:0:0:
64,285,36111,2,0,L|95:191,1,95.9999970703126,8|0,3:0|0:0,0:0:0:0:
80,157,36411,2,0,P|135:198|226:220,2,111.999996582031,6|8|4,3:0|3:0|3:0,0:0:0:0:
9,72,37011,1,4,3:0:0:0:
227,4,37411,6,0,L|200:71,1,47.9999985351563,8|0,3:0|3:0,0:0:0:0:
214,87,37611,2,0,L|373:77,1,143.999995605469,8|0,3:0|0:0,0:0:0:0:
384,55,38011,1,6,3:0:0:0:
482,116,38211,1,2,0:0:0:0:
482,116,38311,1,0,0:0:0:0:
482,116,38411,1,0,0:0:0:0:
396,177,38611,2,2,L|412:222,1,47.9999985351563,0|0,0:0|0:0,0:0:0:0:
432,251,38811,6,0,L|347:238,1,80,4|2,3:0|0:0,0:0:0:0:
244,180,39211,1,2,0:0:0:0:
279,263,39411,1,2,0:0:0:0:
264,350,39611,2,0,L|141:322,2,111.999996582031,6|8|4,3:0|3:0|3:0,0:0:0:0:
352,312,40211,1,4,3:0:0:0:
504,364,40611,2,0,L|484:303,1,55.9999982910157,8|0,3:0|3:0,0:0:0:0:
470,277,40811,6,0,L|510:123,1,143.999995605469,8|0,3:0|0:0,0:0:0:0:
491,97,41211,1,4,3:0:0:0:
397,144,41411,1,2,0:0:0:0:
303,106,41611,1,8,3:0:0:0:
215,144,41811,1,8,3:0:0:0:
155,78,42011,6,0,L|38:102,1,95.9999970703126,8|0,3:0|0:0,0:0:0:0:
0,155,42411,1,2,0:0:0:0:
36,232,42611,1,2,0:0:0:0:
109,285,42811,2,0,P|180:275|248:267,2,111.999996582031,6|8|4,3:0|3:0|3:0,0:0:0:0:
47,348,43411,1,4,3:0:0:0:
232,374,43811,2,0,L|287:347,1,55.9999982910157,8|0,3:0|3:0,0:0:0:0:
329,328,44011,6,0,P|306:265|311:168,1,143.999995605469,8|0,3:0|0:0,0:0:0:0:
326,154,44411,1,6,3:0:0:0:
210,121,44611,2,0,L|189:81,3,23.9999992675781,0|0|0|0,3:0|3:0|3:0|3:0,3:3:0:0:
199,152,44811,2,0,L|96:141,1,95.9999970703126,0|2,3:0|0:0,0:0:0:0:
278,63,45211,6,0,L|424:90,1,143.999995605469,12|0,3:0|0:0,0:0:0:0:
466,67,45611,2,0,P|435:111|414:177,1,95.9999970703126,8|2,3:0|0:0,0:0:0:0:
359,258,46011,2,0,P|315:212|257:181,2,111.999996582031,6|8|4,3:0|3:0|3:0,0:0:0:0:
396,372,46611,1,4,3:0:0:0:
247,318,47011,2,0,L|188:330,1,55.9999982910157,8|0,3:0|3:0,0:0:0:0:
151,317,47211,6,0,L|203:149,1,143.999995605469,8|0,3:0|0:0,0:0:0:0:
179,143,47611,1,4,3:0:0:0:
274,118,47811,1,2,0:0:0:0:
211,45,48011,1,8,3:0:0:0:
312,9,48211,1,8,3:0:0:0:
395,68,48411,6,0,L|357:195,1,95.9999970703126,10|8,3:0|3:0,0:0:0:0:
318,259,48811,1,0,3:0:0:0:
318,259,48911,2,0,L|344:364,1,95.9999970703126,8|0,3:0|0:0,0:0:0:0:
372,366,49211,2,0,L|476:305,2,111.999996582031,6|8|4,3:0|3:0|3:0,0:0:0:0:
261,360,49811,1,0,3:0:0:0:
191,311,50011,5,2,0:0:0:0:
286,137,50411,1,2,0:0:0:0:
184,149,50611,2,0,L|173:124,4,20,0|0|0|0|4,3:0|3:0|3:0|3:0|3:0,3:3:0:0:
91,202,51111,1,4,3:0:0:0:
88,190,51211,1,6,3:0:0:0:
23,120,51411,1,0,3:0:0:0:
84,31,51611,6,0,B|174:22|156:82|261:79,1,167.999994873047,4|2,0:0|0:0,0:0:0:0:
316,41,52411,1,2,0:0:0:0:
191,221,52811,1,2,0:0:0:0:
377,219,53211,6,0,B|420:204|420:204|382:320,1,167.999994873047,0|2,1:0|0:0,0:0:0:0:
292,367,54011,2,0,P|255:324|144:303,1,167.999994873047,0|2,1:0|0:0,0:0:0:0:
112,319,54711,1,2,0:0:0:0:
112,319,54811,5,0,1:0:0:0:
22,232,55011,2,0,L|31:203,2,27.9999991455078,0|0|0,0:0|0:0|0:0,0:0:0:0:
102,156,55411,1,2,0:0:0:0:
117,167,55611,1,2,0:0:0:0:
9,13,56011,1,2,0:0:0:0:
125,96,56411,6,0,L|147:41,1,55.9999982910157,0|0,1:0|0:0,0:0:0:0:
144,12,56711,2,0,P|189:52|230:69,1,83.9999974365235,0|0,0:0|0:0,0:0:0:0:
326,23,57211,1,2,0:0:0:0:
405,159,57611,1,2,0:0:0:0:
379,176,57811,1,2,0:0:0:0:
298,256,58011,6,0,L|359:275,1,55.9999982910157,0|0,1:0|0:0,0:0:0:0:
417,280,58311,2,0,P|355:287|295:355,1,139.999995727539,2|2,0:0|0:0,0:0:0:0:
200,348,59211,1,2,0:0:0:0:
265,163,59811,6,0,L|277:204,2,27.9999991455078,8|8|8,3:0|3:0|3:0,3:3:0:0:
199,82,60211,1,0,3:0:0:0:
296,38,60411,2,0,L|347:59,1,55.9999982910157,2|2,0:0|0:0,0:0:0:0:
430,126,60811,2,0,L|377:154,1,55.9999982910157,2|0,0:0|0:0,0:0:0:0:
306,178,61211,6,0,P|266:234|299:342,1,167.999994873047,0|2,1:0|0:0,0:0:0:0:
350,379,62011,2,0,P|245:359|183:370,1,167.999994873047,0|2,1:0|0:0,0:0:0:0:
108,339,62811,2,0,P|97:246|86:152,1,167.999994873047,0|2,1:0|0:0,0:0:0:0:
81,54,63611,2,0,P|150:103|237:111,1,167.999994873047,0|2,1:0|0:0,0:0:0:0:
314,56,64411,5,0,3:0:0:0:
386,164,64611,2,0,L|369:124,2,27.9999991455078,8|8|8,3:0|3:0|3:0,3:3:0:0:
314,231,65011,1,0,3:0:0:0:
336,255,65211,1,2,0:0:0:0:
499,106,65611,1,4,3:0:0:0:
281,22,66211,6,0,L|266:61,2,27.9999991455078,8|8|8,3:0|3:0|3:0,3:3:0:0:
324,107,66611,1,0,3:0:0:0:
338,127,66811,1,2,0:0:0:0:
191,192,67211,2,0,L|129:207,1,55.9999982910157,2|2,0:0|0:0,0:0:0:0:
56,216,67611,6,0,P|117:233|165:324,1,167.999994873047,0|2,1:0|0:0,0:0:0:0:
82,384,68411,1,2,0:0:0:0:
265,321,68811,1,4,3:0:0:0:
187,147,69411,6,0,L|179:189,2,27.9999991455078,8|8|8,3:0|3:0|3:0,3:3:0:0:
237,68,69811,1,0,3:0:0:0:
285,136,70011,2,0,P|343:149|411:154,1,111.999996582031,0|8,1:0|3:0,0:0:0:0:
496,119,70611,1,2,0:0:0:0:
496,119,70811,6,0,L|473:188,1,55.9999982910157,0|0,1:0|0:0,0:0:0:0:
485,226,71111,2,0,P|431:214|356:262,1,139.999995727539,2|2,0:0|0:0,0:0:0:0:
512,384,72011,1,0,3:0:0:0:
304,315,72611,2,0,L|268:329,2,27.9999991455078,8|8|8,3:0|3:0|3:0,3:3:0:0:
363,252,73011,1,0,3:0:0:0:
378,271,73211,1,2,0:0:0:0:
180,140,73611,2,0,L|116:125,1,55.9999982910157,2|2,0:0|0:0,0:0:0:0:
50,103,74011,6,0,P|86:144|57:259,1,167.999994873047,4|0,3:0|3:0,0:0:0:0:
0,333,74811,1,2,0:0:0:0:
171,189,75211,1,4,3:0:0:0:
104,47,75611,5,2,0:0:0:0:
185,95,75811,1,2,0:0:0:0:
267,43,76011,1,2,0:0:0:0:
187,104,76211,1,2,0:0:0:0:
142,187,76411,1,2,0:0:0:0:
199,270,76611,1,2,0:0:0:0:
162,192,76811,1,2,0:0:0:0:
296,222,77211,6,0,L|421:208,1,107.999996704102,12|0,3:0|0:0,0:0:0:0:
448,218,77611,2,0,P|437:179|431:157,1,35.9999989013672,8|0,3:0|0:0,0:0:0:0:
423,137,77811,1,2,0:0:0:0:
455,51,78011,1,6,3:0:0:0:
320,75,78211,2,0,L|268:89,1,35.9999989013672,8|0,3:0|0:0,0:0:0:0:
260,118,78411,2,0,L|234:215,1,71.9999978027344,8|2,3:0|0:0,0:0:0:0:
286,280,78811,1,2,0:0:0:0:
236,360,79011,6,0,L|174:344,1,35.9999989013672,8|0,3:0|0:0,0:0:0:0:
170,323,79211,2,0,P|159:280|194:197,1,107.999996704102,8|0,3:0|0:0,0:0:0:0:
204,179,79611,1,4,3:0:0:0:
99,191,79811,1,2,0:0:0:0:
99,191,79911,1,2,0:0:0:0:
99,191,80011,1,4,3:0:0:0:
25,119,80211,5,8,3:0:0:0:
75,42,80411,2,0,L|237:72,1,143.999995605469,8|2,3:0|0:0,0:0:0:0:
263,51,80911,1,2,0:0:0:0:
263,51,81011,1,8,3:0:0:0:
183,119,81211,2,0,P|146:179|162:247,1,143.999995605469,6|8,3:0|3:0,0:0:0:0:
222,325,81811,1,2,0:0:0:0:
222,325,81911,1,2,0:0:0:0:
222,325,82011,1,2,0:0:0:0:
342,363,82211,6,0,L|355:314,1,35.9999989013672,8|0,3:0|0:0,0:0:0:0:
387,282,82411,2,0,L|272:311,1,107.999996704102,8|0,3:0|0:0,0:0:0:0:
248,338,82811,1,4,3:0:0:0:
175,269,83011,2,0,L|184:240,4,17.9999994506836,0|0|0|0|0,3:0|3:0|3:0|3:0|3:0,3:3:0:0:
104,334,83411,1,0,0:0:0:0:
49,258,83611,6,0,L|84:143,1,107.999996704102,8|0,3:0|0:0,0:0:0:0:
81,119,84011,2,0,P|116:112|136:109,1,35.9999989013672,8|0,3:0|0:0,0:0:0:0:
156,97,84211,1,2,0:0:0:0:
253,56,84411,1,6,3:0:0:0:
331,131,84611,2,0,L|342:182,1,35.9999989013672,8|0,3:0|0:0,0:0:0:0:
347,202,84811,2,0,L|307:268,1,71.9999978027344,8|2,3:0|0:0,0:0:0:0:
365,331,85211,5,2,0:0:0:0:
439,261,85411,2,0,L|468:215,1,35.9999989013672,8|0,3:0|0:0,0:0:0:0:
485,189,85611,2,0,L|467:96,1,71.9999978027344,8|0,3:0|0:0,0:0:0:0:
393,58,86011,1,4,3:0:0:0:
331,163,86211,1,2,0:0:0:0:
331,163,86311,1,2,0:0:0:0:
331,163,86411,1,4,3:0:0:0:
391,257,86611,1,8,3:0:0:0:
370,357,86811,6,0,L|273:342,1,71.9999978027344,8|2,3:0|0:0,0:0:0:0:
190,319,87211,1,8,3:0:0:0:
190,319,87311,2,0,L|208:234,1,71.9999978027344,4|0,3:0|0:0,0:0:0:0:
227,228,87611,2,0,L|209:128,1,71.9999978027344,6|2,3:0|0:0,0:0:0:0:
277,95,88011,2,0,L|290:53,1,35.9999989013672,8|0,3:0|0:0,0:0:0:0:
292,19,88211,1,2,0:0:0:0:
198,43,88411,5,2,0:0:0:0:
127,118,88611,2,0,L|93:136,1,35.9999989013672,8|0,3:0|0:0,0:0:0:0:
43,159,88811,2,0,P|69:105|78:42,1,107.999996704102,8|0,3:0|0:0,0:0:0:0:
55,17,89211,1,4,3:0:0:0:
178,56,89411,2,2,L|157:92,2,35.9999989013672,2|0|0,0:0|0:0|0:0,0:0:0:0:
212,36,89711,1,2,0:0:0:0:
212,36,89811,1,0,0:0:0:0:
352,96,90011,6,0,P|344:153|331:210,1,107.999996704102,8|0,3:0|0:0,0:0:0:0:
323,229,90411,2,0,L|365:221,1,35.9999989013672,8|0,3:0|0:0,0:0:0:0:
399,211,90611,1,2,0:0:0:0:
501,245,90811,1,6,3:0:0:0:
446,317,91011,2,0,L|398:310,1,35.9999989013672,8|0,3:0|0:0,0:0:0:0:
363,307,91211,2,0,L|283:332,1,71.9999978027344,8|2,3:0|0:0,0:0:0:0:
215,371,91611,5,2,0:0:0:0:
120,378,91811,2,0,L|139:318,1,35.9999989013672,8|0,3:0|0:0,0:0:0:0:
128,306,92011,2,0,L|100:210,1,71.9999978027344,8|2,3:0|0:0,0:0:0:0:
56,144,92411,1,4,3:0:0:0:
185,160,92611,1,2,0:0:0:0:
185,160,92711,1,2,0:0:0:0:
185,160,92811,1,4,3:0:0:0:
271,94,93011,1,8,3:0:0:0:
241,9,93211,6,0,L|76:35,1,143.999995605469,8|2,3:0|0:0,0:0:0:0:
51,51,93711,1,2,0:0:0:0:
51,51,93811,1,8,3:0:0:0:
117,129,94011,2,0,P|134:195|97:277,1,143.999995605469,6|8,3:0|3:0,0:0:0:0:
133,355,94611,1,2,0:0:0:0:
133,355,94711,1,2,0:0:0:0:
133,355,94811,5,2,0:0:0:0:
225,371,95011,2,0,L|276:360,1,35.9999989013672,8|0,3:0|0:0,0:0:0:0:
300,356,95211,2,0,L|284:253,1,71.9999978027344,8|2,3:0|0:0,0:0:0:0:
240,202,95611,1,4,3:0:0:0:
341,191,95811,2,0,L|331:163,4,17.9999994506836,0|0|0|0|0,3:0|3:0|3:0|3:0|3:0,3:3:0:0:
410,243,96211,1,2,0:0:0:0:
486,307,96411,6,0,L|505:185,1,107.999996704102,8|0,3:0|0:0,0:0:0:0:
490,167,96811,2,0,L|444:181,1,35.9999989013672,8|0,3:0|0:0,0:0:0:0:
431,204,97011,1,2,0:0:0:0:
329,212,97211,1,6,3:0:0:0:
359,127,97411,2,0,L|352:87,1,35.9999989013672,8|0,3:0|0:0,0:0:0:0:
334,60,97611,2,0,L|250:79,1,71.9999978027344,8|2,3:0|0:0,0:0:0:0:
194,123,98011,5,2,0:0:0:0:
106,92,98211,2,0,L|72:79,1,35.9999989013672,8|0,3:0|0:0,0:0:0:0:
33,80,98411,2,0,L|47:204,1,107.999996704102,8|0,3:0|0:0,0:0:0:0:
93,249,98811,1,4,3:0:0:0:
187,212,99011,1,2,0:0:0:0:
187,212,99111,1,0,0:0:0:0:
187,212,99211,1,4,3:0:0:0:
247,268,99411,1,8,3:0:0:0:
328,296,99611,6,0,L|346:212,1,71.9999978027344,8|2,3:0|0:0,0:0:0:0:
471,192,100011,1,8,3:0:0:0:
471,192,100111,2,0,L|438:264,1,71.9999978027344,8|0,3:0|0:0,0:0:0:0:
413,279,100411,2,0,L|433:362,1,71.9999978027344,6|2,3:0|0:0,0:0:0:0:
321,377,100811,1,8,3:0:0:0:
246,335,101011,1,2,0:0:0:0:
160,361,101211,6,0,L|77:367,1,71.9999978027344,8|2,3:0|0:0,0:0:0:0:
41,263,101611,2,0,L|127:278,1,71.9999978027344,2|2,0:0|0:0,0:0:0:0:
231,261,102011,1,2,0:0:0:0:
273,193,102211,1,2,0:0:0:0:
247,112,102411,1,2,0:0:0:0:
196,50,102611,1,2,0:0:0:0:
111,38,102811,6,0,P|37:69|12:115,2,128,2|2|12,0:0|0:0|3:0,0:0:0:0:
282,86,104011,1,2,0:0:0:0:
293,236,104811,1,2,0:0:0:0:
182,357,105211,2,0,L|110:365,1,64,2|2,0:0|0:0,0:0:0:0:
46,312,105611,2,0,L|85:258,1,64,2|2,0:0|0:0,0:0:0:0:
133,178,106011,6,0,P|117:118|51:52,2,128,2|2|12,0:0|0:0|3:0,0:0:0:0:
46,331,107211,1,2,0:0:0:0:
204,264,108011,1,2,0:0:0:0:
388,366,108411,1,2,0:0:0:0:
448,291,108611,1,2,0:0:0:0:
448,291,108711,1,2,0:0:0:0:
448,291,108811,2,0,L|431:234,2,32,2|2|2,0:0|0:0|0:0,0:0:0:0:
362,217,109211,6,0,P|294:213|231:245,2,128,2|2|12,0:0|0:0|3:0,0:0:0:0:
487,126,110411,1,2,0:0:0:0:
321,8,111211,1,2,0:0:0:0:
199,132,111611,2,0,L|220:201,1,64,2|2,0:0|0:0,0:0:0:0:
285,238,112011,2,0,L|256:305,1,64,2|2,0:0|0:0,0:0:0:0:
181,343,112411,6,0,P|110:338|40:352,2,128,2|2|12,0:0|0:0|3:0,0:0:0:0:
357,290,113611,1,2,0:0:0:0:
243,143,114411,1,2,0:0:0:0:
348,29,114811,1,2,0:0:0:0:
366,55,115011,1,2,0:0:0:0:
338,148,115211,1,2,0:0:0:0:
338,148,115311,1,2,0:0:0:0:
338,148,115411,1,2,0:0:0:0:
375,248,115611,6,0,P|440:267|507:257,2,128,2|2|12,0:0|0:0|3:0,0:0:0:0:
256,148,116811,1,2,0:0:0:0:
130,274,117611,1,2,0:0:0:0:
267,358,118011,2,0,L|296:300,1,64,2|2,0:0|0:0,0:0:0:0:
240,235,118411,2,0,L|218:168,1,64,2|2,0:0|0:0,0:0:0:0:
253,93,118811,6,0,L|382:126,2,128,2|0|12,0:0|0:0|3:0,0:0:0:0:
124,21,120011,1,2,0:0:0:0:
23,144,120811,1,2,0:0:0:0:
136,234,121211,1,2,0:0:0:0:
213,166,121411,1,0,0:0:0:0:
213,166,121511,1,0,0:0:0:0:
213,166,121611,2,0,L|226:226,2,32,2|2|2,0:0|0:0|0:0,0:0:0:0:
267,91,122011,6,0,L|413:134,2,128,2|2|12,0:0|0:0|3:0,0:0:0:0:
157,7,123211,1,2,0:0:0:0:
79,170,124011,1,2,0:0:0:0:
218,244,124411,2,0,L|198:306,1,64,2|2,0:0|0:0,0:0:0:0:
134,376,124811,2,0,L|109:310,1,64,2|2,0:0|0:0,0:0:0:0:
69,230,125211,6,0,P|52:165|31:100,2,128,2|2|12,0:0|0:0|3:0,0:0:0:0:
223,358,126411,1,2,0:0:0:0:
372,273,127211,1,2,0:0:0:0:
292,161,127611,2,0,L|264:95,1,64,2|2,0:0|0:0,0:0:0:0:
342,55,128011,2,0,L|379:-1,1,64,2|2,0:0|0:0,0:0:0:0:
