osu file format v14

[General]
AudioFilename: audio.mp3
AudioLeadIn: 0
PreviewTime: 15472
Countdown: 0
SampleSet: Soft
StackLeniency: 0.5
Mode: 0
LetterboxInBreaks: 0
WidescreenStoryboard: 0

[Editor]
Bookmarks: 472,7972,15472,22972,30472,37972,45472,52972,60003
DistanceSpacing: 0.8
BeatDivisor: 4
GridSize: 32
TimelineZoom: 1

[Metadata]
Title:Lunatic set 15 ~ The Moon as Seen from the Shrine
TitleUnicode:Lunatic set 15 〜 神社から見える月
Artist:Rin
ArtistUnicode:凛
Creator:eiri-
Version:Serene
Source:東方紺珠伝 ~ Legacy of Lunatic Kingdom.
Tags:Ayyri 東方Project Touhou Entry Instrumental Video Game Electronic Featured Artist FA Team Shanghai Alice ZUN LoLK Ending Kanjuden Ultramarine Orb Tale Jinja Kara Mieru Tsuki TH15
BeatmapID:2635143
BeatmapSetID:1267975

[Difficulty]
HPDrainRate:5
CircleSize:5
OverallDifficulty:7.5
ApproachRate:8.5
SliderMultiplier:1.6
SliderTickRate:1

[Events]
//Background and Video events
0,0,"Ringo Seiran 254.jpg",0,0
//Break Periods
//Storyboard Layer 0 (Background)
//Storyboard Layer 1 (Fail)
//Storyboard Layer 2 (Pass)
//Storyboard Layer 3 (Foreground)
//Storyboard Layer 4 (Overlay)
//Storyboard Sound Samples

[TimingPoints]
472,468.75,4,2,1,50,1,0
15472,-66.6666666666667,4,2,1,60,0,0
45472,-100,4,2,1,50,0,0

[Colours]
Combo1 : 237,177,112
Combo2 : 202,202,255
Combo3 : 143,140,247
Combo4 : 252,217,177

[HitObjects]
58,335,472,6,0,P|111:322|169:322,2,80,14|0|0,0:0|0:0|0:0,0:0:0:0:
117,240,1175,1,2,0:0:0:0:
117,240,1409,2,0,P|96:205|70:175,2,80,2|0|0,1:2|0:0|0:0,0:0:0:0:
219,118,2112,1,10,0:0:0:0:
219,118,2347,6,0,P|203:154|181:188,2,80,10|0|0,0:0|0:0|0:0,0:0:0:0:
69,61,3050,1,10,0:0:0:0:
69,61,3284,2,0,P|122:74|180:74,2,80,2|0|0,1:2|0:0|0:0,0:0:0:0:
210,27,3987,1,2,0:0:0:0:
210,27,4222,6,0,P|263:14|321:14,2,80,10|0|0,0:0|0:0|0:0,0:0:0:0:
342,84,4925,1,2,0:0:0:0:
342,84,5160,2,0,P|329:137|329:195,2,80,2|0|2,1:2|0:0|1:2,0:0:0:0:
230,175,5862,1,10,0:0:0:0:
230,175,6097,6,0,P|201:128|160:87,2,80,10|0|2,0:0|0:0|1:2,0:0:0:0:
411,142,6800,1,10,0:0:0:0:
411,142,7034,2,0,L|423:205,1,40,2|0,1:2|0:0,0:0:0:0:
361,293,7268,2,0,L|349:229,1,40,10|0,0:0|0:0,0:0:0:0:
432,155,7503,2,0,L|444:218,1,40,10|0,0:0|0:0,0:0:0:0:
340,280,7737,2,0,L|328:217,1,40,2|0,1:2|0:0,0:0:0:0:
480,352,7972,6,0,P|442:342|388:342,2,80,14|0|0,0:0|0:0|0:0,0:0:0:0:
343,283,8675,1,2,0:0:0:0:
343,283,8909,2,0,P|312:308|263:330,2,80,2|0|0,1:2|0:0|0:0,0:0:0:0:
370,175,9612,1,10,0:0:0:0:
370,175,9847,6,0,P|395:205|417:254,2,80,10|0|0,0:0|0:0|0:0,0:0:0:0:
252,128,10550,1,10,0:0:0:0:
252,128,10784,2,0,P|268:92|302:51,2,80,2|0|0,1:2|0:0|0:0,0:0:0:0:
228,2,11487,1,2,0:0:0:0:
228,2,11722,5,10,0:0:0:0:
170,35,11956,2,0,L|86:25,2,80,2|2|2,0:0|0:0|0:0,0:0:0:0:
320,96,12659,1,2,1:2:0:0:
254,150,12893,2,0,L|244:46,1,80,2|2,0:0|1:2,0:0:0:0:
334,191,13362,1,10,0:0:0:0:
238,271,13597,6,0,P|193:253|126:247,1,80,10|2,0:0|0:0,0:0:0:0:
67,272,14065,1,2,1:2:0:0:
2,363,14300,1,10,0:0:0:0:
204,346,14534,1,2,1:2:0:0:
204,346,14768,2,0,L|195:298,1,40,10|0,0:0|0:0,0:0:0:0:
210,304,15003,2,0,L|219:352,1,40,10|0,0:0|0:0,0:0:0:0:
202,294,15237,1,2,0:0:0:0:
341,375,15472,6,0,B|448:376|410:300|514:306,1,180.000006866455,14|0,0:0|0:0,0:0:0:0:
499,316,15940,2,0,P|452:272|489:205,1,120.000004577637,2|8,1:2|0:0,0:0:0:0:
511,72,16409,2,0,P|454:137|352:114,1,180.000006866455,10|0,0:0|0:0,0:0:0:0:
354,106,16878,2,0,P|382:98|388:123,1,60.0000022888184,2|0,1:2|0:0,0:0:0:0:
356,211,17112,2,0,P|328:219|322:194,1,60.0000022888184,10|0,0:0|0:0,0:0:0:0:
401,59,17347,5,10,0:0:0:0:
244,95,17581,2,0,P|172:82|109:82,2,120.000004577637,2|2|10,0:0|1:2|0:0,0:0:0:0:
66,19,18284,2,0,P|103:104|126:273,1,240.000009155274,10|2,0:0|1:2,0:0:0:0:
199,309,18987,1,2,1:2:0:0:
199,309,19104,1,2,1:2:0:0:
199,309,19222,5,10,0:0:0:0:
222,377,19456,1,2,0:0:0:0:
290,354,19690,1,2,1:2:0:0:
267,286,19925,1,10,0:0:0:0:
222,377,20159,2,0,P|176:318|80:358,1,180.000006866455,10|0,0:0|0:0,0:0:0:0:
88,356,20628,2,0,P|144:329|120:277,1,120.000004577637,2|8,1:2|0:0,0:0:0:0:
32,224,21097,5,10,0:0:0:0:
32,224,21331,2,0,L|10:153,1,60.0000022888184,2|2,0:0|0:0,0:0:0:0:
62,63,21565,2,0,L|59:202,1,120.000004577637,2|8,1:2|0:0,0:0:0:0:
288,256,22034,1,10,0:0:0:0:
113,327,22268,2,0,L|47:317,1,60.0000022888184,2|0,0:0|0:0,0:0:0:0:
140,249,22503,2,0,L|206:239,1,60.0000022888184,2|0,1:2|0:0,0:0:0:0:
288,352,22737,2,0,L|222:342,1,60.0000022888184,10|0,0:0|0:0,0:0:0:0:
384,288,22972,5,10,0:0:0:0:
329,195,23206,2,0,P|352:259|410:250,2,120.000004577637,2|2|10,0:0|1:2|0:0,0:0:0:0:
485,165,23909,2,0,P|372:160|241:123,1,240.000009155274,10|2,0:0|1:2,0:0:0:0:
144,72,24612,1,2,1:2:0:0:
144,72,24729,1,2,1:2:0:0:
144,72,24847,6,0,L|162:223,1,120.000004577637,10|2,0:0|0:0,0:0:0:0:
111,271,25315,1,2,1:2:0:0:
352,224,25550,1,10,0:0:0:0:
288,384,25784,2,0,P|228:317|128:342,1,180.000006866455,10|0,0:0|0:0,0:0:0:0:
143,336,26253,2,0,L|227:327,1,60.0000022888184,2|0,1:2|0:0,0:0:0:0:
369,336,26487,2,0,L|285:327,1,60.0000022888184,10|0,0:0|0:0,0:0:0:0:
256,192,26722,6,0,L|256:64,1,120.000004577637,10|2,0:0|0:0,0:0:0:0:
149,18,27190,1,2,1:2:0:0:
416,0,27425,1,10,0:0:0:0:
232,107,27659,1,10,0:0:0:0:
232,107,27893,2,0,L|373:125,2,120.000004577637,2|2|10,0:0|1:2|0:0,0:0:0:0:
32,160,28597,5,10,0:0:0:0:
5,92,28831,1,2,0:0:0:0:
73,65,29065,1,2,1:2:0:0:
100,133,29300,1,10,0:0:0:0:
5,92,29534,1,10,0:0:0:0:
245,112,29768,1,2,1:2:0:0:
202,59,30003,2,0,L|222:189,1,120.000004577637,2|10,0:0|0:0,0:0:0:0:
153,351,30472,6,0,B|119:330|119:330|280:309,1,180.000006866455,14|0,0:0|0:0,0:0:0:0:
269,309,30940,2,0,L|249:179,1,120.000004577637,2|0,1:2|0:0,0:0:0:0:
234,29,31409,2,0,P|301:18|319:42,1,60.0000022888184,10|10,0:0|0:0,0:0:0:0:
281,81,31643,1,10,0:0:0:0:
156,117,31878,1,2,1:2:0:0:
281,81,32112,2,0,L|273:156,1,60.0000022888184,2|2,1:2|1:2,0:0:0:0:
262,284,32347,5,10,0:0:0:0:
224,224,32581,1,2,0:0:0:0:
224,224,32698,1,2,0:0:0:0:
224,224,32815,1,2,1:2:0:0:
449,272,33050,1,10,0:0:0:0:
397,326,33284,2,0,P|407:246|444:104,1,180.000006866455,10|0,0:0|0:0,0:0:0:0:
457,118,33753,2,0,P|477:173|441:217,1,120.000004577637,2|10,1:2|0:0,0:0:0:0:
306,189,34104,1,10,0:0:0:0:
306,189,34222,6,0,L|320:114,1,60.0000022888184,10|0,0:0|0:0,0:0:0:0:
214,19,34456,2,0,L|228:94,1,60.0000022888184,2|0,0:0|0:0,0:0:0:0:
183,268,34690,2,0,L|197:193,1,60.0000022888184,2|0,1:2|0:0,0:0:0:0:
73,14,34925,2,0,L|87:89,1,60.0000022888184,10|0,0:0|0:0,0:0:0:0:
129,308,35159,5,10,0:0:0:0:
78,232,35393,1,2,0:0:0:0:
78,232,35628,2,0,P|102:296|104:359,1,120.000004577637,2|10,1:2|0:0,0:0:0:0:
288,256,36097,5,10,0:0:0:0:
427,290,36331,1,2,0:0:0:0:
352,206,36566,1,2,1:2:0:0:
213,240,36800,1,10,0:0:0:0:
4,291,37034,1,10,0:0:0:0:
67,364,37268,2,0,L|149:351,1,60.0000022888184,2|0,0:0|0:0,0:0:0:0:
226,304,37503,2,0,L|308:317,1,60.0000022888184,2|0,1:2|0:0,0:0:0:0:
356,353,37737,2,0,L|438:340,1,60.0000022888184,10|0,0:0|0:0,0:0:0:0:
512,268,37972,5,10,0:0:0:0:
473,166,38206,2,0,P|467:226|519:221,1,120.000004577637,2|2,0:0|1:2,0:0:0:0:
490,76,38675,1,10,0:0:0:0:
314,125,38909,2,0,P|245:103|71:87,1,240.000009155274,10|2,0:0|1:2,0:0:0:0:
0,146,39612,1,2,1:2:0:0:
0,146,39729,1,2,1:2:0:0:
0,146,39847,5,10,0:0:0:0:
48,261,40081,2,0,L|26:106,2,120.000004577637,2|2|10,0:0|1:2|0:0,0:0:0:0:
244,208,40784,1,10,0:0:0:0:
248,217,40901,2,0,L|226:372,1,120.000004577637,2|2,0:0|0:0,0:0:0:0:
235,344,41253,1,2,1:2:0:0:
150,213,41487,1,2,1:2:0:0:
150,213,41604,1,2,1:2:0:0:
150,213,41722,6,0,L|172:58,1,120.000004577637,10|2,0:0|0:0,0:0:0:0:
127,16,42073,1,2,0:0:0:0:
127,16,42190,2,0,L|236:40,1,60.0000022888184,2|0,1:2|0:0,0:0:0:0:
288,96,42425,2,0,L|397:72,1,60.0000022888184,10|0,0:0|0:0,0:0:0:0:
501,56,42659,5,10,0:0:0:0:
429,35,42893,1,2,0:0:0:0:
408,107,43128,1,2,1:2:0:0:
480,128,43362,1,10,0:0:0:0:
429,35,43597,5,10,0:0:0:0:
448,224,43831,1,2,0:0:0:0:
448,224,43948,1,2,0:0:0:0:
448,224,44065,1,2,1:2:0:0:
480,128,44300,1,10,0:0:0:0:
224,160,44534,1,10,0:0:0:0:
304,192,44768,1,2,1:2:0:0:
268,246,45003,2,0,L|276:316,1,60.0000022888184,2|0,0:0|0:0,0:0:0:0:
302,377,45237,2,0,L|310:307,1,60.0000022888184,10|0,0:0|0:0,0:0:0:0:
64,352,45472,6,0,L|76:242,2,80,14|0|0,0:0|0:0|0:0,0:0:0:0:
0,179,46175,1,2,0:0:0:0:
0,179,46409,2,0,L|12:289,2,80,2|0|0,1:2|0:0|0:0,0:0:0:0:
160,128,47112,1,10,0:0:0:0:
160,128,47347,6,0,P|96:96|64:96,2,80,10|0|0,0:0|0:0|0:0,0:0:0:0:
160,256,48050,1,10,0:0:0:0:
160,256,48285,2,0,P|96:288|64:288,2,80,2|0|0,1:2|0:0|0:0,0:0:0:0:
32,192,48987,1,2,0:0:0:0:
32,192,49222,6,0,L|128:192,2,80,10|0|0,0:0|0:0|0:0,0:0:0:0:
192,192,49925,1,2,0:0:0:0:
192,192,50160,2,0,L|288:192,2,80,2|0|2,1:2|0:0|1:2,0:0:0:0:
0,192,50862,1,10,0:0:0:0:
0,192,51097,6,0,L|0:96,2,80,10|0|2,0:0|0:0|1:2,0:0:0:0:
128,128,51800,1,10,0:0:0:0:
128,128,52034,2,0,L|128:64,1,40,2|0,1:2|0:0,0:0:0:0:
192,192,52268,2,0,L|192:128,1,40,10|0,0:0|0:0,0:0:0:0:
96,192,52503,2,0,L|96:128,1,40,10|0,0:0|0:0,0:0:0:0:
160,256,52737,2,0,L|160:192,1,40,2|0,1:2|0:0,0:0:0:0:
96,288,52972,6,0,P|32:256|0:256,2,80,14|0|0,0:0|0:0|0:0,0:0:0:0:
224,256,53675,1,2,0:0:0:0:
224,256,53909,2,0,P|277:208|308:200,2,80,2|0|0,1:2|0:0|0:0,0:0:0:0:
128,128,54613,1,10,0:0:0:0:
128,128,54847,6,0,L|123:232,2,80,10|0|0,0:0|0:0|0:0,0:0:0:0:
256,96,55550,1,10,0:0:0:0:
256,96,55784,2,0,L|251:-8,2,80,2|0|0,1:2|0:0|0:0,0:0:0:0:
266,251,56487,1,2,0:0:0:0:
266,251,56722,6,0,P|217:230|154:227,2,80,10|0|0,0:0|0:0|0:0,0:0:0:0:
384,192,57425,1,2,0:0:0:0:
384,192,57659,2,0,L|396:77,1,80,2|0,1:2|0:0,0:0:0:0:
288,235,58128,2,0,L|300:350,1,80,2|10,1:2|0:0,0:0:0:0:
480,352,58597,5,10,0:0:0:0:
457,282,58831,1,2,0:0:0:0:
387,305,59065,1,2,1:2:0:0:
410,375,59300,1,10,0:0:0:0:
480,256,59534,1,2,1:2:0:0:
266,251,59768,2,0,L|273:317,1,40,10|0,0:0|0:0,0:0:0:0:
275,330,60003,5,10,0:0:0:0:
