osu file format v14

[General]
AudioFilename: audio.mp3
AudioLeadIn: 0
PreviewTime: 15472
Countdown: 0
SampleSet: None
StackLeniency: 0.5
Mode: 0
LetterboxInBreaks: 0
WidescreenStoryboard: 0

[Editor]
Bookmarks: 472,7972,15472,22972,30472,37972,45472,52972,60003
DistanceSpacing: 0.8
BeatDivisor: 4
GridSize: 32
TimelineZoom: 1

[Metadata]
Title:Lunatic set 15 ~ The Moon as Seen from the Shrine
TitleUnicode:Lunatic set 15 〜 神社から見える月
Artist:Rin
ArtistUnicode:凛
Creator:eiri-
Version:Normal
Source:東方紺珠伝 ~ Legacy of Lunatic Kingdom.
Tags:Ayyri 東方Project Touhou Entry Instrumental Video Game Electronic Featured Artist FA Team Shanghai Alice ZUN LoLK Ending Kanjuden Ultramarine Orb Tale Jinja Kara Mieru Tsuki TH15
BeatmapID:2635142
BeatmapSetID:1267975

[Difficulty]
HPDrainRate:4
CircleSize:3
OverallDifficulty:4
ApproachRate:5
SliderMultiplier:1.4
SliderTickRate:1

[Events]
//Background and Video events
0,0,"Ringo Seiran 254.jpg",0,0
//Break Periods
//Storyboard Layer 0 (Background)
//Storyboard Layer 1 (Fail)
//Storyboard Layer 2 (Pass)
//Storyboard Layer 3 (Foreground)
//Storyboard Layer 4 (Overlay)
//Storyboard Sound Samples

[TimingPoints]
472,468.75,4,2,1,50,1,0
15472,-90.9090909090909,4,2,1,60,0,0
45472,-100,4,2,1,50,0,0

[Colours]
Combo1 : 237,177,112
Combo2 : 202,202,255
Combo3 : 143,140,247
Combo4 : 252,217,177

[HitObjects]
46,70,472,6,0,L|203:85,1,140,14|0,0:0|0:0,0:0:0:0:
241,66,1175,1,2,0:0:0:0:
241,66,1409,2,0,L|232:146,2,70,2|0|0,1:2|0:0|0:0,0:0:0:0:
279,25,2112,1,10,0:0:0:0:
279,25,2347,6,0,B|342:20|342:20|353:115,1,140,10|0,0:0|0:0,0:0:0:0:
283,186,3284,2,0,P|244:180|202:163,2,70,2|0|0,1:2|0:0|0:0,0:0:0:0:
324,223,3987,1,2,0:0:0:0:
324,223,4222,6,0,P|296:292|248:349,1,140,10|0,0:0|0:0,0:0:0:0:
147,309,5159,2,0,P|108:301|66:301,2,70,2|0|2,1:2|0:0|1:2,0:0:0:0:
187,270,5862,1,10,0:0:0:0:
187,270,6097,6,0,L|173:113,1,140,10|2,0:0|1:2,0:0:0:0:
200,80,6800,1,10,0:0:0:0:
200,80,7034,2,0,L|282:99,1,70,2|10,1:2|0:0,0:0:0:0:
319,72,7503,1,10,0:0:0:0:
375,168,7972,6,0,P|445:162|453:237,1,140,14|0,0:0|0:0,0:0:0:0:
430,264,8675,1,2,0:0:0:0:
430,264,8909,2,0,P|446:316|451:365,2,70,2|0|0,1:2|0:0|0:0,0:0:0:0:
379,254,9612,1,10,0:0:0:0:
379,254,9847,6,0,P|306:246|235:247,1,140,10|0,0:0|0:0,0:0:0:0:
127,245,10784,2,0,P|98:205|98:175,2,70,2|0|0,1:2|0:0|0:0,0:0:0:0:
140,299,11487,1,2,0:0:0:0:
140,299,11722,6,0,P|186:277|296:273,1,140,10|2,0:0|0:0,0:0:0:0:
374,317,12659,2,0,L|470:303,2,70,2|2|2,1:2|0:0|1:2,0:0:0:0:
331,353,13362,1,10,0:0:0:0:
331,353,13597,6,0,P|274:322|276:226,1,140,10|2,0:0|1:2,0:0:0:0:
294,207,14300,1,10,0:0:0:0:
294,207,14534,2,0,L|282:123,1,70,2|10,1:2|0:0,0:0:0:0:
301,84,15003,1,10,0:0:0:0:
178,93,15472,6,0,P|121:72|18:65,1,154.000004699707,14|2,0:0|1:2,0:0:0:0:
0,119,16175,1,8,0:0:0:0:
0,119,16409,2,0,P|19:190|30:280,1,154.000004699707,10|2,0:0|1:2,0:0:0:0:
131,349,17347,5,10,0:0:0:0:
131,349,17581,2,0,P|194:328|234:326,2,77.0000023498536,2|2|10,0:0|1:2|0:0,0:0:0:0:
72,369,18284,2,0,P|68:303|102:202,1,154.000004699707,10|2,0:0|1:2,0:0:0:0:
172,126,19222,5,10,0:0:0:0:
172,126,19456,2,0,L|159:38,2,77.0000023498536,2|2|10,0:0|1:2|0:0,0:0:0:0:
220,163,20159,1,10,0:0:0:0:
220,163,20393,2,0,P|276:143|328:141,1,77.0000023498536,2|2,0:0|1:2,0:0:0:0:
356,160,20862,1,10,0:0:0:0:
356,160,21097,6,0,P|323:222|315:339,1,154.000004699707,10|2,0:0|1:2,0:0:0:0:
199,356,22034,1,10,0:0:0:0:
199,356,22268,2,0,P|154:343|100:341,1,77.0000023498536,2|2,0:0|1:2,0:0:0:0:
71,372,22737,1,10,0:0:0:0:
71,372,22972,6,0,P|32:337|38:225,1,154.000004699707,10|2,0:0|1:2,0:0:0:0:
65,191,23675,1,10,0:0:0:0:
65,191,23909,2,0,P|130:208|243:209,1,154.000004699707,10|2,0:0|1:2,0:0:0:0:
338,180,24847,5,10,0:0:0:0:
338,180,25081,2,0,P|346:230|348:266,1,77.0000023498536,2|2,0:0|1:2,0:0:0:0:
337,320,25550,1,10,0:0:0:0:
337,320,25784,2,0,P|399:334|446:254,1,154.000004699707,10|2,0:0|1:2,0:0:0:0:
421,152,26722,5,10,0:0:0:0:
421,152,26956,2,0,L|436:61,2,77.0000023498536,2|2|10,0:0|1:2|0:0,0:0:0:0:
371,188,27659,1,10,0:0:0:0:
272,113,28128,1,2,1:2:0:0:
173,186,28597,6,0,L|185:285,1,77.0000023498536,10|2,0:0|0:0,0:0:0:0:
191,323,29065,2,0,L|290:335,1,77.0000023498536,2|10,1:2|0:0,0:0:0:0:
325,311,29534,1,10,0:0:0:0:
442,363,30003,1,2,0:0:0:0:
442,363,30237,1,10,0:0:0:0:
442,363,30472,6,0,P|458:293|492:191,1,154.000004699707,14|2,0:0|1:2,0:0:0:0:
469,159,31175,1,2,0:0:0:0:
469,159,31409,2,0,P|431:131|381:122,1,77.0000023498536,10|10,0:0|0:0,0:0:0:0:
343,141,31878,1,2,1:2:0:0:
244,66,32347,5,10,0:0:0:0:
244,66,32581,2,0,L|139:71,1,77.0000023498536,2|2,0:0|1:2,0:0:0:0:
113,52,33050,1,10,0:0:0:0:
113,52,33284,2,0,P|135:123|147:206,1,154.000004699707,10|2,0:0|1:2,0:0:0:0:
97,314,34222,6,0,P|48:302|12:301,2,77.0000023498536,10|2|2,0:0|0:0|1:2,0:0:0:0:
140,357,34925,1,10,0:0:0:0:
140,357,35159,2,0,P|174:318|297:314,1,154.000004699707,10|2,0:0|1:2,0:0:0:0:
328,337,35862,1,10,0:0:0:0:
328,337,36097,5,10,0:0:0:0:
428,266,36565,2,0,L|417:175,1,77.0000023498536,2|10,1:2|0:0,0:0:0:0:
436,130,37034,1,10,0:0:0:0:
436,130,37268,2,0,L|527:149,2,77.0000023498536,2|2|10,0:0|1:2|0:0,0:0:0:0:
394,84,37972,6,0,P|338:97|328:198,1,154.000004699707,10|2,0:0|1:2,0:0:0:0:
309,246,38675,1,10,0:0:0:0:
309,246,38909,1,10,0:0:0:0:
197,298,39378,1,2,1:2:0:0:
81,255,39847,5,10,0:0:0:0:
81,255,40081,2,0,L|96:166,1,77.0000023498536,2|2,0:0|1:2,0:0:0:0:
82,123,40550,1,10,0:0:0:0:
82,123,40784,2,0,P|141:109|187:190,1,154.000004699707,10|2,0:0|1:2,0:0:0:0:
285,254,41722,6,0,P|363:241|458:236,1,154.000004699707,10|2,0:0|1:2,0:0:0:0:
489,269,42425,1,10,0:0:0:0:
489,269,42659,2,0,P|514:201|510:176,1,77.0000023498536,10|2,0:0|0:0,0:0:0:0:
497,138,43128,2,0,P|472:70|476:45,1,77.0000023498536,2|10,1:2|0:0,0:0:0:0:
489,7,43597,5,10,0:0:0:0:
376,37,44065,1,2,1:2:0:0:
376,37,44300,1,10,0:0:0:0:
376,37,44534,2,0,P|318:24|278:24,1,77.0000023498536,10|2,0:0|1:2,0:0:0:0:
244,49,45003,1,2,0:0:0:0:
136,18,45472,6,0,P|78:28|78:114,1,140,14|0,0:0|0:0,0:0:0:0:
68,159,46175,1,2,0:0:0:0:
68,159,46409,2,0,L|-12:150,2,70,2|0|0,1:2|0:0|0:0,0:0:0:0:
116,197,47112,1,10,0:0:0:0:
116,197,47347,6,0,B|177:191|177:191|188:288,1,140,10|0,0:0|0:0,0:0:0:0:
280,328,48284,2,0,P|319:322|361:305,2,70,2|0|0,1:2|0:0|0:0,0:0:0:0:
233,356,48987,1,2,0:0:0:0:
233,356,49222,6,0,L|245:211,1,140,10|0,0:0|0:0,0:0:0:0:
206,110,50159,2,0,P|167:102|125:102,2,70,2|0|2,1:2|0:0|1:2,0:0:0:0:
246,71,50862,1,10,0:0:0:0:
246,71,51097,6,0,P|305:75|322:149,1,140,10|2,0:0|1:2,0:0:0:0:
363,191,51800,1,10,0:0:0:0:
363,191,52034,2,0,L|446:179,1,70,2|10,1:2|0:0,0:0:0:0:
481,209,52503,1,10,0:0:0:0:
414,299,52972,6,0,P|351:274|275:276,1,140,14|0,0:0|0:0,0:0:0:0:
234,305,53675,1,2,0:0:0:0:
234,305,53909,2,0,P|218:357|213:406,2,70,2|0|0,1:2|0:0|0:0,0:0:0:0:
218,256,54612,1,10,0:0:0:0:
218,256,54847,6,0,P|198:186|160:108,1,140,10|0,0:0|0:0,0:0:0:0:
71,71,55784,2,0,P|42:31|42:1,2,70,2|0|0,1:2|0:0|0:0,0:0:0:0:
84,125,56487,1,2,0:0:0:0:
84,125,56722,6,0,P|130:103|240:99,1,140,10|0,0:0|0:0,0:0:0:0:
328,113,57659,2,0,L|314:17,2,70,2|0|2,1:2|0:0|1:2,0:0:0:0:
365,162,58362,1,10,0:0:0:0:
365,162,58597,6,0,P|334:219|238:217,1,140,10|2,0:0|1:2,0:0:0:0:
223,202,59300,1,10,0:0:0:0:
223,202,59534,2,0,L|139:190,1,70,2|10,1:2|0:0,0:0:0:0:
100,209,60003,5,10,0:0:0:0:
