osu file format v14

[General]
AudioFilename: audio.mp3
AudioLeadIn: 0
PreviewTime: 15472
Countdown: 0
SampleSet: None
StackLeniency: 0.5
Mode: 0
LetterboxInBreaks: 0
WidescreenStoryboard: 0

[Editor]
Bookmarks: 472,7972,15472,22972,30472,37972,45472,52972,60003
DistanceSpacing: 0.8
BeatDivisor: 4
GridSize: 32
TimelineZoom: 1

[Metadata]
Title:Lunatic set 15 ~ The Moon as Seen from the Shrine
TitleUnicode:Lunatic set 15 〜 神社から見える月
Artist:Rin
ArtistUnicode:凛
Creator:eiri-
Version:Easy
Source:東方紺珠伝 ~ Legacy of Lunatic Kingdom.
Tags:Ayyri 東方Project Touhou Entry Instrumental Video Game Electronic Featured Artist FA Team Shanghai Alice ZUN LoLK Ending Kanjuden Ultramarine Orb Tale Jinja Kara Mieru Tsuki TH15
BeatmapID:2635139
BeatmapSetID:1267975

[Difficulty]
HPDrainRate:3
CircleSize:2.5
OverallDifficulty:3
ApproachRate:4
SliderMultiplier:1.2
SliderTickRate:1

[Events]
//Background and Video events
0,0,"Ringo Seiran 254.jpg",0,0
//Break Periods
//Storyboard Layer 0 (Background)
//Storyboard Layer 1 (Fail)
//Storyboard Layer 2 (Pass)
//Storyboard Layer 3 (Foreground)
//Storyboard Layer 4 (Overlay)
//Storyboard Sound Samples

[TimingPoints]
472,468.75,4,2,1,50,1,0
15472,-90.9090909090909,4,2,1,60,0,0
45472,-100,4,2,1,50,0,0

[Colours]
Combo1 : 237,177,112
Combo2 : 202,202,255
Combo3 : 143,140,247
Combo4 : 252,217,177

[HitObjects]
20,65,472,6,0,P|45:105|65:202,1,120,14|0,0:0|0:0,0:0:0:0:
4,249,1409,2,0,P|54:222|176:337,1,240,2|10,1:2|0:0,0:0:0:0:
265,359,2815,1,2,0:0:0:0:
332,290,3284,2,0,L|318:206,2,60,2|2|2,1:2|0:0|0:0,0:0:0:0:
412,343,4222,2,0,P|462:324|464:159,1,240,10|2,0:0|1:2,0:0:0:0:
386,112,5628,1,2,1:2:0:0:
299,153,6097,2,0,P|241:140|163:136,1,120,10|2,0:0|1:2,0:0:0:0:
91,170,7034,2,0,L|102:248,2,60,2|10|10,1:2|0:0|0:0,0:0:0:0:
22,102,7972,6,0,P|48:61|236:50,1,240,14|2,0:0|1:2,0:0:0:0:
316,61,9378,1,2,0:0:0:0:
289,153,9847,2,0,L|307:300,1,120,10|0,0:0|0:0,0:0:0:0:
264,359,10784,2,0,P|147:338|19:336,1,240,2|10,1:2|0:0,0:0:0:0:
46,241,12190,1,2,0:0:0:0:
5,153,12659,2,0,P|61:106|117:114,1,120,2|2,1:2|1:2,0:0:0:0:
168,180,13597,2,0,P|157:128|316:77,1,240,10|2,0:0|1:2,0:0:0:0:
342,144,15003,1,10,0:0:0:0:
264,216,15472,6,0,P|206:190|113:196,2,132.00000402832,14|2|10,0:0|1:2|0:0,0:0:0:0:
338,290,16878,1,2,1:2:0:0:
433,243,17347,2,0,P|481:230|505:139,1,132.00000402832,10|2,0:0|1:2,0:0:0:0:
477,58,18284,1,10,0:0:0:0:
378,96,18753,1,2,1:2:0:0:
287,41,19222,6,0,P|217:17|151:165,1,264.000008056641,10|10,0:0|0:0,0:0:0:0:
209,241,20628,1,2,1:2:0:0:
167,338,21097,2,0,P|88:335|56:163,1,264.000008056641,10|10,0:0|0:0,0:0:0:0:
115,104,22503,1,2,1:2:0:0:
208,152,22972,6,0,L|362:141,1,132.00000402832,10|2,0:0|1:2,0:0:0:0:
368,40,23909,2,0,L|214:51,1,132.00000402832,10|2,0:0|1:2,0:0:0:0:
136,13,24847,1,10,0:0:0:0:
105,113,25315,1,2,1:2:0:0:
1,113,25784,2,0,L|25:252,1,132.00000402832,10|2,0:0|1:2,0:0:0:0:
102,313,26722,6,0,P|231:286|365:278,1,264.000008056641,10|10,0:0|0:0,0:0:0:0:
454,330,28128,1,2,1:2:0:0:
502,236,28597,2,0,P|489:154|322:152,1,264.000008056641,10|10,0:0|0:0,0:0:0:0:
232,107,30003,1,2,0:0:0:0:
147,170,30472,6,0,P|87:149|0:143,2,132.00000402832,14|2|10,0:0|1:2|0:0,0:0:0:0:
224,241,31878,1,2,1:2:0:0:
156,322,32347,2,0,L|16:311,1,132.00000402832,10|2,0:0|1:2,0:0:0:0:
72,217,33284,1,10,0:0:0:0:
29,120,33753,1,2,1:2:0:0:
104,45,34222,6,0,P|218:95|203:229,1,264.000008056641,10|10,0:0|0:0,0:0:0:0:
134,291,35628,1,2,1:2:0:0:
210,363,36097,2,0,P|341:342|490:346,1,264.000008056641,10|10,0:0|0:0,0:0:0:0:
501,242,37503,1,2,1:2:0:0:
415,179,37972,6,0,L|426:41,1,132.00000402832,10|2,0:0|1:2,0:0:0:0:
320,36,38909,2,0,L|309:174,1,132.00000402832,10|2,0:0|1:2,0:0:0:0:
295,272,39847,1,10,0:0:0:0:
202,221,40315,1,2,1:2:0:0:
130,298,40784,2,0,L|-15:280,1,132.00000402832,10|2,0:0|1:2,0:0:0:0:
6,176,41722,6,0,P|106:97|252:134,1,264.000008056641,10|10,0:0|0:0,0:0:0:0:
317,181,43128,1,2,1:2:0:0:
387,102,43597,2,0,P|361:171|352:252,1,132.00000402832,10|2,0:0|1:2,0:0:0:0:
380,330,44534,1,10,0:0:0:0:
479,364,45003,1,2,0:0:0:0:
451,271,45472,6,0,P|413:245|317:261,1,120,14|0,0:0|0:0,0:0:0:0:
268,181,46409,2,0,P|287:232|152:324,1,240,2|10,1:2|0:0,0:0:0:0:
77,284,47815,1,2,0:0:0:0:
103,191,48284,2,0,L|86:114,2,60,2|2|2,1:2|0:0|0:0,0:0:0:0:
195,216,49222,2,0,P|270:204|440:199,1,240,10|2,0:0|1:2,0:0:0:0:
481,115,50628,1,2,1:2:0:0:
410,49,51097,2,0,P|366:54|337:121,1,120,10|2,0:0|1:2,0:0:0:0:
415,171,52034,2,0,L|492:160,2,60,2|10|10,1:2|0:0|0:0,0:0:0:0:
329,215,52972,6,0,P|219:172|95:193,1,240,14|2,0:0|1:2,0:0:0:0:
20,242,54378,1,2,0:0:0:0:
70,323,54847,2,0,L|210:305,1,120,10|0,0:0|0:0,0:0:0:0:
281,333,55784,2,0,P|376:326|369:192,1,240,2|10,1:2|0:0,0:0:0:0:
306,144,57190,1,2,0:0:0:0:
364,67,57659,2,0,P|326:18|251:17,1,120,2|2,1:2|1:2,0:0:0:0:
185,52,58597,2,0,L|213:311,1,240,10|2,0:0|1:2,0:0:0:0:
141,357,60003,5,10,0:0:0:0:
