osu file format v14

[General]
AudioFilename: audio.mp3
AudioLeadIn: 0
PreviewTime: 15472
Countdown: 0
SampleSet: Soft
StackLeniency: 0.7
Mode: 2
LetterboxInBreaks: 0
WidescreenStoryboard: 0

[Editor]
DistanceSpacing: 0.8
BeatDivisor: 4
GridSize: 8
TimelineZoom: 1

[Metadata]
Title:Lunatic set 15 ~ The Moon as Seen from the Shrine
TitleUnicode:Lunatic set 15 〜 神社から見える月
Artist:Rin
ArtistUnicode:凛
Creator:MBomb
Version:Platter
Source:osu!
Tags:magic bomb featured artist mapper's guild Touhou Toho Arrange Album 東方紺珠伝 ~ Legacy of Lunatic Kingdom. Kanjuuden Ultramarine Orb Tale Jinja kara mieru tsuki Kuroneko Lounge クロネコラウンジ Ending theme Magic Girl video game instrumental jbhyperion
BeatmapID:2026062
BeatmapSetID:968232

[Difficulty]
HPDrainRate:5
CircleSize:3.5
OverallDifficulty:7.7
ApproachRate:7.7
SliderMultiplier:1.8
SliderTickRate:2

[Events]
//Background and Video events
0,0,"shrine.jpg",0,0
//Break Periods
//Storyboard Layer 0 (Background)
//Storyboard Layer 1 (Fail)
//Storyboard Layer 2 (Pass)
//Storyboard Layer 3 (Foreground)
//Storyboard Sound Samples

[TimingPoints]
472,468.75,4,2,0,50,1,0
60003,-100,4,2,0,30,0,0

[Colours]
Combo1 : 95,125,207
Combo2 : 187,94,0

[HitObjects]
224,192,472,6,0,L|128:192,1,90,4|0,0:0|0:0,0:0:0:0:
44,192,940,2,0,L|134:192,1,90
344,192,1409,1,8,0:3:0:0:
134,192,1643,1,0,0:0:0:0:
238,192,1878,1,0,0:0:0:0:
134,192,2112,1,0,0:0:0:0:
344,192,2347,6,0,L|440:192,2,90,8|0|0,0:3|0:0|0:0,0:0:0:0:
134,192,3050,1,0,0:0:0:0:
344,192,3284,2,0,L|440:192,1,90,2|0,0:3|0:0,0:0:0:0:
320,192,3753,2,0,L|416:192,1,90
208,192,4222,6,0,L|112:192,1,90,8|0,0:3|0:0,0:0:0:0:
230,192,4690,2,0,L|326:192,1,90
112,192,5159,1,8,0:3:0:0:
216,192,5393,1,0,0:0:0:0:
16,192,5628,1,2,0:0:0:0:
120,192,5862,1,0,0:0:0:0:
328,192,6097,6,0,L|424:192,1,90,8|0,0:3|0:0,0:0:0:0:
208,192,6565,1,2,0:0:0:0:
88,192,6800,1,0,0:0:0:0:
384,192,7034,1,2,0:3:0:0:
496,192,7268,1,0,0:0:0:0:
384,192,7503,2,0,L|480:192,1,90,2|0,0:0|0:0,0:0:0:0:
176,192,7972,6,0,L|72:192,2,90,4|0|0,0:0|0:0|0:0,0:0:0:0:
56,192,8675,1,0,0:0:0:0:
266,192,8909,1,8,0:3:0:0:
160,192,9143,1,0,0:0:0:0:
104,192,9378,1,0,0:0:0:0:
312,192,9612,1,0,0:0:0:0:
496,192,9847,6,0,L|392:192,1,90,8|0,0:3|0:0,0:0:0:0:
304,192,10315,1,0,0:0:0:0:
96,192,10550,1,0,0:0:0:0:
304,192,10784,2,0,L|200:192,1,90,2|0,0:3|0:0,0:0:0:0:
16,192,11253,2,0,L|120:192,1,90
408,192,11722,6,0,L|504:192,2,90,8|0|0,0:3|0:0|0:0,0:0:0:0:
200,192,12425,1,0,0:0:0:0:
16,192,12659,2,0,L|112:192,1,90,8|0,0:3|0:0,0:0:0:0:
208,192,13128,1,2,0:0:0:0:
104,192,13362,1,0,0:0:0:0:
320,192,13597,5,8,0:3:0:0:
496,192,13831,2,0,P|449:164|408:160,1,90,0|2,0:0|0:0,0:0:0:0:
320,192,14300,1,0,0:0:0:0:
16,192,14534,1,2,0:3:0:0:
112,192,14768,1,0,0:0:0:0:
16,192,15003,1,0,0:0:0:0:
144,192,15237,1,0,0:0:0:0:
448,192,15472,6,0,P|488:184|496:136,1,90,4|0,0:0|0:0,0:0:0:0:
392,192,15940,2,0,L|296:192,1,90
496,192,16409,2,0,P|488:144|376:104,1,180,2|0,0:0|0:0,0:0:0:0:
280,192,17112,1,0,0:0:0:0:
72,192,17347,6,0,L|168:192,1,90,8|0,0:3|0:0,0:0:0:0:
264,192,17815,2,0,L|168:192,1,90
384,192,18284,2,0,L|192:192,1,180,2|0,0:0|0:0,0:0:0:0:
120,192,18987,1,0,0:0:0:0:
328,192,19222,6,0,L|424:192,2,90,8|0|0,0:3|0:0|0:0,0:0:0:0:
120,192,19925,1,0,0:0:0:0:
328,192,20159,2,0,L|232:192,1,90,2|0,0:0|0:0,0:0:0:0:
120,192,20628,2,0,L|16:192,1,90
238,192,21097,5,8,0:3:0:0:
408,192,21331,2,0,L|504:192,1,90
376,192,21800,1,0,0:0:0:0:
72,192,22034,1,2,0:3:0:0:
72,192,22268,1,2,0:0:0:0:
176,192,22503,1,2,0:0:0:0:
384,192,22737,1,0,0:0:0:0:
176,192,22972,6,0,L|80:192,2,90,8|0|0,0:3|0:0|0:0,0:0:0:0:
288,192,23675,1,0,0:0:0:0:
80,192,23909,2,0,P|24:160|88:96,1,180,2|0,0:0|0:0,0:0:0:0:
184,192,24612,1,0,0:0:0:0:
392,192,24847,6,0,L|288:192,2,90,8|0|0,0:3|0:0|0:0,0:0:0:0:
488,192,25550,1,0,0:0:0:0:
280,192,25784,2,0,L|480:192,1,180,2|0,0:0|0:0,0:0:0:0:
352,192,26487,1,0,0:0:0:0:
144,192,26722,6,0,L|48:192,2,90,8|0|0,0:3|0:0|0:0,0:0:0:0:
352,192,27425,1,0,0:0:0:0:
144,192,27659,2,0,L|240:192,1,90,2|0,0:0|0:0,0:0:0:0:
120,192,28128,2,0,L|216:192,1,90
416,192,28597,5,8,0:3:0:0:
210,192,28831,2,0,L|120:192,1,90
64,192,29300,1,0,0:0:0:0:
368,192,29534,1,2,0:3:0:0:
496,192,29768,1,0,0:0:0:0:
384,192,30003,1,0,0:0:0:0:
480,192,30237,1,0,0:0:0:0:
160,192,30472,6,0,L|40:192,2,90,4|0|0,0:0|0:0|0:0,0:0:0:0:
256,192,31175,1,0,0:0:0:0:
472,192,31409,2,0,P|456:112|368:88,1,180,2|0,0:0|0:0,0:0:0:0:
280,192,32112,1,0,0:0:0:0:
496,192,32347,6,0,L|392:192,2,90,8|0|0,0:3|0:0|0:0,0:0:0:0:
384,192,33050,1,0,0:0:0:0:
168,192,33284,2,0,P|88:176|40:96,1,180,2|0,0:0|0:0,0:0:0:0:
144,192,33987,1,0,0:0:0:0:
352,192,34222,5,8,0:3:0:0:
256,192,34456,1,0,0:0:0:0:
160,192,34690,1,0,0:0:0:0:
368,192,34925,1,0,0:0:0:0:
160,192,35159,2,0,L|56:192,1,90,2|0,0:0|0:0,0:0:0:0:
184,192,35628,2,0,L|88:192,1,90
304,192,36097,5,8,0:3:0:0:
488,192,36331,2,0,L|392:192,2,90
184,192,37034,1,2,0:3:0:0:
88,192,37268,1,2,0:0:0:0:
88,192,37503,1,2,0:0:0:0:
208,192,37737,1,0,0:0:0:0:
416,192,37972,6,0,P|474:180|488:144,2,90,8|0|0,0:3|0:0|0:0,0:0:0:0:
312,192,38675,1,0,0:0:0:0:
96,192,38909,2,0,P|32:160|104:120,1,180,2|0,0:0|0:0,0:0:0:0:
192,192,39612,1,0,0:0:0:0:
408,192,39847,6,0,L|312:192,2,90,8|0|0,0:3|0:0|0:0,0:0:0:0:
288,192,40550,1,0,0:0:0:0:
496,192,40784,2,0,P|464:136|352:112,1,180,2|0,0:0|0:0,0:0:0:0:
256,192,41487,1,0,0:0:0:0:
472,192,41722,6,0,L|368:192,2,90,8|0|0,0:3|0:0|0:0,0:0:0:0:
264,192,42425,1,0,0:0:0:0:
72,192,42659,2,0,L|72:96,1,90,2|0,0:0|0:0,0:0:0:0:
162,192,43128,2,0,L|66:192,1,90
280,192,43597,5,8,0:3:0:0:
72,192,43831,2,0,L|162:192,1,90
40,192,44300,1,0,0:0:0:0:
344,192,44534,1,2,0:3:0:0:
464,192,44768,2,0,L|368:192,1,90
496,192,45237,1,0,0:0:0:0:
192,192,45472,6,0,L|88:192,1,90,4|0,0:0|0:0,0:0:0:0:
216,192,45940,2,0,L|336:192,1,90
102,192,46409,1,8,0:3:0:0:
216,192,46643,1,0,0:0:0:0:
102,192,46878,1,0,0:0:0:0:
216,192,47112,1,0,0:0:0:0:
424,192,47347,6,0,L|320:192,1,90,8|0,0:3|0:0,0:0:0:0:
216,192,47815,1,0,0:0:0:0:
424,192,48050,1,0,0:0:0:0:
216,192,48284,2,0,L|112:192,1,90,2|0,0:3|0:0,0:0:0:0:
36,192,48753,2,0,L|140:192,1,90
336,192,49222,6,0,L|432:192,2,90,8|0|0,0:3|0:0|0:0,0:0:0:0:
456,192,49925,1,0,0:0:0:0:
248,192,50159,1,8,0:3:0:0:
128,192,50393,1,0,0:0:0:0:
336,192,50628,1,2,0:0:0:0:
456,192,50862,1,0,0:0:0:0:
248,192,51097,6,0,L|248:96,1,90,8|0,0:3|0:0,0:0:0:0:
456,192,51565,2,0,P|496:160|456:136,1,90,2|0,0:0|0:0,0:0:0:0:
176,192,52034,1,2,0:3:0:0:
64,192,52268,1,0,0:0:0:0:
176,192,52503,2,0,L|80:192,1,90,2|0,0:0|0:0,0:0:0:0:
392,192,52972,6,0,L|488:192,2,90,4|0|0,0:0|0:0|0:0,0:0:0:0:
272,192,53675,1,0,0:0:0:0:
480,192,53909,2,0,L|384:192,2,90,8|0|0,0:3|0:0|0:0,0:0:0:0:
272,192,54612,1,0,0:0:0:0:
80,192,54847,6,0,L|176:192,1,90,8|0,0:3|0:0,0:0:0:0:
288,192,55315,1,0,0:0:0:0:
80,192,55550,1,0,0:0:0:0:
288,192,55784,2,0,L|384:192,1,90,2|0,0:3|0:0,0:0:0:0:
468,192,56253,2,0,L|364:192,1,90
168,192,56722,6,0,L|72:192,1,90,8|0,0:3|0:0,0:0:0:0:
192,192,57190,1,0,0:0:0:0:
304,192,57425,1,0,0:0:0:0:
96,192,57659,2,0,P|40:184|24:152,1,90,8|0,0:3|0:0,0:0:0:0:
232,192,58128,1,2,0:0:0:0:
120,192,58362,1,0,0:0:0:0:
328,192,58597,6,0,L|432:192,1,90,8|0,0:3|0:0,0:0:0:0:
208,192,59065,1,2,0:0:0:0:
344,192,59300,1,0,0:0:0:0:
40,192,59534,2,0,L|40:8,1,180,4|0,0:0|0:0,0:0:0:0:
