osu file format v14

[General]
AudioFilename: audio.mp3
AudioLeadIn: 0
PreviewTime: 150613
Countdown: 1
SampleSet: Normal
StackLeniency: 0.7
Mode: 1
LetterboxInBreaks: 0
WidescreenStoryboard: 1

[Editor]
DistanceSpacing: 0.8
BeatDivisor: 6
GridSize: 16
TimelineZoom: 1.799999

[Metadata]
Title:Lunatic set 10 ~ Seijouki no Pierrot
TitleUnicode:Lunatic set 10 〜 星条旗のピエロ
Artist:Rin
ArtistUnicode:凛
Creator:CallMeLyra
Version:Oni
Source:東方紺珠伝 ~ Legacy of Lunatic Kingdom.
Tags:th15 mpg mg mappers' guild Featured Artist FA クロネコラウンジ kuroneko lounge function phantom house trap Clownpiece クラウンピース Pierrot of the Star-Spangled Banner stage 5 boss 東方Project Touhou Instrumental Video Game Electronic Team Shanghai Alice ZUN LoLK Kanjuden Ultramarine Orb Tale 上海アリス幻楽団 SV Tech technical slider velocity
BeatmapID:3619065
BeatmapSetID:1643222

[Difficulty]
HPDrainRate:5.5
CircleSize:5
OverallDifficulty:5
ApproachRate:5
SliderMultiplier:1.4
SliderTickRate:1

[Events]
//Background and Video events
0,0,"Clownpiece.jpg",0,0
//Break Periods
//Storyboard Layer 0 (Background)
//Storyboard Layer 1 (Fail)
//Storyboard Layer 2 (Pass)
//Storyboard Layer 3 (Foreground)
//Storyboard Layer 4 (Overlay)
//Storyboard Sound Samples

[TimingPoints]
460,468.75,4,1,0,70,1,0
460,-125,4,1,0,70,0,0
6377,-131.578947368421,4,1,0,70,0,0
6495,-129.87012987013,4,1,0,70,0,0
6729,-136.054421768707,4,1,0,70,0,0
6846,-135.135135135135,4,1,0,70,0,0
6963,-134.228187919463,4,1,0,70,0,0
7081,-133.333333333333,4,1,0,70,0,0
7198,-132.450331125828,4,1,0,70,0,0
7432,-130.718954248366,4,1,0,70,0,0
7549,-129.87012987013,4,1,0,70,0,0
7667,-128.205128205128,4,1,0,70,0,0
7901,-125,4,1,0,70,0,0
11651,-97.5609756097561,4,1,0,70,0,0
11885,-104.166666666667,4,1,0,70,0,0
12002,-106.382978723404,4,1,0,70,0,0
12120,-108.695652173913,4,1,0,70,0,0
12354,-113.636363636364,4,1,0,70,0,0
12588,-111.111111111111,4,1,0,70,0,0
12823,-100,4,1,0,70,0,0
13057,-90.9090909090909,4,1,0,70,0,0
13526,-83.3333333333333,4,1,0,70,0,0
13702,-86.2068965517241,4,1,0,70,0,0
13858,-89.2857142857143,4,1,0,70,0,0
14014,-92.5925925925926,4,1,0,70,0,0
14170,-96.1538461538461,4,1,0,70,0,0
14327,-100,4,1,0,70,0,0
14483,-104.166666666667,4,1,0,70,0,0
14639,-108.695652173913,4,1,0,70,0,0
14717,-111.111111111111,4,1,0,70,0,0
14795,-113.636363636364,4,1,0,70,0,0
14952,-119.047619047619,4,1,0,70,0,0
15460,-100,4,1,0,70,0,0
21377,-104.166666666667,4,1,0,70,0,0
21495,-102.040816326531,4,1,0,70,0,0
21729,-111.111111111111,4,1,0,70,0,0
21846,-109.89010989011,4,1,0,70,0,0
21963,-108.695652173913,4,1,0,70,0,0
22081,-107.52688172043,4,1,0,70,0,0
22198,-106.382978723404,4,1,0,70,0,0
22315,-105.263157894737,4,1,0,70,0,0
22432,-104.166666666667,4,1,0,70,0,0
22549,-103.092783505155,4,1,0,70,0,0
22667,-102.040816326531,4,1,0,70,0,0
22901,-100,4,1,0,70,0,0
26670,-90.9090909090909,4,1,0,70,0,0
26887,-83.3333333333333,4,1,0,70,0,0
27105,-76.9230769230769,4,1,0,70,0,0
27540,-95.2380952380952,4,1,0,70,0,0
27757,-86.9565217391304,4,1,0,70,0,0
28029,-80,4,1,0,70,0,0
28545,-83.3333333333333,4,1,0,70,0,0
28721,-86.2068965517241,4,1,0,70,0,0
28877,-89.2857142857143,4,1,0,70,0,0
29033,-92.5925925925926,4,1,0,70,0,0
29189,-96.1538461538461,4,1,0,70,0,0
29346,-100,4,1,0,70,0,0
29502,-104.166666666667,4,1,0,70,0,0
29658,-108.695652173913,4,1,0,70,0,0
29736,-111.111111111111,4,1,0,70,0,0
29814,-113.636363636364,4,1,0,70,0,0
29971,-119.047619047619,4,1,0,70,0,0
30108,-125,4,1,0,70,0,0
30264,-131.578947368421,4,1,0,70,0,0
30420,-138.888888888889,4,1,0,70,0,0
30811,-166.666666666667,4,1,0,80,0,0
31338,-166.666666666667,4,1,0,80,0,0
31456,-169.491525423729,4,1,0,80,0,0
31573,-172.413793103448,4,1,0,80,0,0
31807,-178.571428571429,4,1,0,80,0,0
31924,-181.818181818182,4,1,0,80,0,0
32159,-188.679245283019,4,1,0,80,0,0
32276,-192.307692307692,4,1,0,80,0,0
32510,-200,4,1,0,80,0,0
32627,-204.081632653061,4,1,0,80,0,0
32745,-208.333333333333,4,1,0,80,0,0
33213,-166.666666666667,4,1,0,80,0,0
33331,-169.491525423729,4,1,0,80,0,0
33448,-172.413793103448,4,1,0,80,0,0
33682,-178.571428571429,4,1,0,80,0,0
33799,-181.818181818182,4,1,0,80,0,0
34034,-188.679245283019,4,1,0,80,0,0
34151,-192.307692307692,4,1,0,80,0,0
34385,-200,4,1,0,80,0,0
34502,-204.081632653061,4,1,0,80,0,0
34620,-208.333333333333,4,1,0,80,0,0
35088,-200,4,1,0,80,0,0
35323,-192.307692307692,4,1,0,80,0,0
35440,-188.679245283019,4,1,0,80,0,0
35557,-185.185185185185,4,1,0,80,0,0
35792,-178.571428571429,4,1,0,80,0,0
35909,-175.438596491228,4,1,0,80,0,0
36026,-172.413793103448,4,1,0,80,0,0
36260,-166.666666666667,4,1,0,80,0,0
36495,-161.290322580645,4,1,0,80,0,0
36612,-158.730158730159,4,1,0,80,0,0
36729,-156.25,4,1,0,80,0,0
36963,-100,4,1,0,80,0,0
37432,-117.647058823529,4,1,0,80,0,0
37901,-153.846153846154,4,1,0,80,0,0
38194,-153.846153846154,4,1,0,80,0,0
38311,-152.51295597561,4,1,0,80,0,0
38428,-151.202666005407,4,1,0,80,0,0
38663,-148.648708911639,4,1,0,80,0,0
38897,-146.179382567524,4,1,0,80,0,0
39014,-144.975230981787,4,1,0,80,0,0
39131,-143.790755692317,4,1,0,80,0,0
39249,-142.625681750759,4,1,0,80,0,0
39366,-141.479136071804,4,1,0,80,0,0
39483,-140.350877192982,4,1,0,80,0,0
39600,-139.240471078362,4,1,0,80,0,0
39835,-137.071736493294,4,1,0,80,0,0
40069,-134.96934171403,4,1,0,80,0,0
40186,-133.942145029876,4,1,0,80,0,0
40303,-132.930465402852,4,1,0,80,0,0
40538,-130.952443310687,4,1,0,80,0,0
40772,-129.032258064516,4,1,0,80,0,0
40889,-128.093128828383,4,1,0,80,0,0
41006,-127.16757125199,4,1,0,80,0,0
41241,-125.356168212935,4,1,0,80,0,0
41358,-124.469603900379,4,1,0,80,0,0
41475,-123.595491730844,4,1,0,80,0,0
41592,-122.733571190994,4,1,0,80,0,0
41710,-121.883588984161,4,1,0,80,0,0
41944,-120.218605512264,4,1,0,80,0,0
42178,-118.598357175556,4,1,0,80,0,0
42295,-117.804501074377,4,1,0,80,0,0
42413,-117.021338841138,4,1,0,80,0,0
42647,-115.485576428932,4,1,0,80,0,0
42764,-114.73271293531,4,1,0,80,0,0
42881,-113.989601868518,4,1,0,80,0,0
43116,-112.532015358369,4,1,0,80,0,0
43233,-111.817049416427,4,1,0,80,0,0
43350,-111.111111111111,4,1,0,80,0,0
43555,-104.166666666667,4,1,0,80,0,0
43614,-105.263157894737,4,1,0,80,0,0
43672,-106.382978723404,4,1,0,80,0,0
43760,-108.695652173913,4,1,0,80,0,0
43877,-111.111111111111,4,1,0,80,0,0
43995,-113.636363636364,4,1,0,80,0,0
44112,-116.279069767442,4,1,0,80,0,0
44229,-119.047619047619,4,1,0,80,0,0
44346,-121.951219512195,4,1,0,80,0,0
44463,-125,4,1,0,80,0,0
44581,-128.205128205128,4,1,0,80,0,0
44698,-131.578947368421,4,1,0,80,0,0
44932,-138.888888888889,4,1,0,80,0,0
45049,-142.857142857143,4,1,0,80,0,0
45167,-147.058823529412,4,1,0,80,0,0
45401,-153.846153846154,4,1,0,80,0,0
45870,-155.038759689922,4,1,0,80,0,0
45987,-156.25,4,1,0,80,0,0
46104,-156.25,4,1,0,80,0,0
46338,-158.730158730159,4,1,0,80,0,0
46573,-161.290322580645,4,1,0,80,0,0
46690,-162.60162601626,4,1,0,80,0,0
46807,-163.934426229508,4,1,0,80,0,0
46924,-165.289256198347,4,1,0,80,0,0
47159,-168.067226890756,4,1,0,80,0,0
47276,-169.491525423729,4,1,0,80,0,0
47393,-170.940170940171,4,1,0,80,0,0
47510,-172.413793103448,4,1,0,80,0,0
47745,-175.438596491228,4,1,0,80,0,0
47862,-176.991150442478,4,1,0,80,0,0
47979,-178.571428571429,4,1,0,80,0,0
48213,-181.818181818182,4,1,0,80,0,0
48331,-183.48623853211,4,1,0,80,0,0
48565,-186.915887850467,4,1,0,80,0,0
48682,-188.679245283019,4,1,0,80,0,0
48799,-190.47619047619,4,1,0,80,0,0
49034,-194.174757281553,4,1,0,80,0,0
49151,-196.078431372549,4,1,0,80,0,0
49385,-200,4,1,0,80,0,0
49502,-202.020202020202,4,1,0,80,0,0
49620,-204.081632653061,4,1,0,80,0,0
49854,-208.333333333333,4,1,0,80,0,0
50088,-212.765957446809,4,1,0,80,0,0
50206,-215.05376344086,4,1,0,80,0,0
50323,-217.391304347826,4,1,0,80,0,0
50557,-222.222222222222,4,1,0,80,0,0
50674,-224.719101123595,4,1,0,80,0,0
50909,-229.885057471264,4,1,0,80,0,0
51026,-232.558139534884,4,1,0,80,0,0
51963,-90.9090909090909,4,1,0,80,0,0
52198,-97.5609756097561,4,1,0,80,0,0
52432,-105.263157894737,4,1,0,80,0,0
52901,-153.846153846154,4,1,0,80,0,0
53194,-153.846153846154,4,1,0,80,0,0
53311,-151.986078075248,4,1,0,80,0,0
53428,-150.170668965279,4,1,0,80,0,0
53663,-146.666705777788,4,1,0,80,0,0
53897,-143.322531591869,4,1,0,80,0,0
54014,-141.706887804989,4,1,0,80,0,0
54131,-140.127459937559,4,1,0,80,0,0
54249,-138.582659706122,4,1,0,80,0,0
54366,-137.071736493294,4,1,0,80,0,0
54483,-135.593220338983,4,1,0,80,0,0
54600,-134.146259666915,4,1,0,80,0,0
54835,-131.343220850999,4,1,0,80,0,0
54893,-130.660712022484,4,1,0,80,0,0
54952,-129.985259671553,4,1,0,80,0,0
55069,-128.654925618155,4,1,0,80,0,0
55186,-127.351708486845,4,1,0,80,0,0
55303,-126.074469667743,4,1,0,80,0,0
55538,-123.595491730844,4,1,0,80,0,0
55772,-121.212121212121,4,1,0,80,0,0
55889,-120.054504745154,4,1,0,80,0,0
56006,-118.91893177502,4,1,0,80,0,0
56124,-117.804501074377,4,1,0,80,0,0
56183,-117.255150725634,4,1,0,80,0,0
56241,-116.710900097804,4,1,0,80,0,0
56358,-115.637282847637,4,1,0,80,0,0
56475,-114.583369140636,4,1,0,80,0,0
56710,-112.532015358369,4,1,0,80,0,0
56944,-110.552819373276,4,1,0,80,0,0
57061,-109.58904109589,4,1,0,80,0,0
57178,-108.64192165831,4,1,0,80,0,0
57413,-106.79607503065,4,1,0,80,0,0
57647,-105.011903099216,4,1,0,80,0,0
57764,-104.142041413124,4,1,0,80,0,0
57881,-103.286365580025,4,1,0,80,0,0
58115,-101.616618788303,4,1,0,80,0,0
58233,-100.801878947024,4,1,0,80,0,0
58350,-100,4,1,0,80,0,0
58555,-90.9090909090909,4,1,0,80,0,0
58614,-91.743119266055,4,1,0,80,0,0
58672,-92.5925925925926,4,1,0,80,0,0
58760,-94.3396226415094,4,1,0,80,0,0
58877,-96.1538461538461,4,1,0,80,0,0
58995,-98.0392156862745,4,1,0,80,0,0
59229,-102.040816326531,4,1,0,80,0,0
59346,-104.166666666667,4,1,0,80,0,0
59463,-106.382978723404,4,1,0,80,0,0
59581,-108.695652173913,4,1,0,80,0,0
59698,-111.111111111111,4,1,0,80,0,0
59952,-66.6666666666667,4,1,0,80,0,0
60460,-83.3333333333333,4,1,0,80,0,1
66377,-90.9090909090909,4,1,0,80,0,1
66495,-89.2857142857143,4,1,0,80,0,1
66729,-100,4,1,0,80,0,1
66846,-98.0392156862745,4,1,0,80,0,1
66963,-96.1538461538461,4,1,0,80,0,1
67081,-94.3396226415094,4,1,0,80,0,1
67198,-92.5925925925926,4,1,0,80,0,1
67315,-90.9090909090909,4,1,0,80,0,1
67432,-89.2857142857143,4,1,0,80,0,1
67549,-87.719298245614,4,1,0,80,0,1
67667,-86.2068965517241,4,1,0,80,0,1
67901,-83.3333333333333,4,1,0,80,0,1
71651,-80,4,1,0,80,0,1
71885,-74.0740740740741,4,1,0,80,0,1
72120,-68.9655172413793,4,1,0,80,0,1
72588,-90.9090909090909,4,1,0,80,0,1
72823,-83.3333333333333,4,1,0,80,0,1
73057,-76.9230769230769,4,1,0,80,0,1
73585,-95.2380952380952,4,1,0,80,0,0
74014,-125,4,1,0,65,0,0
74092,-121.951219512195,4,1,0,65,0,0
74170,-118.764845605701,4,1,0,65,0,0
74249,-115.473441108545,4,1,0,65,0,0
74327,-112.107623318386,4,1,0,65,0,0
74405,-108.695652173913,4,1,0,65,0,0
74483,-105.263157894737,4,1,0,80,0,0
74717,-96.1538461538461,4,1,0,80,0,0
74952,-89.2857142857143,4,1,0,80,0,0
75460,-83.3333333333333,4,1,0,80,0,1
81377,-90.9090909090909,4,1,0,80,0,1
81495,-89.2857142857143,4,1,0,80,0,1
81729,-100,4,1,0,80,0,1
81846,-98.0392156862745,4,1,0,80,0,1
81963,-96.1538461538461,4,1,0,80,0,1
82081,-94.3396226415094,4,1,0,80,0,1
82198,-92.5925925925926,4,1,0,80,0,1
82315,-90.9090909090909,4,1,0,80,0,1
82432,-89.2857142857143,4,1,0,80,0,1
82549,-87.719298245614,4,1,0,80,0,1
82667,-86.2068965517241,4,1,0,80,0,1
82901,-83.3333333333333,4,1,0,80,0,1
86651,-80,4,1,0,80,0,1
86885,-74.0740740740741,4,1,0,80,0,1
87120,-68.9655172413793,4,1,0,80,0,1
87588,-90.9090909090909,4,1,0,80,0,1
87823,-83.3333333333333,4,1,0,80,0,1
88057,-76.9230769230769,4,1,0,80,0,1
88585,-95.2380952380952,4,1,0,80,0,0
89014,-125,4,1,0,65,0,0
89092,-121.951219512195,4,1,0,65,0,0
89170,-118.764845605701,4,1,0,65,0,0
89249,-115.473441108545,4,1,0,65,0,0
89327,-112.107623318386,4,1,0,65,0,0
89405,-108.695652173913,4,1,0,65,0,0
89483,-105.263157894737,4,1,0,65,0,0
89698,-113.636363636364,4,1,0,80,0,0
89815,-111.111111111111,4,1,0,80,0,0
89932,-108.695652173913,4,1,0,80,0,0
90049,-106.382978723404,4,1,0,80,0,0
90167,-104.166666666667,4,1,0,80,0,0
90284,-102.040816326531,4,1,0,80,0,0
90372,-101.010101010101,4,1,0,80,0,0
90430,-100,4,1,0,80,0,0
96963,-88.4955752212389,4,1,0,80,0,0
97198,-94.3396226415094,4,1,0,80,0,0
97432,-101.010101010101,4,1,0,80,0,0
97667,-108.695652173913,4,1,0,80,0,0
97901,-117.647058823529,4,1,0,80,0,0
98194,-117.647058823529,4,1,0,80,0,0
98311,-116.871308327548,4,1,0,80,0,0
98428,-116.105721225519,4,1,0,80,0,0
98663,-114.604248608704,4,1,0,80,0,0
98897,-113.141114123179,4,1,0,80,0,0
99014,-112.423467724347,4,1,0,80,0,0
99131,-111.71486790834,4,1,0,80,0,0
99249,-111.015144686038,4,1,0,80,0,0
99366,-110.324132300699,4,1,0,80,0,0
99483,-109.641789310145,4,1,0,80,0,0
99600,-108.967716134741,4,1,0,80,0,0
99835,-107.64413280272,4,1,0,80,0,0
100069,-106.352317576528,4,1,0,80,0,0
100186,-105.717967720076,4,1,0,80,0,0
100303,-105.091140291418,4,1,0,80,0,0
100538,-103.85952376254,4,1,0,80,0,0
100772,-102.656440716419,4,1,0,80,0,0
100889,-102.065291166759,4,1,0,80,0,0
101006,-101.480910933249,4,1,0,80,0,0
101124,-100.903184403597,4,1,0,80,0,0
101182,-100.616780866713,4,1,0,80,0,0
101241,-100.331998583312,4,1,0,80,0,0
101358,-99.7672430220296,4,1,0,80,0,0
101475,-99.2088097423051,4,1,0,80,0,0
101553,-98.8142292490118,4,1,0,80,0,0
101710,-98.110490071709,4,1,0,80,0,0
101944,-97.03631681193,4,1,0,80,0,0
102178,-95.9853180857456,4,1,0,80,0,0
102295,-95.4683102490959,4,1,0,80,0,0
102413,-94.9568421152586,4,1,0,80,0,0
102647,-93.950172586467,4,1,0,80,0,0
102764,-93.4547996516005,4,1,0,80,0,0
102881,-92.9646232422714,4,1,0,80,0,0
103116,-91.9995363223369,4,1,0,80,0,0
103233,-91.5244681513156,4,1,0,80,0,0
103350,-91.0542810991344,4,1,0,80,0,0
103585,-83.3333333333333,4,1,0,80,0,0
103760,-86.2068965517241,4,1,0,80,0,0
103877,-87.719298245614,4,1,0,80,0,0
103995,-89.2857142857143,4,1,0,80,0,0
104229,-92.5925925925926,4,1,0,80,0,0
104346,-94.3396226415094,4,1,0,80,0,0
104463,-96.1538461538461,4,1,0,80,0,0
104581,-98.0392156862745,4,1,0,80,0,0
104698,-100,4,1,0,80,0,0
104932,-104.166666666667,4,1,0,80,0,0
105049,-106.382978723404,4,1,0,80,0,0
105167,-108.695652173913,4,1,0,80,0,0
105401,-100,4,1,0,80,0,0
111495,-71.4285714285714,4,1,0,80,0,0
111963,-80,4,1,0,70,0,0
112198,-90.9090909090909,4,1,0,60,0,0
112432,-105.263157894737,4,1,0,50,0,0
112667,-117.647058823529,4,1,0,80,0,0
112957,-125,4,1,0,80,0,0
113016,-124.709785920103,4,1,0,80,0,0
113074,-124.420245633904,4,1,0,80,0,0
113133,-124.131377577046,4,1,0,80,0,0
113191,-123.843180188807,4,1,0,80,0,0
113250,-123.555651912087,4,1,0,80,0,0
113309,-123.268791193401,4,1,0,80,0,0
113367,-122.982596482872,4,1,0,80,0,0
113426,-122.697066234219,4,1,0,80,0,0
113484,-122.412198904753,4,1,0,80,0,0
113543,-122.127992955367,4,1,0,80,0,0
113602,-121.844446850525,4,1,0,80,0,0
113660,-121.561559058259,4,1,0,80,0,0
113719,-121.279328050156,4,1,0,80,0,0
113777,-120.997752301351,4,1,0,80,0,0
113836,-120.716830290521,4,1,0,80,0,0
113895,-120.436560499875,4,1,0,80,0,0
113953,-120.156941415143,4,1,0,80,0,0
114012,-119.877971525575,4,1,0,80,0,0
114070,-119.599649323926,4,1,0,80,0,0
114129,-119.321973306449,4,1,0,80,0,0
114187,-119.044941972892,4,1,0,80,0,0
114246,-118.768553826484,4,1,0,80,0,0
114305,-118.492807373929,4,1,0,80,0,0
114363,-118.217701125397,4,1,0,80,0,0
114422,-117.94323359452,4,1,0,80,0,0
114480,-117.669403298378,4,1,0,80,0,0
114539,-117.396208757496,4,1,0,80,0,0
114598,-117.123648495833,4,1,0,80,0,0
114656,-116.851721040774,4,1,0,80,0,0
114715,-116.580424923124,4,1,0,80,0,0
114773,-116.3097586771,4,1,0,80,0,0
114832,-116.03972084032,4,1,0,80,0,0
114891,-115.770309953798,4,1,0,80,0,0
114949,-115.501524561937,4,1,0,80,0,0
115008,-115.233363212518,4,1,0,80,0,0
115066,-114.965824456693,4,1,0,80,0,0
115125,-114.698906848978,4,1,0,80,0,0
115184,-114.432608947248,4,1,0,80,0,0
115242,-114.166929312721,4,1,0,80,0,0
115301,-113.90186650996,4,1,0,80,0,0
115359,-113.637419106858,4,1,0,80,0,0
115418,-113.373585674634,4,1,0,80,0,0
115477,-113.110364787825,4,1,0,80,0,0
115535,-112.847755024275,4,1,0,80,0,0
115594,-112.585754965133,4,1,0,80,0,0
115652,-112.324363194839,4,1,0,80,0,0
115711,-112.063578301123,4,1,0,80,0,0
115770,-111.80339887499,4,1,0,80,0,0
115828,-111.543823510719,4,1,0,80,0,0
115887,-111.284850805852,4,1,0,80,0,0
115945,-111.026479361188,4,1,0,80,0,0
116004,-110.768707780772,4,1,0,80,0,0
116062,-110.511534671892,4,1,0,80,0,0
116121,-110.254958645069,4,1,0,80,0,0
116180,-109.998978314051,4,1,0,80,0,0
116238,-109.743592295803,4,1,0,80,0,0
116297,-109.488799210502,4,1,0,80,0,0
116355,-109.234597681527,4,1,0,80,0,0
116414,-108.980986335454,4,1,0,80,0,0
116473,-108.727963802049,4,1,0,80,0,0
116531,-108.475528714258,4,1,0,80,0,0
116590,-108.223679708201,4,1,0,80,0,0
116648,-107.972415423165,4,1,0,80,0,0
116707,-107.721734501595,4,1,0,80,0,0
116766,-107.471635589088,4,1,0,80,0,0
116824,-107.222117334388,4,1,0,80,0,0
116883,-106.973178389374,4,1,0,80,0,0
116941,-106.724817409055,4,1,0,80,0,0
117000,-106.477033051562,4,1,0,80,0,0
117059,-106.229823978145,4,1,0,80,0,0
117117,-105.983188853157,4,1,0,80,0,0
117176,-105.737126344057,4,1,0,80,0,0
117234,-105.491635121394,4,1,0,80,0,0
117293,-105.246713858805,4,1,0,80,0,0
117352,-105.002361233008,4,1,0,80,0,0
117410,-104.75857592379,4,1,0,80,0,0
117469,-104.515356614005,4,1,0,80,0,0
117527,-104.272701989567,4,1,0,80,0,0
117586,-104.030610739437,4,1,0,80,0,0
117645,-103.789081555622,4,1,0,80,0,0
117703,-103.548113133166,4,1,0,80,0,0
117762,-103.307704170142,4,1,0,80,0,0
117820,-103.067853367646,4,1,0,80,0,0
117879,-102.828559429789,4,1,0,80,0,0
117937,-102.589821063693,4,1,0,80,0,0
117996,-102.351636979479,4,1,0,80,0,0
118055,-102.114005890263,4,1,0,80,0,0
118113,-101.876926512151,4,1,0,80,0,0
118172,-101.640397564228,4,1,0,80,0,0
118230,-101.404417768552,4,1,0,80,0,0
118289,-101.16898585015,4,1,0,80,0,0
118348,-100.93410053701,4,1,0,80,0,0
118406,-100.699760560069,4,1,0,80,0,0
118465,-100,4,1,0,80,0,0
118523,-98.0392156862745,4,1,0,80,0,0
118643,-100,4,1,0,80,0,0
118760,-102.040816326531,4,1,0,80,0,0
118877,-104.166666666667,4,1,0,80,0,0
118995,-106.382978723404,4,1,0,80,0,0
119229,-113.636363636364,4,1,0,80,0,0
119346,-116.279069767442,4,1,0,80,0,0
119463,-119.047619047619,4,1,0,80,0,0
119581,-121.951219512195,4,1,0,80,0,0
119698,-125,4,1,0,80,0,0
119932,-133.333333333333,4,1,0,80,0,0
120460,-153.846153846154,4,1,0,60,0,0
120635,-172.413793103448,4,1,0,60,0,0
120870,-178.571428571429,4,1,0,60,0,0
121105,-185.185185185185,4,1,0,60,0,0
121339,-192.307692307692,4,1,0,60,0,0
121807,-208.333333333333,4,1,0,60,0,0
122276,-227.272727272727,4,1,0,60,0,0
122510,-238.095238095238,4,1,0,60,0,0
122627,-232.558139534884,4,1,0,60,0,0
122745,-227.272727272727,4,1,0,60,0,0
123213,-163.934426229508,4,1,0,60,0,0
123477,-166.666666666667,4,1,0,60,0,0
123536,-167.364016736402,4,1,0,60,0,0
123594,-168.067226890756,4,1,0,60,0,0
123653,-168.776371308017,4,1,0,60,0,0
123711,-169.491525423729,4,1,0,60,0,0
123917,-172.413793103448,4,1,0,60,0,0
124151,-175.438596491228,4,1,0,60,0,0
124385,-178.571428571429,4,1,0,60,0,0
124620,-181.818181818182,4,1,0,60,0,0
124854,-185.185185185185,4,1,0,60,0,0
125088,-188.679245283019,4,1,0,60,0,0
125323,-192.307692307692,4,1,0,60,0,0
125557,-196.078431372549,4,1,0,60,0,0
125791,-200,4,1,0,60,0,0
126026,-204.081632653061,4,1,0,60,0,0
126495,-217.391304347826,4,1,0,60,0,0
126963,-232.558139534884,4,1,0,60,0,0
127198,-222.222222222222,4,1,0,60,0,0
127315,-217.391304347826,4,1,0,60,0,0
127549,-208.333333333333,4,1,0,60,0,0
127667,-204.081632653061,4,1,0,60,0,0
127960,-166.666666666667,4,1,0,60,0,0
128135,-172.413793103448,4,1,0,60,0,0
128370,-178.571428571429,4,1,0,60,0,0
128605,-185.185185185185,4,1,0,60,0,0
128839,-192.307692307692,4,1,0,60,0,0
129307,-208.333333333333,4,1,0,60,0,0
129776,-227.272727272727,4,1,0,60,0,0
130010,-238.095238095238,4,1,0,60,0,0
130127,-232.558139534884,4,1,0,60,0,0
130245,-227.272727272727,4,1,0,60,0,0
130713,-163.934426229508,4,1,0,60,0,0
130977,-166.666666666667,4,1,0,60,0,0
131036,-167.364016736402,4,1,0,60,0,0
131094,-168.067226890756,4,1,0,60,0,0
131153,-168.776371308017,4,1,0,60,0,0
131211,-169.491525423729,4,1,0,60,0,0
131417,-172.413793103448,4,1,0,60,0,0
131651,-163.934426229508,4,1,0,60,0,0
131885,-156.25,4,1,0,60,0,0
132120,-149.253731343284,4,1,0,60,0,0
132588,-181.818181818182,4,1,0,60,0,0
132823,-172.413793103448,4,1,0,60,0,0
133057,-163.934426229508,4,1,0,60,0,0
133526,-181.818181818182,4,1,0,60,0,0
133995,-163.934426229508,4,1,0,60,0,0
134463,-149.253731343284,4,1,0,60,0,0
134698,-142.857142857143,4,1,0,60,0,0
134932,-136.986301369863,4,1,0,60,0,0
135460,-83.3333333333333,4,1,0,80,0,1
141377,-90.9090909090909,4,1,0,80,0,1
141495,-89.2857142857143,4,1,0,80,0,1
141729,-100,4,1,0,80,0,1
141846,-98.0392156862745,4,1,0,80,0,1
141963,-96.1538461538461,4,1,0,80,0,1
142081,-94.3396226415094,4,1,0,80,0,1
142198,-92.5925925925926,4,1,0,80,0,1
142315,-90.9090909090909,4,1,0,80,0,1
142432,-89.2857142857143,4,1,0,80,0,1
142549,-87.719298245614,4,1,0,80,0,1
142667,-86.2068965517241,4,1,0,80,0,1
142901,-83.3333333333333,4,1,0,80,0,1
143135,-84.7457627118644,4,1,0,80,0,1
143252,-85.4700854700855,4,1,0,80,0,1
143370,-86.2068965517241,4,1,0,80,0,1
143604,-87.719298245614,4,1,0,80,0,1
143721,-88.4955752212389,4,1,0,80,0,1
143838,-89.2857142857143,4,1,0,80,0,1
143956,-90.0900900900901,4,1,0,80,0,1
144073,-90.9090909090909,4,1,0,80,0,1
144307,-92.5925925925926,4,1,0,80,0,1
144542,-94.3396226415094,4,1,0,80,0,1
144659,-95.2380952380952,4,1,0,80,0,1
144835,-96.1538461538461,4,1,0,70,0,0
145010,-98.0392156862745,4,1,0,70,0,0
145127,-99.009900990099,4,1,0,70,0,0
145245,-100,4,1,0,70,0,0
145479,-102.040816326531,4,1,0,70,0,0
145596,-103.092783505155,4,1,0,70,0,0
145713,-104.166666666667,4,1,0,70,0,0
145831,-105.263157894737,4,1,0,70,0,0
145948,-106.382978723404,4,1,0,70,0,0
146036,-106.951871657754,4,1,0,70,0,0
146094,-107.52688172043,4,1,0,70,0,0
146153,-108.108108108108,4,1,0,70,0,0
146211,-108.695652173913,4,1,0,70,0,0
146299,-109.89010989011,4,1,0,70,0,0
146417,-111.111111111111,4,1,0,70,0,0
146651,-105.263157894737,4,1,0,70,0,0
146944,508.474576271186,4,1,0,70,1,8
146944,-92.1913893242371,4,1,0,70,0,0
147166,-87.7963125548727,4,1,0,70,0,0
147706,521.739130434783,4,1,0,70,1,8
147706,-99.8003992015968,4,1,0,70,0,0
147966,555.555555555556,4,1,0,70,1,8
147966,-88.8178346211919,4,1,0,70,0,0
148243,571.428571428571,4,1,0,70,1,8
148243,-82.0344544708778,4,1,0,70,0,0
148814,575.539568345323,4,1,0,70,1,0
148814,-90.2608538676776,4,1,0,70,0,0
149389,612.244897959184,4,1,0,70,1,8
149924,-117.647058823529,4,1,0,70,0,8
150230,-122.699386503067,4,1,0,70,0,8
150383,-124.223602484472,4,1,0,70,0,8
150613,769.230769230769,4,1,0,70,1,8
150901,-111.111111111111,4,1,0,70,0,8
151382,434.782608695652,4,1,0,80,1,0
151382,-83.3333333333333,4,1,0,80,0,0
151545,-87.719298245614,4,1,0,80,0,0
151653,-90.0900900900901,4,1,0,80,0,0
151762,-92.5925925925926,4,1,0,80,0,0
151844,-93.8967136150235,4,1,0,80,0,0
151898,-95.2380952380952,4,1,0,80,0,0
151979,-98.0392156862745,4,1,0,80,0,0
152224,-76.9230769230769,4,1,0,80,0,0
152278,-77.8210116731517,4,1,0,80,0,0
152414,-83.3333333333333,4,1,0,80,0,0
152523,-85.4700854700855,4,1,0,80,0,0
152605,-86.5800865800866,4,1,0,80,0,0
152659,-87.719298245614,4,1,0,80,0,0
152740,-90.0900900900901,4,1,0,80,0,0
152849,-92.5925925925926,4,1,0,80,0,0
152958,-95.2380952380952,4,1,0,80,0,0
153067,-98.0392156862745,4,1,0,80,0,0
153284,-86.2068965517241,4,1,0,80,0,0
153393,-88.4955752212389,4,1,0,80,0,0
153501,-90.9090909090909,4,1,0,80,0,0
153583,-92.1658986175115,4,1,0,80,0,0
153637,-93.4579439252336,4,1,0,80,0,0
153746,-96.1538461538461,4,1,0,80,0,0
153936,-80,4,1,0,80,0,0
154017,-80.6451612903226,4,1,0,80,0,0
154181,-90.9090909090909,4,1,0,80,0,0
154290,-89.2857142857143,4,1,0,80,0,0
154344,-88.4955752212389,4,1,0,80,0,0
154398,-87.719298245614,4,1,0,80,0,0
154453,-86.9565217391304,4,1,0,80,0,0
154507,-86.2068965517241,4,1,0,80,0,0
154616,-84.7457627118644,4,1,0,80,0,0
154724,-83.3333333333333,4,1,0,80,0,0
154833,-81.9672131147541,4,1,0,80,0,0
155078,-90.9090909090909,4,1,0,50,0,0
155368,-101.010101010101,4,1,0,50,0,0
155657,-112.359550561798,4,1,0,50,0,0
155947,-125,4,1,0,50,0,0
156237,-138.888888888889,4,1,0,50,0,0
156527,-156.25,4,1,0,50,0,0
156899,-100,4,1,0,80,0,0
156953,-99.009900990099,4,1,0,80,0,0
157007,-98.0392156862745,4,1,0,80,0,0
157062,-97.0873786407767,4,1,0,80,0,0
157116,-96.1538461538461,4,1,0,80,0,0
157170,-95.2380952380952,4,1,0,80,0,0
157225,-94.3396226415094,4,1,0,80,0,0
157279,-93.4579439252336,4,1,0,80,0,0
157333,-92.5925925925926,4,1,0,80,0,0
157388,-91.743119266055,4,1,0,80,0,0
157442,-90.9090909090909,4,1,0,80,0,0
157632,-94.3396226415094,4,1,0,80,0,0
157850,-98.0392156862745,4,1,0,80,0,0
158067,-102.040816326531,4,1,0,80,0,0
158284,-83.3333333333333,4,1,0,80,0,0
158502,-87.719298245614,4,1,0,80,0,0
158610,-90.0900900900901,4,1,0,80,0,0
158719,-92.5925925925926,4,1,0,80,0,0
158801,-93.8967136150235,4,1,0,80,0,0
158855,-95.2380952380952,4,1,0,80,0,0
158936,-98.0392156862745,4,1,0,80,0,0
159182,-76.9230769230769,4,1,0,80,0,0
159235,-77.8210116731517,4,1,0,80,0,0
159372,-83.3333333333333,4,1,0,80,0,0
159481,-85.4700854700855,4,1,0,80,0,0
159563,-86.5800865800866,4,1,0,80,0,0
159617,-87.719298245614,4,1,0,80,0,0
159698,-90.0900900900901,4,1,0,80,0,0
159807,-92.5925925925926,4,1,0,80,0,0
159916,-95.2380952380952,4,1,0,80,0,0
160025,-98.0392156862745,4,1,0,80,0,0
160242,-86.2068965517241,4,1,0,80,0,0
160351,-88.4955752212389,4,1,0,80,0,0
160459,-90.9090909090909,4,1,0,80,0,0
160541,-92.1658986175115,4,1,0,80,0,0
160595,-93.4579439252336,4,1,0,80,0,0
160704,-96.1538461538461,4,1,0,80,0,0
160894,-76.9230769230769,4,1,0,80,0,0
160974,-77.8210116731517,4,1,0,80,0,0
161111,-83.3333333333333,4,1,0,80,0,0
161220,-85.4700854700855,4,1,0,80,0,0
161302,-86.5800865800866,4,1,0,80,0,0
161356,-87.719298245614,4,1,0,80,0,0
161410,-88.8888888888889,4,1,0,80,0,0
161464,-90.0900900900901,4,1,0,80,0,0
161546,-92.5925925925926,4,1,0,80,0,0
161655,-95.2380952380952,4,1,0,80,0,0
161791,-83.3333333333333,4,1,0,80,0,0
161981,-87.719298245614,4,1,0,80,0,0
162089,-90.0900900900901,4,1,0,80,0,0
162198,-92.5925925925926,4,1,0,80,0,0
162280,-93.8967136150235,4,1,0,80,0,0
162334,-95.2380952380952,4,1,0,80,0,0
162415,-98.0392156862745,4,1,0,80,0,0
162660,-76.9230769230769,4,1,0,80,0,0
162713,-77.8210116731517,4,1,0,80,0,0
162850,-83.3333333333333,4,1,0,80,0,0
162959,-85.4700854700855,4,1,0,80,0,0
163041,-86.5800865800866,4,1,0,80,0,0
163095,-87.719298245614,4,1,0,80,0,0
163176,-90.0900900900901,4,1,0,80,0,0
163285,-92.5925925925926,4,1,0,80,0,0
163394,-95.2380952380952,4,1,0,80,0,0
163503,-98.0392156862745,4,1,0,80,0,0
163720,-86.2068965517241,4,1,0,80,0,0
163829,-88.4955752212389,4,1,0,80,0,0
163937,-90.9090909090909,4,1,0,80,0,0
164019,-92.1658986175115,4,1,0,80,0,0
164073,-93.4579439252336,4,1,0,80,0,0
164182,-96.1538461538461,4,1,0,80,0,0
164372,-80,4,1,0,80,0,0
164452,-80.6451612903226,4,1,0,80,0,0
164617,-90.9090909090909,4,1,0,80,0,0
164726,-89.2857142857143,4,1,0,80,0,0
164780,-88.4955752212389,4,1,0,80,0,0
164834,-87.719298245614,4,1,0,80,0,0
164889,-86.9565217391304,4,1,0,80,0,0
164943,-86.2068965517241,4,1,0,80,0,0
165052,-84.7457627118644,4,1,0,80,0,0
165269,-81.9672131147541,4,1,0,80,0,0
165460,-87.719298245614,4,1,0,80,0,0
165568,-90.0900900900901,4,1,0,80,0,0
165677,-92.5925925925926,4,1,0,80,0,0
165759,-93.8967136150235,4,1,0,80,0,0
165813,-95.2380952380952,4,1,0,80,0,0
165894,-98.0392156862745,4,1,0,80,0,0
166139,-76.9230769230769,4,1,0,80,0,0
166191,-77.8210116731517,4,1,0,80,0,0
166329,-83.3333333333333,4,1,0,80,0,0
166438,-85.4700854700855,4,1,0,80,0,0
166520,-86.5800865800866,4,1,0,80,0,0
166574,-87.719298245614,4,1,0,80,0,0
166655,-90.0900900900901,4,1,0,80,0,0
166764,-92.5925925925926,4,1,0,80,0,0
166873,-95.2380952380952,4,1,0,80,0,0
166982,-98.0392156862745,4,1,0,80,0,0
167199,-86.2068965517241,4,1,0,80,0,0
167308,-88.4955752212389,4,1,0,80,0,0
167416,-90.9090909090909,4,1,0,80,0,0
167498,-92.1658986175115,4,1,0,80,0,0
167552,-93.4579439252336,4,1,0,80,0,0
167661,-96.1538461538461,4,1,0,80,0,0
167851,-80,4,1,0,80,0,0
167930,-80.6451612903226,4,1,0,80,0,0
168096,-90.9090909090909,4,1,0,80,0,0
168205,-89.2857142857143,4,1,0,80,0,0
168259,-88.4955752212389,4,1,0,80,0,0
168313,-87.719298245614,4,1,0,80,0,0
168368,-86.9565217391304,4,1,0,80,0,0
168422,-86.2068965517241,4,1,0,80,0,0
168531,-84.7457627118644,4,1,0,80,0,0
168639,-83.3333333333333,4,1,0,80,0,0
168748,-81.9672131147541,4,1,0,80,0,0
168993,-89.2857142857143,4,1,0,60,0,0
169138,-94.3396226415094,4,1,0,60,0,0
169283,-100,4,1,0,60,0,0
169428,-105.263157894737,4,1,0,60,0,0
169573,-111.111111111111,4,1,0,60,0,0
169717,-117.647058823529,4,1,0,60,0,0
169862,-125,4,1,0,60,0,0
170007,-131.578947368421,4,1,0,60,0,0
170152,-138.888888888889,4,1,0,60,0,0
170297,-147.058823529412,4,1,0,60,0,0
170442,-156.25,4,1,0,60,0,0
170922,-83.3333333333333,4,1,0,80,0,0
170976,-84.0336134453781,4,1,0,80,0,0
171030,-84.7457627118644,4,1,0,80,0,0
171085,-85.4700854700855,4,1,0,80,0,0
171139,-86.2068965517241,4,1,0,80,0,0
171193,-86.9565217391304,4,1,0,80,0,0
171248,-87.719298245614,4,1,0,80,0,0
171302,-88.4955752212389,4,1,0,80,0,0
171356,-89.2857142857143,4,1,0,80,0,0
171566,-100,4,1,0,80,0,0
171638,-97.5609756097561,4,1,0,80,0,0
171711,-94.3396226415094,4,1,0,80,0,0
171783,-91.743119266055,4,1,0,80,0,0
171928,-87.719298245614,4,1,0,80,0,0
172073,-84.7457627118644,4,1,0,80,0,0
172218,-81.9672131147541,4,1,0,80,0,0
172417,-87.719298245614,4,1,0,80,0,0
172525,-90.0900900900901,4,1,0,80,0,0
172634,-92.5925925925926,4,1,0,80,0,0
172716,-93.8967136150235,4,1,0,80,0,0
172770,-95.2380952380952,4,1,0,80,0,0
172851,-98.0392156862745,4,1,0,80,0,0
173096,-76.9230769230769,4,1,0,80,0,0
173148,-77.8210116731517,4,1,0,80,0,0
173286,-83.3333333333333,4,1,0,80,0,0
173395,-85.4700854700855,4,1,0,80,0,0
173477,-86.5800865800866,4,1,0,80,0,0
173531,-87.719298245614,4,1,0,80,0,0
173612,-90.0900900900901,4,1,0,80,0,0
173721,-92.5925925925926,4,1,0,80,0,0
173830,-95.2380952380952,4,1,0,80,0,0
173939,-98.0392156862745,4,1,0,80,0,0
174156,-86.2068965517241,4,1,0,80,0,0
174265,-88.4955752212389,4,1,0,80,0,0
174373,-90.9090909090909,4,1,0,80,0,0
174455,-92.1658986175115,4,1,0,80,0,0
174509,-93.4579439252336,4,1,0,80,0,0
174618,-96.1538461538461,4,1,0,80,0,0
174808,-80,4,1,0,80,0,0
174887,-80.6451612903226,4,1,0,80,0,0
175053,-90.9090909090909,4,1,0,80,0,0
175162,-89.2857142857143,4,1,0,80,0,0
175216,-88.4955752212389,4,1,0,80,0,0
175270,-87.719298245614,4,1,0,80,0,0
175325,-86.9565217391304,4,1,0,80,0,0
175379,-86.2068965517241,4,1,0,80,0,0
175488,-84.7457627118644,4,1,0,80,0,0
175596,-83.3333333333333,4,1,0,80,0,0
175705,-81.9672131147541,4,1,0,80,0,0
175896,-87.719298245614,4,1,0,80,0,0
176004,-90.0900900900901,4,1,0,80,0,0
176113,-92.5925925925926,4,1,0,80,0,0
176195,-93.8967136150235,4,1,0,80,0,0
176249,-95.2380952380952,4,1,0,80,0,0
176330,-98.0392156862745,4,1,0,80,0,0
176575,-76.9230769230769,4,1,0,80,0,0
176626,-77.8210116731517,4,1,0,80,0,0
176765,-83.3333333333333,4,1,0,80,0,0
176874,-85.4700854700855,4,1,0,80,0,0
176956,-86.5800865800866,4,1,0,80,0,0
177010,-87.719298245614,4,1,0,80,0,0
177091,-90.0900900900901,4,1,0,80,0,0
177200,-92.5925925925926,4,1,0,80,0,0
177309,-95.2380952380952,4,1,0,80,0,0
177418,-73.5294117647059,4,1,0,80,0,0
177545,-75.187969924812,4,1,0,80,0,0
177690,-76.9230769230769,4,1,0,80,0,0
177835,-78.7401574803149,4,1,0,80,0,0
177980,-80.6451612903226,4,1,0,80,0,0
178125,-82.6446280991736,4,1,0,80,0,0
178269,-84.7457627118644,4,1,0,80,0,0
178414,-86.9565217391304,4,1,0,80,0,0
178559,-89.2857142857143,4,1,0,80,0,0
178704,-91.743119266055,4,1,0,80,0,0
178849,-94.3396226415094,4,1,0,80,0,0
178958,-95.6937799043062,4,1,0,80,0,0
179030,-97.0873786407767,4,1,0,80,0,0
179208,-83.3333333333333,4,1,0,80,0,1
182686,-62.5,4,1,0,80,0,0
182722,-64.9350649350649,4,1,0,80,0,0
182795,-67.5675675675676,4,1,0,80,0,0
182867,-70.4225352112676,4,1,0,80,0,0
183066,-76.9230769230769,4,1,0,80,0,0
183284,-83.3333333333333,4,1,0,80,0,0
183501,-90.9090909090909,4,1,0,80,0,0
183718,-100,4,1,0,80,0,0
183936,-71.4285714285714,4,1,0,80,0,0
184389,-121.951219512195,4,1,0,80,0,0
184606,-116.279069767442,4,1,0,80,0,0
184715,-113.636363636364,4,1,0,80,0,0
184824,-111.111111111111,4,1,0,80,0,0
185023,-106.382978723404,4,1,0,80,0,0
185132,-104.166666666667,4,1,0,80,0,0
185240,-102.040816326531,4,1,0,80,0,0
185349,-100,4,1,0,80,0,0
185458,-98.0392156862745,4,1,0,80,0,0
185566,-96.1538461538461,4,1,0,80,0,0
185675,-94.3396226415094,4,1,0,80,0,0
185784,-92.5925925925926,4,1,0,80,0,0
185892,-90.9090909090909,4,1,0,80,0,0
186164,-83.3333333333333,4,1,0,80,0,1
189588,-76.9230769230769,4,1,0,80,0,1
189805,-68.9655172413793,4,1,0,80,0,1
190023,-62.5,4,1,0,80,0,1
190458,-90.9090909090909,4,1,0,80,0,1
190675,-83.3333333333333,4,1,0,80,0,1
190947,-76.9230769230769,4,1,0,80,0,1
191381,-100,4,1,0,80,0,1
191382,-100,4,1,0,80,0,0
191671,-115.606936416185,4,1,0,80,0,0
191762,-113.636363636364,4,1,0,80,0,0
191979,-108.695652173913,4,1,0,80,0,0
192088,-106.382978723404,4,1,0,80,0,0
192197,-104.166666666667,4,1,0,80,0,0
192414,-100,4,1,0,80,0,0
192504,-97.5609756097561,4,1,0,80,0,0
192577,-94.3396226415094,4,1,0,80,0,0
192649,-91.743119266055,4,1,0,80,0,0
192794,-87.719298245614,4,1,0,80,0,0
192939,-84.7457627118644,4,1,0,80,0,0
193121,-81.9672131147541,4,1,0,80,0,1
193302,-83.3333333333333,4,1,0,80,0,1
196599,-76.9230769230769,4,1,0,80,0,0
196979,-58.8235294117647,4,1,0,80,0,0
197115,-61.7283950617284,4,1,0,80,0,0
197170,-63.2911392405063,4,1,0,80,0,0
197224,-64.9350649350649,4,1,0,80,0,0
197287,-67.5675675675676,4,1,0,80,0,0
197360,-70.4225352112676,4,1,0,80,0,0
197432,-73.5294117647059,4,1,0,80,0,0
197849,-111.111111111111,4,1,0,80,0,0
198066,-100,4,1,0,80,0,0
198284,-90.9090909090909,4,1,0,80,0,0
198718,-117.647058823529,4,1,0,80,0,0
198827,-114.942528735632,4,1,0,80,0,0
198936,-112.359550561798,4,1,0,80,0,0
199072,-109.89010989011,4,1,0,80,0,0
199126,-108.108108108108,4,1,0,80,0,0
199180,-106.382978723404,4,1,0,80,0,0
199289,-103.092783505155,4,1,0,80,0,0
199389,-100,4,1,0,80,0,0
199479,-97.5609756097561,4,1,0,80,0,0
199552,-94.3396226415094,4,1,0,80,0,0
199624,-91.743119266055,4,1,0,80,0,0
199769,-87.719298245614,4,1,0,80,0,0
199914,-84.7457627118644,4,1,0,80,0,0
200077,-81.9672131147541,4,1,0,80,0,1
200331,-83.3333333333333,4,1,0,80,0,1
203501,-86.9565217391304,4,1,0,80,0,1
203845,468.75,4,1,0,80,1,9
203845,-86.0807437376259,4,1,0,80,0,1
204157,-92.2849760059062,4,1,0,80,0,1
204470,-99.4530084535057,4,1,0,80,0,1
204780,521.739130434783,4,1,0,80,1,9
204780,-96.8804495252858,4,1,0,80,0,1
205127,508.474576271186,4,1,0,80,1,9
205127,-108.554059921841,4,1,0,80,0,1
205465,526.315789473685,4,1,0,80,1,0
205465,-84.7457627118644,4,1,0,80,0,0
205815,550.45871559633,4,1,0,80,1,8
205815,-87.5350140056022,4,1,0,80,0,0
206181,588.235294117647,4,1,0,80,1,8
206181,-89.0709895786942,4,1,0,80,0,0
206573,-97.5895384014834,4,1,0,80,0,0
206965,645.161290322581,4,1,0,80,1,8
206965,-98.3961428711994,4,1,0,80,0,0
207395,659.340659340659,4,1,0,80,1,8
207395,-107.665805340224,4,1,0,80,0,0
207834,468.75,4,1,0,80,1,0
207834,-142.857142857143,4,1,0,80,0,0
208244,-155.038759689922,4,1,0,80,0,0
208361,-156.25,4,1,0,80,0,0
208478,-156.25,4,1,0,80,0,0
208712,-158.730158730159,4,1,0,80,0,0
208947,-161.290322580645,4,1,0,80,0,0
209064,-162.60162601626,4,1,0,80,0,0
209181,-163.934426229508,4,1,0,80,0,0
209298,-165.289256198347,4,1,0,80,0,0
209533,-168.067226890756,4,1,0,80,0,0
209650,-169.491525423729,4,1,0,80,0,0
209767,-170.940170940171,4,1,0,80,0,0
209884,-172.413793103448,4,1,0,80,0,0
210119,-175.438596491228,4,1,0,80,0,0
210236,-176.991150442478,4,1,0,80,0,0
210353,-178.571428571429,4,1,0,80,0,0
210587,-181.818181818182,4,1,0,80,0,0
210705,-183.48623853211,4,1,0,80,0,0
210939,-186.915887850467,4,1,0,80,0,0
211056,-188.679245283019,4,1,0,80,0,0
211173,-190.47619047619,4,1,0,80,0,0
211408,-194.174757281553,4,1,0,80,0,0
211525,-196.078431372549,4,1,0,80,0,0
211759,-200,4,1,0,80,0,0
211876,-202.020202020202,4,1,0,80,0,0
211994,-204.081632653061,4,1,0,80,0,0
212228,-208.333333333333,4,1,0,80,0,0
212462,-212.765957446809,4,1,0,80,0,0
212580,-215.05376344086,4,1,0,80,0,0
212697,-217.391304347826,4,1,0,80,0,0
212931,-222.222222222222,4,1,0,80,0,0
213048,-224.719101123595,4,1,0,80,0,0
213283,-229.885057471264,4,1,0,80,0,0
213400,-232.558139534884,4,1,0,80,0,0
214337,-90.9090909090909,4,1,0,80,0,0
214572,-97.5609756097561,4,1,0,80,0,0
214806,-105.263157894737,4,1,0,80,0,0
215275,-153.846153846154,4,1,0,80,0,0
215568,-153.846153846154,4,1,0,80,0,0
215685,-152.51295597561,4,1,0,80,0,0
215802,-151.202666005407,4,1,0,80,0,0
216037,-148.648708911639,4,1,0,80,0,0
216271,-146.179382567524,4,1,0,80,0,0
216388,-144.975230981787,4,1,0,80,0,0
216505,-143.790755692317,4,1,0,80,0,0
216623,-142.625681750759,4,1,0,80,0,0
216740,-141.479136071804,4,1,0,80,0,0
216857,-140.350877192982,4,1,0,80,0,0
216974,-139.240471078362,4,1,0,80,0,0
217209,-137.071736493294,4,1,0,80,0,0
217326,-136.054421768707,4,1,0,80,0,0
217443,-134.96934171403,4,1,0,80,0,0
217560,-133.942145029876,4,1,0,80,0,0
217677,-132.930465402852,4,1,0,80,0,0
217912,-130.952443310687,4,1,0,80,0,0
218146,-129.032258064516,4,1,0,80,0,0
218263,-128.093128828383,4,1,0,80,0,0
218380,-127.16757125199,4,1,0,80,0,0
218468,-127.16757125199,4,1,0,80,0,0
218527,-125.786163522013,4,1,0,80,0,0
218615,-125.356168212935,4,1,0,80,0,0
218732,-124.469603900379,4,1,0,80,0,0
218849,-123.595491730844,4,1,0,80,0,0
218966,-122.733571190994,4,1,0,80,0,0
219084,-121.883588984161,4,1,0,80,0,0
219318,-120.218605512264,4,1,0,80,0,0
219552,-118.598357175556,4,1,0,80,0,0
219669,-117.804501074377,4,1,0,80,0,0
219787,-117.021338841138,4,1,0,80,0,0
220021,-115.485576428932,4,1,0,80,0,0
220138,-114.73271293531,4,1,0,80,0,0
220255,-113.989601868518,4,1,0,80,0,0
220490,-112.532015358369,4,1,0,80,0,0
220607,-111.817049416427,4,1,0,80,0,0
220724,-111.111111111111,4,1,0,80,0,0
220929,-104.166666666667,4,1,0,80,0,0
220988,-105.263157894737,4,1,0,80,0,0
221046,-106.382978723404,4,1,0,80,0,0
221134,-108.695652173913,4,1,0,80,0,0
221251,-111.111111111111,4,1,0,80,0,0
221369,-113.636363636364,4,1,0,80,0,0
221486,-116.279069767442,4,1,0,80,0,0
221603,-119.047619047619,4,1,0,80,0,0
221720,-121.951219512195,4,1,0,80,0,0
221837,-125,4,1,0,80,0,0
221955,-128.205128205128,4,1,0,80,0,0
222072,-131.578947368421,4,1,0,80,0,0
222306,-138.888888888889,4,1,0,80,0,0
222423,-142.857142857143,4,1,0,80,0,0
222541,-147.058823529412,4,1,0,80,0,0
222775,-153.846153846154,4,1,0,80,0,0
223244,-155.038759689922,4,1,0,80,0,0
223361,-156.25,4,1,0,80,0,0
223478,-156.25,4,1,0,80,0,0
223712,-158.730158730159,4,1,0,80,0,0
223947,-161.290322580645,4,1,0,80,0,0
224064,-162.60162601626,4,1,0,80,0,0
224181,-163.934426229508,4,1,0,80,0,0
224298,-165.289256198347,4,1,0,80,0,0
224533,-168.067226890756,4,1,0,80,0,0
224650,-169.491525423729,4,1,0,80,0,0
224767,-170.940170940171,4,1,0,80,0,0
224884,-172.413793103448,4,1,0,80,0,0
225119,-175.438596491228,4,1,0,80,0,0
225236,-176.991150442478,4,1,0,80,0,0
225353,-178.571428571429,4,1,0,80,0,0
225587,-181.818181818182,4,1,0,80,0,0
225705,-183.48623853211,4,1,0,80,0,0
225939,-186.915887850467,4,1,0,80,0,0
226056,-188.679245283019,4,1,0,80,0,0
226173,-190.47619047619,4,1,0,80,0,0
226408,-194.174757281553,4,1,0,80,0,0
226525,-196.078431372549,4,1,0,80,0,0
226642,-198.019801980198,4,1,0,80,0,0
226759,-200,4,1,0,80,0,0
226994,-204.081632653061,4,1,0,80,0,0
227111,-206.185567010309,4,1,0,80,0,0
227228,-208.333333333333,4,1,0,80,0,0
227462,-212.765957446809,4,1,0,80,0,0
227580,-215.05376344086,4,1,0,80,0,0
227697,-217.391304347826,4,1,0,80,0,0
227931,-222.222222222222,4,1,0,80,0,0
228048,-224.719101123595,4,1,0,80,0,0
228283,-229.885057471264,4,1,0,80,0,0
228400,-232.558139534884,4,1,0,80,0,0
229337,-90.9090909090909,4,1,0,80,0,0
229572,-97.5609756097561,4,1,0,80,0,0
229806,-105.263157894737,4,1,0,80,0,0
230275,-153.846153846154,4,1,0,80,0,0
230568,-153.846153846154,4,1,0,80,0,0
230685,-151.986078075248,4,1,0,80,0,0
230802,-150.170668965279,4,1,0,80,0,0
231037,-146.666705777788,4,1,0,80,0,0
231271,-143.322531591869,4,1,0,80,0,0
231388,-141.706887804989,4,1,0,80,0,0
231505,-140.127459937559,4,1,0,80,0,0
231623,-138.582659706122,4,1,0,80,0,0
231740,-137.071736493294,4,1,0,80,0,0
231857,-135.593220338983,4,1,0,80,0,0
231974,-134.146259666915,4,1,0,80,0,0
232209,-131.343220850999,4,1,0,80,0,0
232267,-130.660712022484,4,1,0,80,0,0
232326,-129.985259671553,4,1,0,80,0,0
232443,-128.654925618155,4,1,0,80,0,0
232560,-127.351708486845,4,1,0,80,0,0
232677,-126.074469667743,4,1,0,80,0,0
232912,-123.595491730844,4,1,0,80,0,0
233146,-121.212121212121,4,1,0,80,0,0
233263,-120.054504745154,4,1,0,80,0,0
233380,-118.91893177502,4,1,0,80,0,0
233498,-117.804501074377,4,1,0,80,0,0
233557,-117.255150725634,4,1,0,80,0,0
233615,-116.710900097804,4,1,0,80,0,0
233732,-115.637282847637,4,1,0,80,0,0
233849,-114.583369140636,4,1,0,80,0,0
234084,-112.532015358369,4,1,0,80,0,0
234318,-110.552819373276,4,1,0,80,0,0
234435,-109.58904109589,4,1,0,80,0,0
234552,-108.64192165831,4,1,0,80,0,0
234787,-106.79607503065,4,1,0,80,0,0
235021,-105.011903099216,4,1,0,80,0,0
235138,-104.142041413124,4,1,0,80,0,0
235255,-103.286365580025,4,1,0,80,0,0
235489,-101.616618788303,4,1,0,80,0,0
235607,-100.801878947024,4,1,0,80,0,0
235724,-100,4,1,0,80,0,0
235929,-90.9090909090909,4,1,0,80,0,0
235988,-91.743119266055,4,1,0,80,0,0
236046,-92.5925925925926,4,1,0,80,0,0
236134,-94.3396226415094,4,1,0,80,0,0
236251,-96.1538461538461,4,1,0,80,0,0
236369,-98.0392156862745,4,1,0,80,0,0
236603,-102.040816326531,4,1,0,80,0,0
236720,-104.166666666667,4,1,0,80,0,0
236837,-106.382978723404,4,1,0,80,0,0
236955,-108.695652173913,4,1,0,80,0,0
237072,-111.111111111111,4,1,0,80,0,0
237306,-108.108108108108,4,1,0,80,0,0
237541,-100,4,1,0,80,0,0
237775,-86.9565217391304,4,1,0,80,0,0

[HitObjects]
256,192,460,5,0,0:0:0:0:
256,192,928,5,0,0:0:0:0:
256,192,1163,5,8,0:0:0:0:
256,192,1397,5,0,0:0:0:0:
256,192,1631,5,8,0:0:0:0:
256,192,1866,5,0,0:0:0:0:
256,192,2335,5,0,0:0:0:0:
256,192,2569,5,8,0:0:0:0:
256,192,2803,5,0,0:0:0:0:
256,192,3038,5,8,0:0:0:0:
256,192,3272,5,0,0:0:0:0:
256,192,3389,5,8,0:0:0:0:
256,192,3506,5,8,0:0:0:0:
256,192,3741,5,0,0:0:0:0:
256,192,3858,5,8,0:0:0:0:
256,192,3975,5,8,0:0:0:0:
256,192,4210,5,0,0:0:0:0:
256,192,4678,5,0,0:0:0:0:
256,192,4913,5,8,0:0:0:0:
256,192,5147,5,0,0:0:0:0:
256,192,5381,5,8,0:0:0:0:
256,192,5616,5,0,0:0:0:0:
256,192,5850,5,8,0:0:0:0:
256,192,6085,5,8,0:0:0:0:
256,192,6436,5,0,0:0:0:0:
256,192,6553,5,8,0:0:0:0:
256,192,6905,5,8,0:0:0:0:
256,192,7022,5,0,0:0:0:0:
256,192,7256,5,8,0:0:0:0:
256,192,7491,5,0,0:0:0:0:
256,192,7608,5,8,0:0:0:0:
256,192,7725,5,8,0:0:0:0:
256,192,7960,5,0,0:0:0:0:
256,192,8428,5,0,0:0:0:0:
256,192,8663,5,8,0:0:0:0:
256,192,8897,5,0,0:0:0:0:
256,192,9131,5,8,0:0:0:0:
256,192,9366,5,0,0:0:0:0:
256,192,9600,5,0,0:0:0:0:
256,192,9835,5,0,0:0:0:0:
256,192,10303,5,0,0:0:0:0:
256,192,10538,5,8,0:0:0:0:
256,192,10772,5,0,0:0:0:0:
256,192,10889,5,8,0:0:0:0:
256,192,11006,5,8,0:0:0:0:
256,192,11241,5,0,0:0:0:0:
256,192,11358,5,8,0:0:0:0:
256,192,11475,5,8,0:0:0:0:
256,192,11710,5,4,0:0:0:0:
256,192,11944,5,8,0:0:0:0:
256,192,12061,5,8,0:0:0:0:
256,192,12178,5,0,0:0:0:0:
256,192,12413,5,8,0:0:0:0:
256,192,12647,5,0,0:0:0:0:
256,192,12881,5,0,0:0:0:0:
256,192,13116,5,8,0:0:0:0:
256,192,13585,5,0,0:0:0:0:
256,192,13741,1,0,0:0:0:0:
256,192,13897,1,0,0:0:0:0:
256,192,14053,1,8,0:0:0:0:
256,192,14210,1,8,0:0:0:0:
256,192,14366,1,8,0:0:0:0:
256,192,14522,1,0,0:0:0:0:
256,192,14678,1,0,0:0:0:0:
256,192,14835,1,0,0:0:0:0:
256,192,14991,1,8,0:0:0:0:
256,192,15460,1,4,0:0:0:0:
256,192,15694,1,8,0:0:0:0:
256,192,15811,1,0,0:0:0:0:
256,192,15928,1,8,0:0:0:0:
256,192,16163,1,0,0:0:0:0:
256,192,16397,1,8,0:0:0:0:
256,192,16631,1,8,0:0:0:0:
256,192,16749,1,8,0:0:0:0:
256,192,16866,1,0,0:0:0:0:
256,192,17100,1,8,0:0:0:0:
256,192,17335,1,0,0:0:0:0:
256,192,17803,1,8,0:0:0:0:
256,192,18038,1,0,0:0:0:0:
256,192,18272,1,0,0:0:0:0:
256,192,18389,1,8,0:0:0:0:
256,192,18506,1,8,0:0:0:0:
256,192,18624,1,8,0:0:0:0:
256,192,18741,1,0,0:0:0:0:
256,192,18858,1,8,0:0:0:0:
256,192,18975,1,0,0:0:0:0:
256,192,19210,1,0,0:0:0:0:
256,192,19444,1,8,0:0:0:0:
256,192,19561,1,0,0:0:0:0:
256,192,19678,1,8,0:0:0:0:
256,192,19913,1,0,0:0:0:0:
256,192,20147,1,8,0:0:0:0:
256,192,20381,1,8,0:0:0:0:
256,192,20499,1,8,0:0:0:0:
256,192,20616,1,0,0:0:0:0:
256,192,20850,1,8,0:0:0:0:
256,192,21085,1,8,0:0:0:0:
256,192,21436,1,0,0:0:0:0:
256,192,21553,1,8,0:0:0:0:
256,192,21788,1,0,0:0:0:0:
256,192,21905,1,8,0:0:0:0:
256,192,22022,1,0,0:0:0:0:
256,192,22139,1,8,0:0:0:0:
256,192,22256,1,8,0:0:0:0:
256,192,22491,1,0,0:0:0:0:
256,192,22608,1,8,0:0:0:0:
256,192,22725,1,8,0:0:0:0:
256,192,22960,1,4,0:0:0:0:
256,192,23194,1,8,0:0:0:0:
256,192,23311,1,0,0:0:0:0:
256,192,23428,1,8,0:0:0:0:
256,192,23663,1,0,0:0:0:0:
256,192,23897,1,8,0:0:0:0:
256,192,24131,1,8,0:0:0:0:
256,192,24249,1,8,0:0:0:0:
256,192,24366,1,0,0:0:0:0:
256,192,24600,1,8,0:0:0:0:
256,192,24835,1,0,0:0:0:0:
256,192,25303,1,8,0:0:0:0:
256,192,25538,1,0,0:0:0:0:
256,192,25772,1,0,0:0:0:0:
256,192,25889,1,8,0:0:0:0:
256,192,26006,1,8,0:0:0:0:
256,192,26124,1,8,0:0:0:0:
256,192,26241,1,0,0:0:0:0:
256,192,26358,1,8,0:0:0:0:
256,192,26475,1,0,0:0:0:0:
256,192,26710,1,0,0:0:0:0:
256,192,26944,1,0,0:0:0:0:
256,192,27178,1,12,0:0:0:0:
256,192,27647,1,0,0:0:0:0:
256,192,27881,1,0,0:0:0:0:
256,192,28116,1,12,0:0:0:0:
256,192,28585,1,0,0:0:0:0:
256,192,28741,1,0,0:0:0:0:
256,192,28897,1,0,0:0:0:0:
256,192,29053,1,8,0:0:0:0:
256,192,29210,1,8,0:0:0:0:
256,192,29366,1,8,0:0:0:0:
256,192,29522,1,0,0:0:0:0:
256,192,29678,1,0,0:0:0:0:
256,192,29835,1,0,0:0:0:0:
256,192,29991,1,8,0:0:0:0:
256,192,30147,1,8,0:0:0:0:
256,192,30303,1,8,0:0:0:0:
256,192,30460,1,4,0:0:0:0:
256,192,30928,1,8,0:0:0:0:
256,192,31397,1,8,0:0:0:0:
256,192,31631,1,0,0:0:0:0:
256,192,31866,1,8,0:0:0:0:
256,192,31983,1,8,0:0:0:0:
256,192,32217,1,0,0:0:0:0:
256,192,32335,1,0,0:0:0:0:
256,192,32569,1,0,0:0:0:0:
256,192,32686,1,0,0:0:0:0:
256,192,32803,1,8,0:0:0:0:
256,192,33272,1,8,0:0:0:0:
256,192,33506,1,0,0:0:0:0:
256,192,33741,1,8,0:0:0:0:
256,192,33858,1,0,0:0:0:0:
256,192,34092,1,0,0:0:0:0:
256,192,34210,1,0,0:0:0:0:
256,192,34444,1,0,0:0:0:0:
256,192,34561,1,0,0:0:0:0:
256,192,34678,1,8,0:0:0:0:
256,192,35147,1,0,0:0:0:0:
256,192,35381,1,0,0:0:0:0:
256,192,35616,1,8,0:0:0:0:
256,192,35850,1,8,0:0:0:0:
256,192,35967,1,0,0:0:0:0:
256,192,36085,1,8,0:0:0:0:
256,192,36319,1,8,0:0:0:0:
256,192,36553,1,0,0:0:0:0:
256,192,36788,1,8,0:0:0:0:
256,192,37022,1,12,0:0:0:0:
256,192,37491,1,4,0:0:0:0:
256,192,37960,1,4,0:0:0:0:
256,192,38194,1,8,0:0:0:0:
256,192,38428,1,0,0:0:0:0:
256,192,38663,1,8,0:0:0:0:
256,192,38897,1,0,0:0:0:0:
256,192,39014,1,0,0:0:0:0:
256,192,39131,1,8,0:0:0:0:
256,192,39366,1,0,0:0:0:0:
256,192,39483,1,0,0:0:0:0:
256,192,39600,1,8,0:0:0:0:
256,192,39835,1,0,0:0:0:0:
256,192,40069,1,8,0:0:0:0:
256,192,40186,1,0,0:0:0:0:
256,192,40303,1,8,0:0:0:0:
256,192,40538,1,0,0:0:0:0:
256,192,40772,1,0,0:0:0:0:
256,192,40889,1,8,0:0:0:0:
256,192,41006,1,8,0:0:0:0:
256,192,41241,1,0,0:0:0:0:
256,192,41358,1,8,0:0:0:0:
256,192,41475,1,8,0:0:0:0:
256,192,41592,1,8,0:0:0:0:
256,192,41710,1,0,0:0:0:0:
256,192,41944,1,0,0:0:0:0:
256,192,42178,1,8,0:0:0:0:
256,192,42413,1,8,0:0:0:0:
256,192,42647,1,0,0:0:0:0:
256,192,42764,1,0,0:0:0:0:
256,192,42881,1,8,0:0:0:0:
256,192,43116,1,8,0:0:0:0:
256,192,43233,1,0,0:0:0:0:
256,192,43350,1,8,0:0:0:0:
256,192,43585,1,0,0:0:0:0:
256,192,43702,1,0,0:0:0:0:
256,192,43819,1,8,0:0:0:0:
256,192,43936,1,8,0:0:0:0:
256,192,44053,1,0,0:0:0:0:
256,192,44288,1,8,0:0:0:0:
256,192,44522,1,0,0:0:0:0:
256,192,44639,1,0,0:0:0:0:
256,192,44756,1,8,0:0:0:0:
256,192,44991,1,0,0:0:0:0:
256,192,45108,1,8,0:0:0:0:
256,192,45225,1,8,0:0:0:0:
256,192,45460,1,12,0:0:0:0:
256,192,45928,1,0,0:0:0:0:
256,192,46045,1,8,0:0:0:0:
256,192,46163,1,8,0:0:0:0:
256,192,46397,1,0,0:0:0:0:
256,192,46631,1,0,0:0:0:0:
256,192,46866,1,8,0:0:0:0:
256,192,46983,1,8,0:0:0:0:
256,192,47217,1,8,0:0:0:0:
256,192,47335,1,0,0:0:0:0:
256,192,47803,1,8,0:0:0:0:
256,192,47920,1,8,0:0:0:0:
256,192,48038,1,0,0:0:0:0:
256,192,48272,1,0,0:0:0:0:
256,192,48389,1,0,0:0:0:0:
256,192,48624,1,0,0:0:0:0:
256,192,48741,5,8,0:0:0:0:
256,192,48858,1,0,0:0:0:0:
256,192,49092,1,0,0:0:0:0:
256,192,49210,5,8,0:0:0:0:
256,192,49678,5,0,0:0:0:0:
256,192,49913,5,8,0:0:0:0:
256,192,50147,5,0,0:0:0:0:
256,192,50264,5,0,0:0:0:0:
256,192,50381,5,8,0:0:0:0:
256,192,50616,5,8,0:0:0:0:
256,192,50733,5,0,0:0:0:0:
256,192,50967,5,0,0:0:0:0:
256,192,51085,5,8,0:0:0:0:
256,192,51553,1,0,0:0:0:0:
256,192,52022,5,12,0:0:0:0:
256,192,52256,1,0,0:0:0:0:
256,192,52491,1,12,0:0:0:0:
256,192,52960,1,4,0:0:0:0:
256,192,53194,1,8,0:0:0:0:
256,192,53428,1,0,0:0:0:0:
256,192,53663,1,8,0:0:0:0:
256,192,53897,1,0,0:0:0:0:
256,192,54014,1,0,0:0:0:0:
256,192,54131,1,8,0:0:0:0:
256,192,54366,1,8,0:0:0:0:
256,192,54483,1,8,0:0:0:0:
256,192,54600,1,0,0:0:0:0:
256,192,54835,5,0,0:0:0:0:
256,192,54952,5,0,0:0:0:0:
256,192,55069,5,8,0:0:0:0:
256,192,55186,5,8,0:0:0:0:
256,192,55303,5,0,0:0:0:0:
256,192,55538,5,8,0:0:0:0:
256,192,55772,5,0,0:0:0:0:
256,192,55889,5,0,0:0:0:0:
256,192,56006,5,8,0:0:0:0:
256,192,56124,5,0,0:0:0:0:
256,192,56241,5,8,0:0:0:0:
256,192,56358,5,8,0:0:0:0:
256,192,56475,5,0,0:0:0:0:
256,192,56710,5,0,0:0:0:0:
256,192,56944,5,8,0:0:0:0:
256,192,57061,5,0,0:0:0:0:
256,192,57178,5,8,0:0:0:0:
256,192,57413,5,8,0:0:0:0:
256,192,57647,5,0,0:0:0:0:
256,192,57764,5,0,0:0:0:0:
256,192,57881,5,8,0:0:0:0:
256,192,58116,5,8,0:0:0:0:
256,192,58233,5,0,0:0:0:0:
256,192,58350,5,8,0:0:0:0:
256,192,58585,5,0,0:0:0:0:
256,192,58702,5,0,0:0:0:0:
256,192,58819,5,8,0:0:0:0:
256,192,58936,5,8,0:0:0:0:
256,192,59053,5,0,0:0:0:0:
256,192,59288,5,8,0:0:0:0:
256,192,59522,5,0,0:0:0:0:
256,192,59756,5,0,0:0:0:0:
256,192,59991,5,8,0:0:0:0:
256,192,60460,5,12,0:0:0:0:
256,192,60694,1,0,0:0:0:0:
256,192,60811,1,0,0:0:0:0:
256,192,60928,5,8,0:0:0:0:
256,192,61163,5,0,0:0:0:0:
256,192,61280,1,0,0:0:0:0:
256,192,61397,5,8,0:0:0:0:
256,192,61514,5,8,0:0:0:0:
256,192,61631,1,0,0:0:0:0:
256,192,61866,5,8,0:0:0:0:
256,192,62335,5,0,0:0:0:0:
256,192,62569,5,0,0:0:0:0:
256,192,62686,5,0,0:0:0:0:
256,192,62803,5,8,0:0:0:0:
256,192,63038,5,8,0:0:0:0:
256,192,63155,5,8,0:0:0:0:
256,192,63272,5,0,0:0:0:0:
256,192,63389,5,0,0:0:0:0:
256,192,63506,5,8,0:0:0:0:
256,192,63624,5,8,0:0:0:0:
256,192,63741,5,8,0:0:0:0:
256,192,63858,5,8,0:0:0:0:
256,192,63975,5,0,0:0:0:0:
256,192,64210,5,8,0:0:0:0:
256,192,64444,5,0,0:0:0:0:
256,192,64678,5,0,0:0:0:0:
256,192,64795,5,0,0:0:0:0:
256,192,64913,5,8,0:0:0:0:
256,192,65147,5,0,0:0:0:0:
256,192,65381,5,8,0:0:0:0:
256,192,65499,5,8,0:0:0:0:
256,192,65616,5,0,0:0:0:0:
256,192,65733,5,0,0:0:0:0:
256,192,65850,5,8,0:0:0:0:
256,192,66085,5,8,0:0:0:0:
256,192,66436,5,0,0:0:0:0:
256,192,66553,5,8,0:0:0:0:
256,192,66788,5,0,0:0:0:0:
256,192,66905,5,8,0:0:0:0:
256,192,67022,5,0,0:0:0:0:
256,192,67139,5,8,0:0:0:0:
256,192,67256,5,8,0:0:0:0:
256,192,67491,5,0,0:0:0:0:
256,192,67608,5,8,0:0:0:0:
256,192,67725,5,8,0:0:0:0:
256,192,67960,5,12,0:0:0:0:
256,192,68194,1,0,0:0:0:0:
256,192,68311,1,0,0:0:0:0:
256,192,68428,5,8,0:0:0:0:
256,192,68663,5,0,0:0:0:0:
256,192,68780,1,0,0:0:0:0:
256,192,68897,5,8,0:0:0:0:
256,192,69014,5,0,0:0:0:0:
256,192,69131,1,8,0:0:0:0:
256,192,69366,5,0,0:0:0:0:
256,192,69835,5,0,0:0:0:0:
256,192,70069,5,0,0:0:0:0:
256,192,70186,5,0,0:0:0:0:
256,192,70303,5,8,0:0:0:0:
256,192,70538,5,8,0:0:0:0:
256,192,70655,5,8,0:0:0:0:
256,192,70772,5,0,0:0:0:0:
256,192,70889,5,0,0:0:0:0:
256,192,71006,5,8,0:0:0:0:
256,192,71124,5,8,0:0:0:0:
256,192,71241,5,0,0:0:0:0:
256,192,71358,5,0,0:0:0:0:
256,192,71475,5,8,0:0:0:0:
256,192,71710,5,8,0:0:0:0:
256,192,71944,5,8,0:0:0:0:
256,192,72178,5,4,0:0:0:0:
256,192,72647,5,0,0:0:0:0:
256,192,72881,5,8,0:0:0:0:
256,192,73116,5,4,0:0:0:0:
256,192,73585,5,12,0:0:0:0:
256,192,74053,5,0,0:0:0:0:
256,192,74131,5,0,0:0:0:0:
256,192,74210,5,8,0:0:0:0:
256,192,74288,5,8,0:0:0:0:
256,192,74522,5,12,0:0:0:0:
256,192,74756,5,0,0:0:0:0:
256,192,74991,5,12,0:0:0:0:
256,192,75460,5,12,0:0:0:0:
256,192,75694,1,0,0:0:0:0:
256,192,75811,1,0,0:0:0:0:
256,192,75928,5,8,0:0:0:0:
256,192,76163,5,0,0:0:0:0:
256,192,76280,1,0,0:0:0:0:
256,192,76397,5,8,0:0:0:0:
256,192,76514,5,8,0:0:0:0:
256,192,76631,1,0,0:0:0:0:
256,192,76866,5,8,0:0:0:0:
256,192,77335,5,0,0:0:0:0:
256,192,77569,5,0,0:0:0:0:
256,192,77686,5,0,0:0:0:0:
256,192,77803,5,8,0:0:0:0:
256,192,78038,5,8,0:0:0:0:
256,192,78155,5,8,0:0:0:0:
256,192,78272,5,0,0:0:0:0:
256,192,78389,5,0,0:0:0:0:
256,192,78506,5,8,0:0:0:0:
256,192,78624,5,8,0:0:0:0:
256,192,78741,5,8,0:0:0:0:
256,192,78858,5,8,0:0:0:0:
256,192,78975,5,0,0:0:0:0:
256,192,79210,5,8,0:0:0:0:
256,192,79444,5,0,0:0:0:0:
256,192,79678,5,0,0:0:0:0:
256,192,79795,5,0,0:0:0:0:
256,192,79913,5,8,0:0:0:0:
256,192,80147,5,0,0:0:0:0:
256,192,80381,5,8,0:0:0:0:
256,192,80499,5,8,0:0:0:0:
256,192,80616,5,0,0:0:0:0:
256,192,80733,5,0,0:0:0:0:
256,192,80850,5,8,0:0:0:0:
256,192,81085,5,8,0:0:0:0:
256,192,81436,5,0,0:0:0:0:
256,192,81553,5,8,0:0:0:0:
256,192,81788,5,8,0:0:0:0:
256,192,81905,5,8,0:0:0:0:
256,192,82022,5,0,0:0:0:0:
256,192,82139,5,8,0:0:0:0:
256,192,82256,5,8,0:0:0:0:
256,192,82491,5,0,0:0:0:0:
256,192,82608,5,8,0:0:0:0:
256,192,82725,5,8,0:0:0:0:
256,192,82960,5,8,0:0:0:0:
256,192,83194,1,0,0:0:0:0:
256,192,83311,1,0,0:0:0:0:
256,192,83428,5,8,0:0:0:0:
256,192,83663,5,0,0:0:0:0:
256,192,83780,1,0,0:0:0:0:
256,192,83897,5,8,0:0:0:0:
256,192,84014,1,0,0:0:0:0:
256,192,84131,1,8,0:0:0:0:
256,192,84366,5,0,0:0:0:0:
256,192,84835,5,0,0:0:0:0:
256,192,85069,5,0,0:0:0:0:
256,192,85186,5,0,0:0:0:0:
256,192,85303,5,8,0:0:0:0:
256,192,85538,5,8,0:0:0:0:
256,192,85655,5,8,0:0:0:0:
256,192,85772,5,0,0:0:0:0:
256,192,85889,5,0,0:0:0:0:
256,192,86006,5,0,0:0:0:0:
256,192,86124,5,0,0:0:0:0:
256,192,86241,5,8,0:0:0:0:
256,192,86358,5,8,0:0:0:0:
256,192,86475,5,0,0:0:0:0:
256,192,86710,5,8,0:0:0:0:
256,192,86944,5,8,0:0:0:0:
256,192,87178,5,4,0:0:0:0:
256,192,87647,5,0,0:0:0:0:
256,192,87881,5,8,0:0:0:0:
256,192,88116,5,4,0:0:0:0:
256,192,88585,5,12,0:0:0:0:
256,192,89053,5,0,0:0:0:0:
256,192,89131,5,0,0:0:0:0:
256,192,89210,5,8,0:0:0:0:
256,192,89288,5,8,0:0:0:0:
256,192,89522,5,8,0:0:0:0:
256,192,89756,5,8,0:0:0:0:
256,192,89874,5,0,0:0:0:0:
256,192,89991,5,0,0:0:0:0:
256,192,90108,5,8,0:0:0:0:
256,192,90342,5,8,0:0:0:0:
256,192,90460,5,0,0:0:0:0:
256,192,90811,5,0,0:0:0:0:
256,192,90928,5,8,0:0:0:0:
256,192,91163,5,8,0:0:0:0:
256,192,91397,5,0,0:0:0:0:
256,192,91514,5,0,0:0:0:0:
256,192,91631,5,8,0:0:0:0:
256,192,91866,5,8,0:0:0:0:
256,192,92100,5,8,0:0:0:0:
256,192,92217,5,8,0:0:0:0:
256,192,92335,5,0,0:0:0:0:
256,192,92569,5,8,0:0:0:0:
256,192,92803,5,0,0:0:0:0:
256,192,93038,5,8,0:0:0:0:
256,192,93272,5,0,0:0:0:0:
256,192,93389,5,8,0:0:0:0:
256,192,93506,5,0,0:0:0:0:
256,192,93741,5,0,0:0:0:0:
256,192,93858,5,8,0:0:0:0:
256,192,93975,5,8,0:0:0:0:
256,192,94092,5,8,0:0:0:0:
256,192,94210,5,0,0:0:0:0:
256,192,94444,5,0,0:0:0:0:
256,192,94561,5,0,0:0:0:0:
256,192,94678,5,8,0:0:0:0:
256,192,94913,5,8,0:0:0:0:
256,192,95147,5,0,0:0:0:0:
256,192,95264,5,0,0:0:0:0:
256,192,95381,5,8,0:0:0:0:
256,192,95616,5,8,0:0:0:0:
256,192,95850,5,8,0:0:0:0:
256,192,95967,5,8,0:0:0:0:
256,192,96085,5,0,0:0:0:0:
256,192,96319,5,0,0:0:0:0:
256,192,96553,5,0,0:0:0:0:
256,192,96670,5,0,0:0:0:0:
256,192,96788,5,8,0:0:0:0:
256,192,97022,5,12,0:0:0:0:
256,192,97256,1,0,0:0:0:0:
256,192,97491,5,12,0:0:0:0:
256,192,97960,5,4,0:0:0:0:
256,192,98194,1,8,0:0:0:0:
256,192,98428,1,0,0:0:0:0:
256,192,98663,1,8,0:0:0:0:
256,192,98897,1,0,0:0:0:0:
256,192,99014,1,0,0:0:0:0:
256,192,99131,1,8,0:0:0:0:
256,192,99366,1,0,0:0:0:0:
256,192,99483,1,0,0:0:0:0:
256,192,99600,1,8,0:0:0:0:
256,192,99835,1,0,0:0:0:0:
256,192,100069,1,8,0:0:0:0:
256,192,100186,1,0,0:0:0:0:
256,192,100303,1,8,0:0:0:0:
256,192,100538,1,0,0:0:0:0:
256,192,100772,1,8,0:0:0:0:
256,192,100889,1,8,0:0:0:0:
256,192,101006,1,0,0:0:0:0:
256,192,101241,1,0,0:0:0:0:
256,192,101358,1,0,0:0:0:0:
256,192,101475,1,8,0:0:0:0:
256,192,101592,1,8,0:0:0:0:
256,192,101710,1,0,0:0:0:0:
256,192,101944,1,0,0:0:0:0:
256,192,102178,1,8,0:0:0:0:
256,192,102295,1,0,0:0:0:0:
256,192,102413,1,8,0:0:0:0:
256,192,102647,1,0,0:0:0:0:
256,192,102764,1,0,0:0:0:0:
256,192,102881,1,8,0:0:0:0:
256,192,103116,1,0,0:0:0:0:
256,192,103233,1,0,0:0:0:0:
256,192,103350,1,8,0:0:0:0:
256,192,103585,1,0,0:0:0:0:
256,192,103819,1,8,0:0:0:0:
256,192,104053,1,0,0:0:0:0:
256,192,104288,1,8,0:0:0:0:
256,192,104522,1,0,0:0:0:0:
256,192,104639,1,0,0:0:0:0:
256,192,104756,1,8,0:0:0:0:
256,192,104991,1,0,0:0:0:0:
256,192,105108,1,8,0:0:0:0:
256,192,105225,1,8,0:0:0:0:
256,192,105460,1,4,0:0:0:0:
256,192,105928,1,0,0:0:0:0:
256,192,106045,1,0,0:0:0:0:
256,192,106163,1,8,0:0:0:0:
256,192,106397,1,0,0:0:0:0:
256,192,106631,1,0,0:0:0:0:
256,192,106749,1,0,0:0:0:0:
256,192,106866,1,8,0:0:0:0:
256,192,106983,1,8,0:0:0:0:
256,192,107217,1,8,0:0:0:0:
256,192,107335,1,0,0:0:0:0:
256,192,107569,1,8,0:0:0:0:
256,192,107803,1,8,0:0:0:0:
256,192,108038,1,0,0:0:0:0:
256,192,108272,1,0,0:0:0:0:
256,192,108389,1,8,0:0:0:0:
256,192,108506,1,8,0:0:0:0:
256,192,108741,1,0,0:0:0:0:
256,192,108858,1,8,0:0:0:0:
256,192,108975,5,8,0:0:0:0:
256,192,109210,5,0,0:0:0:0:
256,192,109327,5,0,0:0:0:0:
256,192,109444,5,8,0:0:0:0:
256,192,109561,5,8,0:0:0:0:
256,192,109678,5,0,0:0:0:0:
256,192,109913,5,0,0:0:0:0:
256,192,110147,5,0,0:0:0:0:
256,192,110264,5,0,0:0:0:0:
256,192,110381,5,8,0:0:0:0:
256,192,110616,5,8,0:0:0:0:
256,192,110733,5,0,0:0:0:0:
256,192,110967,5,0,0:0:0:0:
256,192,111085,5,8,0:0:0:0:
256,192,111553,5,8,0:0:0:0:
256,192,112022,5,8,0:0:0:0:
256,192,112256,5,8,0:0:0:0:
256,192,112491,1,0,0:0:0:0:
256,192,112960,1,4,0:0:0:0:
256,192,113194,1,8,0:0:0:0:
256,192,113311,1,8,0:0:0:0:
256,192,113428,1,0,0:0:0:0:
256,192,113663,1,8,0:0:0:0:
256,192,113897,1,0,0:0:0:0:
256,192,114014,1,0,0:0:0:0:
256,192,114131,1,8,0:0:0:0:
256,192,114366,1,8,0:0:0:0:
256,192,114483,1,8,0:0:0:0:
256,192,114600,1,0,0:0:0:0:
256,192,114835,5,0,0:0:0:0:
256,192,115069,5,8,0:0:0:0:
256,192,115186,5,8,0:0:0:0:
256,192,115303,5,0,0:0:0:0:
256,192,115538,5,8,0:0:0:0:
256,192,115772,5,8,0:0:0:0:
256,192,115889,5,0,0:0:0:0:
256,192,116006,5,8,0:0:0:0:
256,192,116124,5,0,0:0:0:0:
256,192,116241,5,8,0:0:0:0:
256,192,116358,5,8,0:0:0:0:
256,192,116475,5,0,0:0:0:0:
256,192,116710,5,0,0:0:0:0:
256,192,116944,5,8,0:0:0:0:
256,192,117178,5,8,0:0:0:0:
256,192,117295,5,0,0:0:0:0:
256,192,117413,5,8,0:0:0:0:
256,192,117647,5,0,0:0:0:0:
256,192,117764,5,0,0:0:0:0:
256,192,117881,5,8,0:0:0:0:
256,192,118116,5,8,0:0:0:0:
256,192,118233,5,0,0:0:0:0:
256,192,118350,5,8,0:0:0:0:
256,192,118585,5,0,0:0:0:0:
256,192,118819,5,8,0:0:0:0:
256,192,118936,5,8,0:0:0:0:
256,192,119053,5,0,0:0:0:0:
256,192,119288,5,8,0:0:0:0:
256,192,119522,5,0,0:0:0:0:
256,192,119756,5,0,0:0:0:0:
256,192,119991,5,8,0:0:0:0:
256,192,120460,5,12,0:0:0:0:
256,192,120928,5,8,0:0:0:0:
256,192,121163,5,0,0:0:0:0:
256,192,121397,5,8,0:0:0:0:
256,192,121866,5,8,0:0:0:0:
256,192,122335,5,8,0:0:0:0:
256,192,122569,5,0,0:0:0:0:
256,192,122686,5,0,0:0:0:0:
256,192,122803,5,8,0:0:0:0:
256,192,123272,5,0,0:0:0:0:
256,192,123506,5,8,0:0:0:0:
256,192,123585,5,8,0:0:0:0:
256,192,123663,5,8,0:0:0:0:
256,192,123741,5,0,0:0:0:0:
256,192,123975,5,0,0:0:0:0:
256,192,124210,5,8,0:0:0:0:
256,192,124444,5,0,0:0:0:0:
256,192,124678,5,0,0:0:0:0:
256,192,124913,5,8,0:0:0:0:
256,192,125147,5,0,0:0:0:0:
256,192,125381,5,0,0:0:0:0:
256,192,125616,5,0,0:0:0:0:
256,192,125850,5,8,0:0:0:0:
256,192,126085,5,0,0:0:0:0:
256,192,126553,5,8,0:0:0:0:
256,192,127022,5,0,0:0:0:0:
256,192,127256,5,8,0:0:0:0:
256,192,127374,5,8,0:0:0:0:
256,192,127608,5,8,0:0:0:0:
256,192,127725,5,8,0:0:0:0:
256,192,127960,5,12,0:0:0:0:
256,192,128428,5,8,0:0:0:0:
256,192,128663,5,0,0:0:0:0:
256,192,128897,5,8,0:0:0:0:
256,192,129366,5,8,0:0:0:0:
256,192,129835,5,8,0:0:0:0:
256,192,130069,5,0,0:0:0:0:
256,192,130186,5,0,0:0:0:0:
256,192,130303,5,8,0:0:0:0:
256,192,130772,5,0,0:0:0:0:
256,192,131006,5,8,0:0:0:0:
256,192,131085,5,8,0:0:0:0:
256,192,131163,5,8,0:0:0:0:
256,192,131241,5,0,0:0:0:0:
256,192,131475,5,0,0:0:0:0:
256,192,131710,5,8,0:0:0:0:
256,192,131944,5,8,0:0:0:0:
256,192,132178,5,4,0:0:0:0:
256,192,132647,5,0,0:0:0:0:
256,192,132881,5,8,0:0:0:0:
256,192,133116,5,4,0:0:0:0:
256,192,133585,5,12,0:0:0:0:
256,192,134053,5,8,0:0:0:0:
256,192,134522,5,12,0:0:0:0:
256,192,134756,5,0,0:0:0:0:
256,192,134991,5,12,0:0:0:0:
256,192,135460,5,12,0:0:0:0:
256,192,135694,1,0,0:0:0:0:
256,192,135811,1,0,0:0:0:0:
256,192,135928,5,8,0:0:0:0:
256,192,136163,5,0,0:0:0:0:
256,192,136280,1,0,0:0:0:0:
256,192,136397,5,8,0:0:0:0:
256,192,136514,5,8,0:0:0:0:
256,192,136631,1,0,0:0:0:0:
256,192,136866,5,8,0:0:0:0:
256,192,137335,5,0,0:0:0:0:
256,192,137569,5,0,0:0:0:0:
256,192,137686,5,0,0:0:0:0:
256,192,137803,5,8,0:0:0:0:
256,192,138038,5,8,0:0:0:0:
256,192,138155,5,8,0:0:0:0:
256,192,138272,5,0,0:0:0:0:
256,192,138389,5,0,0:0:0:0:
256,192,138506,5,8,0:0:0:0:
256,192,138624,5,0,0:0:0:0:
256,192,138741,5,8,0:0:0:0:
256,192,138858,5,8,0:0:0:0:
256,192,138975,5,0,0:0:0:0:
256,192,139210,5,8,0:0:0:0:
256,192,139444,5,0,0:0:0:0:
256,192,139678,5,0,0:0:0:0:
256,192,139795,5,0,0:0:0:0:
256,192,139913,5,8,0:0:0:0:
256,192,140147,5,0,0:0:0:0:
256,192,140381,5,8,0:0:0:0:
256,192,140499,5,0,0:0:0:0:
256,192,140616,5,0,0:0:0:0:
256,192,140733,5,0,0:0:0:0:
256,192,140850,5,8,0:0:0:0:
256,192,141085,5,8,0:0:0:0:
256,192,141436,5,0,0:0:0:0:
256,192,141553,5,8,0:0:0:0:
256,192,141788,5,0,0:0:0:0:
256,192,141905,5,8,0:0:0:0:
256,192,142022,5,0,0:0:0:0:
256,192,142139,5,0,0:0:0:0:
256,192,142256,5,8,0:0:0:0:
256,192,142491,5,0,0:0:0:0:
256,192,142608,5,0,0:0:0:0:
256,192,142725,5,8,0:0:0:0:
256,192,142960,5,12,0:0:0:0:
256,192,143194,1,0,0:0:0:0:
256,192,143311,1,0,0:0:0:0:
256,192,143428,5,8,0:0:0:0:
256,192,143663,5,0,0:0:0:0:
256,192,143780,1,0,0:0:0:0:
256,192,143897,5,8,0:0:0:0:
256,192,144014,5,0,0:0:0:0:
256,192,144131,1,8,0:0:0:0:
256,192,144366,5,0,0:0:0:0:
256,192,144835,5,4,0:0:0:0:
256,192,145069,5,0,0:0:0:0:
256,192,145186,5,0,0:0:0:0:
256,192,145303,5,8,0:0:0:0:
256,192,145538,5,8,0:0:0:0:
256,192,145772,5,0,0:0:0:0:
256,192,145889,5,8,0:0:0:0:
256,192,146006,5,0,0:0:0:0:
256,192,146241,5,0,0:0:0:0:
256,192,146358,5,0,0:0:0:0:
256,192,146475,5,8,0:0:0:0:
256,192,146710,5,8,0:0:0:0:
256,192,146944,5,8,0:0:0:0:
256,192,147198,5,4,0:0:0:0:
256,192,147706,5,0,0:0:0:0:
256,192,147966,5,8,0:0:0:0:
256,192,148243,5,4,0:0:0:0:
256,192,148814,5,12,0:0:0:0:
256,192,150001,5,0,0:0:0:0:
256,192,150307,5,8,0:0:0:0:
256,192,150460,5,0,0:0:0:0:
256,192,150613,1,8,0:0:0:0:
256,192,151382,5,4,0:0:0:0:
256,192,151599,1,0,0:0:0:0:
256,192,151708,1,0,0:0:0:0:
256,192,151816,1,8,0:0:0:0:
256,192,151925,1,8,0:0:0:0:
256,192,152034,1,0,0:0:0:0:
256,192,152251,1,8,0:0:0:0:
256,192,152468,1,8,0:0:0:0:
256,192,152577,1,0,0:0:0:0:
256,192,152686,1,8,0:0:0:0:
256,192,152795,1,0,0:0:0:0:
256,192,152903,1,8,0:0:0:0:
256,192,153012,1,8,0:0:0:0:
256,192,153121,1,0,0:0:0:0:
256,192,153338,1,0,0:0:0:0:
256,192,153447,1,8,0:0:0:0:
256,192,153555,1,0,0:0:0:0:
256,192,153664,1,0,0:0:0:0:
256,192,153773,1,8,0:0:0:0:
256,192,153990,1,8,0:0:0:0:
256,192,154208,1,0,0:0:0:0:
256,192,154316,1,8,0:0:0:0:
256,192,154425,1,8,0:0:0:0:
256,192,154534,1,8,0:0:0:0:
256,192,154642,1,0,0:0:0:0:
256,192,154860,1,8,0:0:0:0:
256,192,155150,1,8,0:0:0:0:
256,192,155439,1,0,0:0:0:0:
256,192,155729,1,8,0:0:0:0:
256,192,156019,1,0,0:0:0:0:
256,192,156309,1,0,0:0:0:0:
256,192,156599,1,8,0:0:0:0:
256,192,157034,1,0,0:0:0:0:
256,192,157142,1,8,0:0:0:0:
256,192,157251,1,8,0:0:0:0:
256,192,157360,1,0,0:0:0:0:
256,192,157468,1,8,0:0:0:0:
256,192,157686,1,8,0:0:0:0:
256,192,157903,1,0,0:0:0:0:
256,192,158121,1,8,0:0:0:0:
256,192,158338,1,4,0:0:0:0:
256,192,158555,1,0,0:0:0:0:
256,192,158664,1,0,0:0:0:0:
256,192,158773,1,8,0:0:0:0:
256,192,158882,1,0,0:0:0:0:
256,192,158990,1,8,0:0:0:0:
256,192,159208,1,8,0:0:0:0:
256,192,159425,1,8,0:0:0:0:
256,192,159534,1,0,0:0:0:0:
256,192,159642,1,8,0:0:0:0:
256,192,159751,1,0,0:0:0:0:
256,192,159860,1,8,0:0:0:0:
256,192,159968,1,8,0:0:0:0:
256,192,160077,1,0,0:0:0:0:
256,192,160295,1,0,0:0:0:0:
256,192,160403,1,8,0:0:0:0:
256,192,160512,1,0,0:0:0:0:
256,192,160621,1,0,0:0:0:0:
256,192,160729,1,8,0:0:0:0:
256,192,160947,1,8,0:0:0:0:
256,192,161164,1,0,0:0:0:0:
256,192,161273,1,8,0:0:0:0:
256,192,161382,1,0,0:0:0:0:
256,192,161490,1,8,0:0:0:0:
256,192,161599,1,8,0:0:0:0:
256,192,161816,1,12,0:0:0:0:
256,192,162034,1,0,0:0:0:0:
256,192,162468,1,0,0:0:0:0:
256,192,162686,1,8,0:0:0:0:
256,192,162903,1,8,0:0:0:0:
256,192,163012,1,8,0:0:0:0:
256,192,163121,1,0,0:0:0:0:
256,192,163229,1,8,0:0:0:0:
256,192,163338,1,8,0:0:0:0:
256,192,163447,1,8,0:0:0:0:
256,192,163555,1,0,0:0:0:0:
256,192,163773,1,0,0:0:0:0:
256,192,163882,1,8,0:0:0:0:
256,192,163990,1,0,0:0:0:0:
256,192,164099,1,0,0:0:0:0:
256,192,164208,1,8,0:0:0:0:
256,192,164425,1,8,0:0:0:0:
256,192,164642,1,0,0:0:0:0:
256,192,164751,1,0,0:0:0:0:
256,192,164860,1,0,0:0:0:0:
256,192,165077,1,8,0:0:0:0:
256,192,165295,5,4,0:0:0:0:
256,192,165512,1,0,0:0:0:0:
256,192,165621,1,0,0:0:0:0:
256,192,165729,1,8,0:0:0:0:
256,192,165838,1,8,0:0:0:0:
256,192,165947,1,0,0:0:0:0:
256,192,166164,1,8,0:0:0:0:
256,192,166382,1,8,0:0:0:0:
256,192,166490,1,8,0:0:0:0:
256,192,166599,1,0,0:0:0:0:
256,192,166708,1,0,0:0:0:0:
256,192,166816,1,8,0:0:0:0:
256,192,166925,1,8,0:0:0:0:
256,192,167034,1,0,0:0:0:0:
256,192,167251,1,0,0:0:0:0:
256,192,167360,1,8,0:0:0:0:
256,192,167468,1,0,0:0:0:0:
256,192,167577,1,0,0:0:0:0:
256,192,167686,1,8,0:0:0:0:
256,192,167903,1,8,0:0:0:0:
256,192,168121,1,0,0:0:0:0:
256,192,168229,1,0,0:0:0:0:
256,192,168338,1,8,0:0:0:0:
256,192,168447,1,0,0:0:0:0:
256,192,168555,1,8,0:0:0:0:
256,192,168664,1,8,0:0:0:0:
256,192,168773,1,0,0:0:0:0:
256,192,169063,1,0,0:0:0:0:
256,192,169208,1,0,0:0:0:0:
256,192,169353,1,8,0:0:0:0:
256,192,169497,1,8,0:0:0:0:
256,192,169642,1,0,0:0:0:0:
256,192,169787,1,0,0:0:0:0:
256,192,169932,1,8,0:0:0:0:
256,192,170077,1,0,0:0:0:0:
256,192,170222,1,8,0:0:0:0:
256,192,170367,1,8,0:0:0:0:
256,192,170512,1,8,0:0:0:0:
256,192,170947,1,0,0:0:0:0:
256,192,171055,1,0,0:0:0:0:
256,192,171164,1,0,0:0:0:0:
256,192,171273,1,0,0:0:0:0:
256,192,171382,1,8,0:0:0:0:
256,192,171599,1,0,0:0:0:0:
256,192,171816,1,8,0:0:0:0:
256,192,171961,1,8,0:0:0:0:
256,192,172106,1,8,0:0:0:0:
256,192,172251,1,4,0:0:0:0:
256,192,172468,1,0,0:0:0:0:
256,192,172577,1,0,0:0:0:0:
256,192,172686,1,8,0:0:0:0:
256,192,172795,1,8,0:0:0:0:
256,192,172903,1,0,0:0:0:0:
256,192,173121,1,8,0:0:0:0:
256,192,173338,1,8,0:0:0:0:
256,192,173447,1,8,0:0:0:0:
256,192,173555,1,0,0:0:0:0:
256,192,173664,1,8,0:0:0:0:
256,192,173773,1,8,0:0:0:0:
256,192,173882,1,8,0:0:0:0:
256,192,173990,1,0,0:0:0:0:
256,192,174208,1,0,0:0:0:0:
256,192,174316,1,8,0:0:0:0:
256,192,174425,1,0,0:0:0:0:
256,192,174534,1,0,0:0:0:0:
256,192,174642,1,8,0:0:0:0:
256,192,174860,1,8,0:0:0:0:
256,192,175077,1,0,0:0:0:0:
256,192,175186,1,8,0:0:0:0:
256,192,175295,1,0,0:0:0:0:
256,192,175403,1,8,0:0:0:0:
256,192,175512,1,8,0:0:0:0:
256,192,175729,1,12,0:0:0:0:
256,192,175947,1,0,0:0:0:0:
256,192,176055,1,0,0:0:0:0:
256,192,176164,1,8,0:0:0:0:
256,192,176273,1,0,0:0:0:0:
256,192,176382,1,8,0:0:0:0:
256,192,176599,1,8,0:0:0:0:
256,192,176816,1,8,0:0:0:0:
256,192,176925,1,0,0:0:0:0:
256,192,177034,1,8,0:0:0:0:
256,192,177142,1,0,0:0:0:0:
256,192,177251,1,0,0:0:0:0:
256,192,177468,5,12,0:0:0:0:
256,192,177903,1,8,0:0:0:0:
256,192,178048,1,8,0:0:0:0:
256,192,178193,1,8,0:0:0:0:
256,192,178338,1,0,0:0:0:0:
256,192,178483,1,0,0:0:0:0:
256,192,178628,1,0,0:0:0:0:
256,192,178773,1,8,0:0:0:0:
256,192,179208,1,4,0:0:0:0:
256,192,179425,1,0,0:0:0:0:
256,192,179534,1,0,0:0:0:0:
256,192,179642,1,8,0:0:0:0:
256,192,179860,1,8,0:0:0:0:
256,192,179968,1,8,0:0:0:0:
256,192,180077,1,0,0:0:0:0:
256,192,180186,1,8,0:0:0:0:
256,192,180295,1,0,0:0:0:0:
256,192,180512,1,8,0:0:0:0:
256,192,180729,1,8,0:0:0:0:
256,192,180947,1,0,0:0:0:0:
256,192,181164,1,0,0:0:0:0:
256,192,181273,1,0,0:0:0:0:
256,192,181382,1,8,0:0:0:0:
256,192,181599,1,8,0:0:0:0:
256,192,181816,1,0,0:0:0:0:
256,192,181925,1,8,0:0:0:0:
256,192,182034,1,8,0:0:0:0:
256,192,182142,1,8,0:0:0:0:
256,192,182251,1,0,0:0:0:0:
256,192,182360,1,8,0:0:0:0:
256,192,182468,1,8,0:0:0:0:
256,192,182686,1,8,0:0:0:0:
256,192,182795,1,8,0:0:0:0:
256,192,182903,1,0,0:0:0:0:
256,192,183121,1,0,0:0:0:0:
256,192,183338,1,8,0:0:0:0:
256,192,183555,1,0,0:0:0:0:
256,192,183773,1,0,0:0:0:0:
256,192,183990,1,8,0:0:0:0:
256,192,184425,1,8,0:0:0:0:
256,192,184860,1,8,0:0:0:0:
256,192,185077,1,0,0:0:0:0:
256,192,185186,1,0,0:0:0:0:
256,192,185295,1,8,0:0:0:0:
256,192,185403,1,8,0:0:0:0:
256,192,185512,1,8,0:0:0:0:
256,192,185621,1,8,0:0:0:0:
256,192,185729,1,0,0:0:0:0:
256,192,185838,1,0,0:0:0:0:
256,192,185947,1,8,0:0:0:0:
256,192,186164,1,4,0:0:0:0:
256,192,186382,1,0,0:0:0:0:
256,192,186490,1,0,0:0:0:0:
256,192,186599,1,8,0:0:0:0:
256,192,186816,1,8,0:0:0:0:
256,192,186925,1,8,0:0:0:0:
256,192,187034,1,0,0:0:0:0:
256,192,187142,1,0,0:0:0:0:
256,192,187251,1,0,0:0:0:0:
256,192,187468,1,8,0:0:0:0:
256,192,187686,1,8,0:0:0:0:
256,192,187903,1,0,0:0:0:0:
256,192,188121,1,0,0:0:0:0:
256,192,188229,1,0,0:0:0:0:
256,192,188338,1,8,0:0:0:0:
256,192,188555,1,0,0:0:0:0:
256,192,188773,1,0,0:0:0:0:
256,192,188882,1,8,0:0:0:0:
256,192,188990,1,8,0:0:0:0:
256,192,189099,1,8,0:0:0:0:
256,192,189208,1,0,0:0:0:0:
256,192,189316,1,8,0:0:0:0:
256,192,189425,1,8,0:0:0:0:
256,192,189642,1,0,0:0:0:0:
256,192,189860,1,0,0:0:0:0:
256,192,190077,1,12,0:0:0:0:
256,192,190512,1,0,0:0:0:0:
256,192,190729,1,0,0:0:0:0:
256,192,190947,1,12,0:0:0:0:
256,192,191382,1,12,0:0:0:0:
256,192,191708,5,0,0:0:0:0:
256,192,191816,5,8,0:0:0:0:
256,192,192034,5,0,0:0:0:0:
256,192,192251,5,12,0:0:0:0:
256,192,192686,5,8,0:0:0:0:
256,192,192831,5,8,0:0:0:0:
256,192,192976,5,8,0:0:0:0:
256,192,193121,5,4,0:0:0:0:
256,192,193338,1,0,0:0:0:0:
256,192,193447,1,0,0:0:0:0:
256,192,193555,1,8,0:0:0:0:
256,192,193773,1,8,0:0:0:0:
256,192,193882,1,8,0:0:0:0:
256,192,193990,1,0,0:0:0:0:
256,192,194099,1,8,0:0:0:0:
256,192,194208,1,0,0:0:0:0:
256,192,194425,1,8,0:0:0:0:
256,192,194642,1,8,0:0:0:0:
256,192,194751,1,8,0:0:0:0:
256,192,194860,1,0,0:0:0:0:
256,192,195077,1,8,0:0:0:0:
256,192,195186,1,0,0:0:0:0:
256,192,195295,1,0,0:0:0:0:
256,192,195512,1,8,0:0:0:0:
256,192,195729,1,0,0:0:0:0:
256,192,195838,1,8,0:0:0:0:
256,192,195947,1,8,0:0:0:0:
256,192,196055,1,8,0:0:0:0:
256,192,196164,1,0,0:0:0:0:
256,192,196273,1,8,0:0:0:0:
256,192,196382,1,8,0:0:0:0:
256,192,196599,1,8,0:0:0:0:
256,192,197034,5,8,0:0:0:0:
256,192,197251,5,8,0:0:0:0:
256,192,197324,5,8,0:0:0:0:
256,192,197396,5,8,0:0:0:0:
256,192,197468,5,0,0:0:0:0:
256,192,197903,5,0,0:0:0:0:
256,192,198121,5,0,0:0:0:0:
256,192,198338,5,8,0:0:0:0:
256,192,198773,5,8,0:0:0:0:
256,192,198990,5,0,0:0:0:0:
256,192,199099,5,8,0:0:0:0:
256,192,199208,5,0,0:0:0:0:
256,192,199425,5,8,0:0:0:0:
256,192,199642,5,8,0:0:0:0:
256,192,199787,5,8,0:0:0:0:
256,192,199932,5,8,0:0:0:0:
256,192,200077,5,4,0:0:0:0:
256,192,200367,5,0,0:0:0:0:
256,192,200657,5,8,0:0:0:0:
256,192,200947,5,0,0:0:0:0:
256,192,201237,5,8,0:0:0:0:
256,192,201382,5,0,0:0:0:0:
256,192,201526,5,0,0:0:0:0:
256,192,201816,5,4,0:0:0:0:
256,192,202106,5,8,0:0:0:0:
256,192,202396,5,0,0:0:0:0:
256,192,202686,5,8,0:0:0:0:
256,192,202976,5,0,0:0:0:0:
256,192,203121,5,0,0:0:0:0:
256,192,203266,5,8,0:0:0:0:
256,192,203555,5,0,0:0:0:0:
256,192,203845,1,0,0:0:0:0:
256,192,204157,1,8,0:0:0:0:
256,192,204470,1,0,0:0:0:0:
256,192,204780,1,8,0:0:0:0:
256,192,205127,1,8,0:0:0:0:
256,192,205465,1,12,0:0:0:0:
256,192,205815,1,0,0:0:0:0:
256,192,206181,1,8,0:0:0:0:
256,192,206573,1,0,0:0:0:0:
256,192,206965,1,8,0:0:0:0:
256,192,207395,1,8,0:0:0:0:
256,192,207834,1,4,0:0:0:0:
256,192,208302,1,0,0:0:0:0:
256,192,208419,1,8,0:0:0:0:
256,192,208537,1,8,0:0:0:0:
256,192,208771,1,0,0:0:0:0:
256,192,209005,1,0,0:0:0:0:
256,192,209240,1,8,0:0:0:0:
256,192,209357,1,8,0:0:0:0:
256,192,209591,1,8,0:0:0:0:
256,192,209709,1,0,0:0:0:0:
256,192,210177,1,8,0:0:0:0:
256,192,210412,1,0,0:0:0:0:
256,192,210646,1,0,0:0:0:0:
256,192,210763,1,0,0:0:0:0:
256,192,210998,1,0,0:0:0:0:
256,192,211115,5,8,0:0:0:0:
256,192,211232,1,0,0:0:0:0:
256,192,211466,1,0,0:0:0:0:
256,192,211584,5,8,0:0:0:0:
256,192,212052,5,0,0:0:0:0:
256,192,212287,5,8,0:0:0:0:
256,192,212521,5,0,0:0:0:0:
256,192,212638,5,0,0:0:0:0:
256,192,212755,5,8,0:0:0:0:
256,192,212990,5,8,0:0:0:0:
256,192,213107,5,0,0:0:0:0:
256,192,213341,5,0,0:0:0:0:
256,192,213459,5,8,0:0:0:0:
256,192,213927,5,8,0:0:0:0:
256,192,214396,5,12,0:0:0:0:
256,192,214630,1,0,0:0:0:0:
256,192,214865,1,12,0:0:0:0:
256,192,215334,1,4,0:0:0:0:
256,192,215568,1,8,0:0:0:0:
256,192,215802,1,0,0:0:0:0:
256,192,216037,1,8,0:0:0:0:
256,192,216271,1,0,0:0:0:0:
256,192,216388,1,0,0:0:0:0:
256,192,216505,1,8,0:0:0:0:
256,192,216740,1,8,0:0:0:0:
256,192,216857,1,0,0:0:0:0:
256,192,216974,1,8,0:0:0:0:
256,192,217209,5,0,0:0:0:0:
256,192,217443,5,8,0:0:0:0:
256,192,217560,5,8,0:0:0:0:
256,192,217677,5,0,0:0:0:0:
256,192,217912,5,8,0:0:0:0:
256,192,218146,5,8,0:0:0:0:
256,192,218263,5,0,0:0:0:0:
256,192,218380,5,8,0:0:0:0:
256,192,218615,5,8,0:0:0:0:
256,192,218732,5,8,0:0:0:0:
256,192,218849,5,0,0:0:0:0:
256,192,219084,5,0,0:0:0:0:
256,192,219318,5,0,0:0:0:0:
256,192,219552,5,8,0:0:0:0:
256,192,219787,5,8,0:0:0:0:
256,192,220021,5,0,0:0:0:0:
256,192,220138,5,0,0:0:0:0:
256,192,220255,5,8,0:0:0:0:
256,192,220490,5,8,0:0:0:0:
256,192,220607,5,0,0:0:0:0:
256,192,220724,5,8,0:0:0:0:
256,192,220959,5,0,0:0:0:0:
256,192,221076,5,0,0:0:0:0:
256,192,221193,5,8,0:0:0:0:
256,192,221310,5,8,0:0:0:0:
256,192,221427,5,0,0:0:0:0:
256,192,221662,5,8,0:0:0:0:
256,192,221896,5,0,0:0:0:0:
256,192,222130,5,0,0:0:0:0:
256,192,222365,5,0,0:0:0:0:
256,192,222599,5,8,0:0:0:0:
256,192,222834,5,12,0:0:0:0:
256,192,223302,1,0,0:0:0:0:
256,192,223419,1,8,0:0:0:0:
256,192,223537,1,8,0:0:0:0:
256,192,223771,1,0,0:0:0:0:
256,192,224005,1,0,0:0:0:0:
256,192,224240,1,8,0:0:0:0:
256,192,224357,1,8,0:0:0:0:
256,192,224591,1,8,0:0:0:0:
256,192,224709,1,0,0:0:0:0:
256,192,225177,1,8,0:0:0:0:
256,192,225294,1,8,0:0:0:0:
256,192,225412,1,0,0:0:0:0:
256,192,225646,1,0,0:0:0:0:
256,192,225763,1,0,0:0:0:0:
256,192,225998,1,0,0:0:0:0:
256,192,226115,5,8,0:0:0:0:
256,192,226232,1,0,0:0:0:0:
256,192,226466,1,0,0:0:0:0:
256,192,226584,5,8,0:0:0:0:
256,192,226818,5,0,0:0:0:0:
256,192,227052,5,0,0:0:0:0:
256,192,227169,5,0,0:0:0:0:
256,192,227287,5,8,0:0:0:0:
256,192,227521,5,0,0:0:0:0:
256,192,227638,5,0,0:0:0:0:
256,192,227755,5,8,0:0:0:0:
256,192,227990,5,8,0:0:0:0:
256,192,228107,5,0,0:0:0:0:
256,192,228341,5,0,0:0:0:0:
256,192,228459,5,8,0:0:0:0:
256,192,228927,1,0,0:0:0:0:
256,192,229396,5,12,0:0:0:0:
256,192,229630,1,0,0:0:0:0:
256,192,229865,1,12,0:0:0:0:
256,192,230334,1,4,0:0:0:0:
256,192,230568,1,8,0:0:0:0:
256,192,230802,1,0,0:0:0:0:
256,192,231037,1,8,0:0:0:0:
256,192,231271,1,0,0:0:0:0:
256,192,231388,1,0,0:0:0:0:
256,192,231505,1,8,0:0:0:0:
256,192,231740,1,8,0:0:0:0:
256,192,231857,1,8,0:0:0:0:
256,192,231974,1,0,0:0:0:0:
256,192,232209,5,0,0:0:0:0:
256,192,232326,5,8,0:0:0:0:
256,192,232443,5,8,0:0:0:0:
256,192,232560,5,8,0:0:0:0:
256,192,232677,5,0,0:0:0:0:
256,192,232912,5,8,0:0:0:0:
256,192,233146,5,0,0:0:0:0:
256,192,233263,5,0,0:0:0:0:
256,192,233380,5,8,0:0:0:0:
256,192,233498,5,0,0:0:0:0:
256,192,233615,5,8,0:0:0:0:
256,192,233732,5,8,0:0:0:0:
256,192,233849,5,0,0:0:0:0:
256,192,234084,5,0,0:0:0:0:
256,192,234318,5,8,0:0:0:0:
256,192,234435,5,0,0:0:0:0:
256,192,234552,5,8,0:0:0:0:
256,192,234787,5,8,0:0:0:0:
256,192,235021,5,0,0:0:0:0:
256,192,235138,5,0,0:0:0:0:
256,192,235255,5,8,0:0:0:0:
256,192,235490,5,8,0:0:0:0:
256,192,235607,5,0,0:0:0:0:
256,192,235724,5,8,0:0:0:0:
256,192,235959,5,0,0:0:0:0:
256,192,236076,5,0,0:0:0:0:
256,192,236193,5,8,0:0:0:0:
256,192,236310,5,8,0:0:0:0:
256,192,236427,5,0,0:0:0:0:
256,192,236662,5,8,0:0:0:0:
256,192,236896,5,0,0:0:0:0:
256,192,237130,5,0,0:0:0:0:
256,192,237365,5,8,0:0:0:0:
256,192,237599,5,8,0:0:0:0:
256,192,237834,5,4,0:0:0:0:
