osu file format v14

[General]
AudioFilename: audio.mp3
AudioLeadIn: 0
PreviewTime: 150613
Countdown: 1
SampleSet: Normal
StackLeniency: 0.7
Mode: 1
LetterboxInBreaks: 0
WidescreenStoryboard: 1

[Editor]
DistanceSpacing: 0.8
BeatDivisor: 4
GridSize: 16
TimelineZoom: 1.699999

[Metadata]
Title:Lunatic set 10 ~ Seijouki no Pierrot
TitleUnicode:Lunatic set 10 〜 星条旗のピエロ
Artist:Rin
ArtistUnicode:凛
Creator:CallMeLyra
Version:Muzukashii
Source:東方紺珠伝 ~ Legacy of Lunatic Kingdom.
Tags:th15 mpg mg mappers' guild Featured Artist FA クロネコラウンジ kuroneko lounge function phantom house trap Clownpiece クラウンピース Pierrot of the Star-Spangled Banner stage 5 boss 東方Project Touhou Instrumental Video Game Electronic Team Shanghai Alice ZUN LoLK Kanjuden Ultramarine Orb Tale 上海アリス幻楽団 SV Tech technical slider velocity
BeatmapID:3596849
BeatmapSetID:1643222

[Difficulty]
HPDrainRate:6
CircleSize:5
OverallDifficulty:4.5
ApproachRate:5
SliderMultiplier:1.4
SliderTickRate:1

[Events]
//Background and Video events
0,0,"Clownpiece.jpg",0,0
//Break Periods
//Storyboard Layer 0 (Background)
//Storyboard Layer 1 (Fail)
//Storyboard Layer 2 (Pass)
//Storyboard Layer 3 (Foreground)
//Storyboard Layer 4 (Overlay)
//Storyboard Sound Samples

[TimingPoints]
460,468.75,4,1,0,70,1,0
460,-105.263157894737,4,1,0,70,0,0
15460,-100,4,1,0,70,0,0
22901,-100,4,1,0,70,0,0
26670,-95.2380952380952,4,1,0,70,0,0
26887,-90.9090909090909,4,1,0,70,0,0
27105,-86.9565217391304,4,1,0,70,0,0
27540,-97.0873786407767,4,1,0,70,0,0
27757,-92.5925925925926,4,1,0,70,0,0
28029,-88.4955752212389,4,1,0,70,0,0
28545,-83.3333333333333,4,1,0,70,0,0
29502,-90.9090909090909,4,1,0,70,0,0
29971,-105.263157894737,4,1,0,70,0,0
30420,-125,4,1,0,80,0,0
36963,-121.951219512195,4,1,0,80,0,0
37432,-111.111111111111,4,1,0,80,0,0
37901,-100,4,1,0,80,0,0
38370,-111.111111111111,4,1,0,80,0,0
46104,-125,4,1,0,80,0,0
51963,-121.951219512195,4,1,0,80,0,0
52432,-111.111111111111,4,1,0,80,0,0
52901,-100,4,1,0,80,0,0
53370,-111.111111111111,4,1,0,80,0,0
60460,-100,4,1,0,80,0,1
71651,-95.2380952380952,4,1,0,80,0,1
71868,-90.9090909090909,4,1,0,80,0,1
72086,-86.9565217391304,4,1,0,80,0,1
72521,-97.0873786407767,4,1,0,80,0,1
72738,-92.5925925925926,4,1,0,80,0,1
73010,-88.4955752212389,4,1,0,80,0,1
73585,-95.2380952380952,4,1,0,80,0,0
74463,-125,4,1,0,80,0,0
74698,-117.647058823529,4,1,0,80,0,0
74932,-111.111111111111,4,1,0,80,0,0
75460,-100,4,1,0,80,0,1
86651,-95.2380952380952,4,1,0,80,0,1
86868,-90.9090909090909,4,1,0,80,0,1
87086,-86.9565217391304,4,1,0,80,0,1
87521,-97.0873786407767,4,1,0,80,0,1
87738,-92.5925925925926,4,1,0,80,0,1
88010,-88.4955752212389,4,1,0,80,0,1
88585,-95.2380952380952,4,1,0,80,0,0
89405,-100,4,1,0,80,0,0
111495,-83.3333333333333,4,1,0,80,0,0
111963,-90.9090909090909,4,1,0,80,0,0
112957,-100,4,1,0,80,0,0
118995,-108.695652173913,4,1,0,60,0,0
119229,-111.111111111111,4,1,0,60,0,0
119463,-113.636363636364,4,1,0,60,0,0
119698,-116.279069767442,4,1,0,60,0,0
119932,-119.047619047619,4,1,0,60,0,0
120460,-125,4,1,0,60,0,0
135460,-100,4,1,0,80,0,1
144835,-100,4,1,0,80,0,0
145245,-105.263157894737,4,1,0,80,0,0
145713,-111.111111111111,4,1,0,80,0,0
146651,-105.263157894737,4,1,0,80,0,0
146944,508.474576271186,4,1,0,80,1,8
146944,-92.1913893242371,4,1,0,80,0,0
147166,-87.7963125548727,4,1,0,80,0,0
147706,521.739130434783,4,1,0,80,1,8
147706,-99.8003992015968,4,1,0,80,0,0
147966,555.555555555556,4,1,0,80,1,8
147966,-88.8178346211919,4,1,0,80,0,0
148243,571.428571428571,4,1,0,80,1,8
148243,-82.0344544708778,4,1,0,80,0,0
148814,575.539568345323,4,1,0,80,1,0
148814,-90.2608538676776,4,1,0,80,0,0
149389,612.244897959184,4,1,0,80,1,8
149924,-117.647058823529,4,1,0,80,0,8
150230,-122.699386503067,4,1,0,80,0,8
150383,-124.223602484472,4,1,0,80,0,8
150613,769.230769230769,4,1,0,80,1,8
150901,-111.111111111111,4,1,0,80,0,8
151382,434.782608695652,4,1,0,80,1,0
151382,-100,4,1,0,80,0,0
156527,-156.25,4,1,0,50,0,0
156979,-117.647058823529,4,1,0,80,0,0
157414,-111.111111111111,4,1,0,80,0,0
157849,-105.263157894737,4,1,0,80,0,0
158284,-100,4,1,0,80,0,0
170442,-156.25,4,1,0,60,0,0
170892,-117.647058823529,4,1,0,80,0,0
171327,-111.111111111111,4,1,0,80,0,0
171762,-105.263157894737,4,1,0,80,0,0
172197,-100,4,1,0,80,0,0
178284,-117.647058823529,4,1,0,80,0,0
179208,-90.9090909090909,4,1,0,80,0,1
182686,-90.9090909090909,4,1,0,80,0,0
183012,-100,4,1,0,80,0,0
183501,-105.263157894737,4,1,0,80,0,0
183718,-106.951871657754,4,1,0,80,0,0
183936,-108.695652173913,4,1,0,80,0,0
184371,-106.382978723404,4,1,0,80,0,0
184805,-104.712041884817,4,1,0,80,0,0
185240,-103.092783505155,4,1,0,80,0,0
185349,-100.502512562814,4,1,0,80,0,0
185458,-99.009900990099,4,1,0,80,0,0
185675,-96.1538461538461,4,1,0,80,0,0
185784,-94.7867298578199,4,1,0,80,0,0
185892,-93.4579439252336,4,1,0,80,0,0
186164,-90.9090909090909,4,1,0,80,0,1
189588,-86.9565217391304,4,1,0,80,0,1
189805,-83.3333333333333,4,1,0,80,0,1
190023,-80,4,1,0,80,0,1
190458,-88.4955752212389,4,1,0,80,0,1
190675,-84.7457627118644,4,1,0,80,0,1
190947,-81.3008130081301,4,1,0,80,0,1
191381,-93.0232558139535,4,1,0,80,0,1
191382,-93.0232558139535,4,1,0,80,0,0
191762,-105.263157894737,4,1,0,80,0,0
192197,-100,4,1,0,80,0,0
192632,-95.2380952380952,4,1,0,80,0,0
193121,-90.9090909090909,4,1,0,80,0,1
196599,-90.9090909090909,4,1,0,80,0,0
196979,-83.3333333333333,4,1,0,80,0,0
197432,-100,4,1,0,80,0,0
197849,-111.111111111111,4,1,0,80,0,0
198066,-102.564102564103,4,1,0,80,0,0
198284,-95.2380952380952,4,1,0,80,0,0
198718,-105.263157894737,4,1,0,80,0,0
199153,-100,4,1,0,80,0,0
199588,-95.2380952380952,4,1,0,80,0,0
200077,-90.9090909090909,4,1,0,80,0,1
203501,-90.9090909090909,4,1,0,80,0,1
203845,468.75,4,1,0,80,1,9
203845,-86.7829558274755,4,1,0,80,0,1
204157,-89.5175006713813,4,1,0,80,0,1
204470,-92.4214417744917,4,1,0,80,0,1
204780,521.739130434783,4,1,0,80,1,9
204780,-85.8221764503948,4,1,0,80,0,1
205127,508.474576271186,4,1,0,80,1,9
205127,-91.1161731207289,4,1,0,80,0,1
205465,526.315789473685,4,1,0,80,1,0
205465,-91.1992704058368,4,1,0,80,0,0
205815,550.45871559633,4,1,0,80,1,8
205815,-90.4568068747173,4,1,0,80,0,0
206181,588.235294117647,4,1,0,80,1,8
206181,-87.9275477006946,4,1,0,80,0,0
206573,-91.4829384319824,4,1,0,80,0,0
206965,645.161290322581,4,1,0,80,1,8
206965,-86.9187309865276,4,1,0,80,0,0
207395,659.340659340659,4,1,0,80,1,8
207395,-88.7784090909091,4,1,0,80,0,0
207834,468.75,4,1,0,80,1,0
207834,-130.548302872063,4,1,0,80,0,0
208478,-125,4,1,0,80,0,0
214377,-121.951219512195,4,1,0,80,0,0
214846,-111.111111111111,4,1,0,80,0,0
215315,-100,4,1,0,80,0,0
215784,-111.111111111111,4,1,0,80,0,0
223518,-125,4,1,0,80,0,0
229377,-121.951219512195,4,1,0,80,0,0
229846,-111.111111111111,4,1,0,80,0,0
230315,-100,4,1,0,80,0,0
230784,-111.111111111111,4,1,0,80,0,0

[HitObjects]
256,192,460,5,0,0:0:0:0:
256,192,928,5,0,0:0:0:0:
256,192,1397,5,8,0:0:0:0:
256,192,1866,5,0,0:0:0:0:
256,192,2335,5,0,0:0:0:0:
256,192,2803,5,8,0:0:0:0:
256,192,3272,5,0,0:0:0:0:
256,192,3506,5,8,0:0:0:0:
256,192,3741,5,0,0:0:0:0:
256,192,3975,5,8,0:0:0:0:
256,192,4210,5,0,0:0:0:0:
256,192,4678,5,0,0:0:0:0:
256,192,5147,5,8,0:0:0:0:
256,192,5616,5,0,0:0:0:0:
256,192,6085,5,8,0:0:0:0:
256,192,6436,5,8,0:0:0:0:
256,192,6553,5,8,0:0:0:0:
256,192,6905,5,8,0:0:0:0:
256,192,7022,5,0,0:0:0:0:
256,192,7256,5,8,0:0:0:0:
256,192,7491,5,0,0:0:0:0:
256,192,7725,5,8,0:0:0:0:
256,192,7960,5,0,0:0:0:0:
256,192,8428,5,0,0:0:0:0:
256,192,8897,5,8,0:0:0:0:
256,192,9366,5,0,0:0:0:0:
256,192,9600,5,0,0:0:0:0:
256,192,9835,5,0,0:0:0:0:
256,192,10303,5,8,0:0:0:0:
256,192,10772,5,0,0:0:0:0:
256,192,11006,5,8,0:0:0:0:
256,192,11241,5,0,0:0:0:0:
256,192,11475,5,8,0:0:0:0:
256,192,11710,5,4,0:0:0:0:
256,192,11944,5,8,0:0:0:0:
256,192,12178,5,0,0:0:0:0:
256,192,12647,5,0,0:0:0:0:
256,192,12881,5,0,0:0:0:0:
256,192,13116,5,8,0:0:0:0:
256,192,13585,5,0,0:0:0:0:
256,192,14053,5,0,0:0:0:0:
256,192,14405,5,8,0:0:0:0:
256,192,14756,5,0,0:0:0:0:
256,192,14991,1,8,0:0:0:0:
256,192,15460,1,4,0:0:0:0:
256,192,15928,1,8,0:0:0:0:
256,192,16163,1,0,0:0:0:0:
256,192,16397,1,8,0:0:0:0:
256,192,16631,1,8,0:0:0:0:
256,192,16866,1,0,0:0:0:0:
256,192,17100,1,8,0:0:0:0:
256,192,17335,1,0,0:0:0:0:
256,192,17803,1,8,0:0:0:0:
256,192,18038,1,0,0:0:0:0:
256,192,18272,1,8,0:0:0:0:
256,192,18389,1,8,0:0:0:0:
256,192,18506,1,8,0:0:0:0:
256,192,18741,1,0,0:0:0:0:
256,192,18858,1,0,0:0:0:0:
256,192,18975,1,0,0:0:0:0:
256,192,19210,1,0,0:0:0:0:
256,192,19678,1,8,0:0:0:0:
256,192,19913,1,0,0:0:0:0:
256,192,20147,1,8,0:0:0:0:
256,192,20381,1,8,0:0:0:0:
256,192,20616,1,0,0:0:0:0:
256,192,20850,1,8,0:0:0:0:
256,192,21085,1,8,0:0:0:0:
256,192,21436,1,8,0:0:0:0:
256,192,21553,1,8,0:0:0:0:
256,192,22022,1,8,0:0:0:0:
256,192,22139,1,8,0:0:0:0:
256,192,22256,1,8,0:0:0:0:
256,192,22491,1,0,0:0:0:0:
256,192,22608,1,0,0:0:0:0:
256,192,22725,1,0,0:0:0:0:
256,192,22960,1,4,0:0:0:0:
256,192,23428,1,8,0:0:0:0:
256,192,23663,1,0,0:0:0:0:
256,192,23897,1,8,0:0:0:0:
256,192,24131,1,8,0:0:0:0:
256,192,24366,1,0,0:0:0:0:
256,192,24600,1,8,0:0:0:0:
256,192,24835,1,0,0:0:0:0:
256,192,25303,1,8,0:0:0:0:
256,192,25538,1,0,0:0:0:0:
256,192,25772,1,8,0:0:0:0:
256,192,25889,1,8,0:0:0:0:
256,192,26006,1,8,0:0:0:0:
256,192,26241,1,0,0:0:0:0:
256,192,26358,1,0,0:0:0:0:
256,192,26475,1,0,0:0:0:0:
256,192,26710,1,0,0:0:0:0:
256,192,26944,1,0,0:0:0:0:
256,192,27178,1,12,0:0:0:0:
256,192,27647,1,0,0:0:0:0:
256,192,27881,1,0,0:0:0:0:
256,192,28116,1,12,0:0:0:0:
256,192,28585,1,0,0:0:0:0:
256,192,29522,1,12,0:0:0:0:
256,192,29991,1,12,0:0:0:0:
256,192,30460,1,4,0:0:0:0:
256,192,30928,1,8,0:0:0:0:
256,192,31397,1,8,0:0:0:0:
256,192,31631,1,0,0:0:0:0:
256,192,31866,1,8,0:0:0:0:
256,192,31983,1,8,0:0:0:0:
256,192,32217,1,0,0:0:0:0:
256,192,32335,1,0,0:0:0:0:
256,192,32569,1,0,0:0:0:0:
256,192,32803,1,8,0:0:0:0:
256,192,33272,1,8,0:0:0:0:
256,192,33506,1,0,0:0:0:0:
256,192,33741,1,0,0:0:0:0:
256,192,33858,1,0,0:0:0:0:
256,192,34092,1,0,0:0:0:0:
256,192,34210,1,0,0:0:0:0:
256,192,34444,1,0,0:0:0:0:
256,192,34678,1,8,0:0:0:0:
256,192,35147,1,0,0:0:0:0:
256,192,35381,1,0,0:0:0:0:
256,192,35616,1,8,0:0:0:0:
256,192,35850,1,8,0:0:0:0:
256,192,36085,1,8,0:0:0:0:
256,192,36319,1,0,0:0:0:0:
256,192,36553,1,0,0:0:0:0:
256,192,36788,1,0,0:0:0:0:
256,192,37022,1,12,0:0:0:0:
256,192,37491,1,4,0:0:0:0:
256,192,37960,1,4,0:0:0:0:
256,192,38428,1,0,0:0:0:0:
256,192,38663,1,8,0:0:0:0:
256,192,38897,1,0,0:0:0:0:
256,192,39131,1,8,0:0:0:0:
256,192,39366,1,0,0:0:0:0:
256,192,39600,1,8,0:0:0:0:
256,192,39835,1,0,0:0:0:0:
256,192,40069,1,8,0:0:0:0:
256,192,40303,1,8,0:0:0:0:
256,192,40538,1,0,0:0:0:0:
256,192,40772,1,8,0:0:0:0:
256,192,40889,1,8,0:0:0:0:
256,192,41006,1,8,0:0:0:0:
256,192,41241,1,0,0:0:0:0:
256,192,41358,1,0,0:0:0:0:
256,192,41475,1,0,0:0:0:0:
256,192,41710,1,0,0:0:0:0:
256,192,42178,1,8,0:0:0:0:
256,192,42413,1,8,0:0:0:0:
256,192,42647,1,0,0:0:0:0:
256,192,42881,1,8,0:0:0:0:
256,192,43116,1,0,0:0:0:0:
256,192,43350,1,8,0:0:0:0:
256,192,43585,1,0,0:0:0:0:
256,192,43702,1,0,0:0:0:0:
256,192,43819,1,0,0:0:0:0:
256,192,44053,1,0,0:0:0:0:
256,192,44288,1,8,0:0:0:0:
256,192,44522,1,8,0:0:0:0:
256,192,44639,1,8,0:0:0:0:
256,192,44756,1,8,0:0:0:0:
256,192,44991,1,8,0:0:0:0:
256,192,45108,1,8,0:0:0:0:
256,192,45225,1,8,0:0:0:0:
256,192,45460,1,4,0:0:0:0:
256,192,46163,1,8,0:0:0:0:
256,192,46397,1,0,0:0:0:0:
256,192,46866,1,8,0:0:0:0:
256,192,46983,1,8,0:0:0:0:
256,192,47217,1,0,0:0:0:0:
256,192,47335,1,0,0:0:0:0:
256,192,47803,1,8,0:0:0:0:
256,192,48038,1,0,0:0:0:0:
256,192,48272,1,0,0:0:0:0:
256,192,48741,1,8,0:0:0:0:
256,192,48858,1,8,0:0:0:0:
256,192,49092,1,0,0:0:0:0:
256,192,49210,5,0,0:0:0:0:
256,192,49678,5,0,0:0:0:0:
256,192,50147,5,8,0:0:0:0:
256,192,50264,5,8,0:0:0:0:
256,192,50381,5,8,0:0:0:0:
256,192,50616,5,0,0:0:0:0:
256,192,50733,5,0,0:0:0:0:
256,192,50967,5,8,0:0:0:0:
256,192,51085,5,8,0:0:0:0:
256,192,51553,1,0,0:0:0:0:
256,192,52022,5,12,0:0:0:0:
256,192,52491,1,12,0:0:0:0:
256,192,52960,1,4,0:0:0:0:
256,192,53428,1,0,0:0:0:0:
256,192,53663,1,8,0:0:0:0:
256,192,53897,1,0,0:0:0:0:
256,192,54014,1,0,0:0:0:0:
256,192,54131,1,0,0:0:0:0:
256,192,54366,1,0,0:0:0:0:
256,192,54600,1,8,0:0:0:0:
256,192,54835,1,0,0:0:0:0:
256,192,54952,1,0,0:0:0:0:
256,192,55069,1,0,0:0:0:0:
256,192,55303,1,8,0:0:0:0:
256,192,55538,1,0,0:0:0:0:
256,192,55772,1,8,0:0:0:0:
256,192,55889,1,8,0:0:0:0:
256,192,56006,1,8,0:0:0:0:
256,192,56241,1,0,0:0:0:0:
256,192,56358,1,0,0:0:0:0:
256,192,56475,1,0,0:0:0:0:
256,192,56710,1,0,0:0:0:0:
256,192,57178,1,8,0:0:0:0:
256,192,57413,1,8,0:0:0:0:
256,192,57647,1,0,0:0:0:0:
256,192,57881,1,8,0:0:0:0:
256,192,58116,1,0,0:0:0:0:
256,192,58350,1,8,0:0:0:0:
256,192,58585,1,0,0:0:0:0:
256,192,58702,1,0,0:0:0:0:
256,192,58819,5,8,0:0:0:0:
256,192,59053,1,0,0:0:0:0:
256,192,59288,1,8,0:0:0:0:
256,192,59522,1,8,0:0:0:0:
256,192,59756,1,0,0:0:0:0:
256,192,59991,5,8,0:0:0:0:
256,192,60460,5,12,0:0:0:0:
256,192,60928,5,8,0:0:0:0:
256,192,61163,5,0,0:0:0:0:
256,192,61397,5,8,0:0:0:0:
256,192,61514,5,8,0:0:0:0:
256,192,61631,1,8,0:0:0:0:
256,192,61866,5,8,0:0:0:0:
256,192,62100,1,0,0:0:0:0:
256,192,62335,5,0,0:0:0:0:
256,192,62803,5,8,0:0:0:0:
256,192,63038,5,8,0:0:0:0:
256,192,63272,5,0,0:0:0:0:
256,192,63389,5,0,0:0:0:0:
256,192,63506,5,8,0:0:0:0:
256,192,63741,5,0,0:0:0:0:
256,192,63858,5,0,0:0:0:0:
256,192,63975,5,0,0:0:0:0:
256,192,64210,5,8,0:0:0:0:
256,192,64444,5,0,0:0:0:0:
256,192,64678,5,0,0:0:0:0:
256,192,64913,5,8,0:0:0:0:
256,192,65147,5,0,0:0:0:0:
256,192,65381,5,8,0:0:0:0:
256,192,65616,5,0,0:0:0:0:
256,192,65850,5,8,0:0:0:0:
256,192,66085,5,8,0:0:0:0:
256,192,66436,5,0,0:0:0:0:
256,192,66553,5,8,0:0:0:0:
256,192,67022,5,0,0:0:0:0:
256,192,67139,5,0,0:0:0:0:
256,192,67256,5,8,0:0:0:0:
256,192,67491,5,0,0:0:0:0:
256,192,67608,5,0,0:0:0:0:
256,192,67725,5,0,0:0:0:0:
256,192,67960,5,12,0:0:0:0:
256,192,68428,5,8,0:0:0:0:
256,192,68663,5,0,0:0:0:0:
256,192,68897,5,8,0:0:0:0:
256,192,69014,5,8,0:0:0:0:
256,192,69131,1,8,0:0:0:0:
256,192,69366,5,0,0:0:0:0:
256,192,69600,1,8,0:0:0:0:
256,192,69835,5,0,0:0:0:0:
256,192,70303,5,8,0:0:0:0:
256,192,70538,5,0,0:0:0:0:
256,192,70772,5,0,0:0:0:0:
256,192,70889,5,0,0:0:0:0:
256,192,71006,5,8,0:0:0:0:
256,192,71241,5,0,0:0:0:0:
256,192,71358,5,0,0:0:0:0:
256,192,71475,5,8,0:0:0:0:
256,192,71710,5,8,0:0:0:0:
256,192,71944,5,8,0:0:0:0:
256,192,72178,5,4,0:0:0:0:
256,192,72647,5,0,0:0:0:0:
256,192,72881,5,8,0:0:0:0:
256,192,73116,5,4,0:0:0:0:
256,192,73585,5,12,0:0:0:0:
256,192,74522,5,12,0:0:0:0:
256,192,74756,1,0,0:0:0:0:
256,192,74991,5,12,0:0:0:0:
256,192,75460,5,12,0:0:0:0:
256,192,75928,5,8,0:0:0:0:
256,192,76163,5,0,0:0:0:0:
256,192,76397,5,8,0:0:0:0:
256,192,76514,5,8,0:0:0:0:
256,192,76631,1,8,0:0:0:0:
256,192,76866,5,8,0:0:0:0:
256,192,77100,1,0,0:0:0:0:
256,192,77335,5,0,0:0:0:0:
256,192,77803,5,8,0:0:0:0:
256,192,78038,5,8,0:0:0:0:
256,192,78272,5,0,0:0:0:0:
256,192,78389,5,0,0:0:0:0:
256,192,78506,5,8,0:0:0:0:
256,192,78741,5,0,0:0:0:0:
256,192,78858,5,0,0:0:0:0:
256,192,78975,5,0,0:0:0:0:
256,192,79210,5,8,0:0:0:0:
256,192,79444,5,0,0:0:0:0:
256,192,79678,5,0,0:0:0:0:
256,192,79913,5,8,0:0:0:0:
256,192,80147,5,0,0:0:0:0:
256,192,80381,5,8,0:0:0:0:
256,192,80616,5,0,0:0:0:0:
256,192,80850,5,8,0:0:0:0:
256,192,81085,5,8,0:0:0:0:
256,192,81436,5,0,0:0:0:0:
256,192,81553,5,8,0:0:0:0:
256,192,82022,5,0,0:0:0:0:
256,192,82139,5,0,0:0:0:0:
256,192,82256,5,8,0:0:0:0:
256,192,82491,5,8,0:0:0:0:
256,192,82608,5,8,0:0:0:0:
256,192,82725,5,8,0:0:0:0:
256,192,82960,5,8,0:0:0:0:
256,192,83428,5,8,0:0:0:0:
256,192,83663,5,0,0:0:0:0:
256,192,83897,5,8,0:0:0:0:
256,192,84014,5,8,0:0:0:0:
256,192,84131,1,8,0:0:0:0:
256,192,84366,5,0,0:0:0:0:
256,192,84600,1,8,0:0:0:0:
256,192,84835,5,0,0:0:0:0:
256,192,85303,5,8,0:0:0:0:
256,192,85538,5,0,0:0:0:0:
256,192,85772,5,0,0:0:0:0:
256,192,85889,5,0,0:0:0:0:
256,192,86006,5,8,0:0:0:0:
256,192,86241,5,0,0:0:0:0:
256,192,86358,5,0,0:0:0:0:
256,192,86475,5,8,0:0:0:0:
256,192,86710,5,8,0:0:0:0:
256,192,86944,5,8,0:0:0:0:
256,192,87178,5,4,0:0:0:0:
256,192,87647,5,0,0:0:0:0:
256,192,87881,5,8,0:0:0:0:
256,192,88116,5,4,0:0:0:0:
256,192,88585,5,12,0:0:0:0:
256,192,89522,5,8,0:0:0:0:
256,192,89756,5,8,0:0:0:0:
256,192,89991,5,0,0:0:0:0:
256,192,90108,5,8,0:0:0:0:
256,192,90342,5,8,0:0:0:0:
256,192,90460,5,0,0:0:0:0:
256,192,90928,5,8,0:0:0:0:
256,192,91163,5,8,0:0:0:0:
256,192,91397,5,0,0:0:0:0:
256,192,91631,5,8,0:0:0:0:
256,192,91866,5,8,0:0:0:0:
256,192,92100,5,8,0:0:0:0:
256,192,92217,5,8,0:0:0:0:
256,192,92335,5,0,0:0:0:0:
256,192,92569,5,8,0:0:0:0:
256,192,92803,5,0,0:0:0:0:
256,192,93038,5,8,0:0:0:0:
256,192,93272,5,0,0:0:0:0:
256,192,93389,5,0,0:0:0:0:
256,192,93506,5,8,0:0:0:0:
256,192,93741,5,8,0:0:0:0:
256,192,93858,5,8,0:0:0:0:
256,192,93975,5,8,0:0:0:0:
256,192,94210,5,0,0:0:0:0:
256,192,94678,5,8,0:0:0:0:
256,192,94913,5,8,0:0:0:0:
256,192,95147,5,0,0:0:0:0:
256,192,95381,5,0,0:0:0:0:
256,192,95616,5,8,0:0:0:0:
256,192,95850,5,8,0:0:0:0:
256,192,95967,5,8,0:0:0:0:
256,192,96085,5,0,0:0:0:0:
256,192,96319,5,0,0:0:0:0:
256,192,96436,5,0,0:0:0:0:
256,192,96553,5,0,0:0:0:0:
256,192,96788,5,8,0:0:0:0:
256,192,97022,5,4,0:0:0:0:
256,192,97491,5,12,0:0:0:0:
256,192,97960,5,4,0:0:0:0:
256,192,98428,1,0,0:0:0:0:
256,192,98663,1,8,0:0:0:0:
256,192,98897,1,0,0:0:0:0:
256,192,99131,1,8,0:0:0:0:
256,192,99366,1,8,0:0:0:0:
256,192,99483,1,8,0:0:0:0:
256,192,99600,1,8,0:0:0:0:
256,192,99835,1,0,0:0:0:0:
256,192,100069,1,8,0:0:0:0:
256,192,100303,1,8,0:0:0:0:
256,192,100538,1,0,0:0:0:0:
256,192,100772,1,8,0:0:0:0:
256,192,100889,1,8,0:0:0:0:
256,192,101006,1,8,0:0:0:0:
256,192,101241,1,0,0:0:0:0:
256,192,101358,1,0,0:0:0:0:
256,192,101475,1,0,0:0:0:0:
256,192,101710,1,0,0:0:0:0:
256,192,102178,1,8,0:0:0:0:
256,192,102413,1,8,0:0:0:0:
256,192,102647,1,0,0:0:0:0:
256,192,102881,1,8,0:0:0:0:
256,192,103116,1,8,0:0:0:0:
256,192,103233,1,8,0:0:0:0:
256,192,103350,1,8,0:0:0:0:
256,192,103585,1,0,0:0:0:0:
256,192,103819,1,8,0:0:0:0:
256,192,104053,1,0,0:0:0:0:
256,192,104288,5,8,0:0:0:0:
256,192,104522,1,8,0:0:0:0:
256,192,104639,1,8,0:0:0:0:
256,192,104756,1,8,0:0:0:0:
256,192,104991,1,8,0:0:0:0:
256,192,105108,1,8,0:0:0:0:
256,192,105225,1,8,0:0:0:0:
256,192,105460,1,4,0:0:0:0:
256,192,105928,1,8,0:0:0:0:
256,192,106163,1,8,0:0:0:0:
256,192,106397,1,0,0:0:0:0:
256,192,106631,1,0,0:0:0:0:
256,192,106866,1,8,0:0:0:0:
256,192,106983,1,8,0:0:0:0:
256,192,107217,1,0,0:0:0:0:
256,192,107335,1,0,0:0:0:0:
256,192,107569,1,8,0:0:0:0:
256,192,107803,1,8,0:0:0:0:
256,192,108038,1,0,0:0:0:0:
256,192,108272,1,0,0:0:0:0:
256,192,108389,1,0,0:0:0:0:
256,192,108506,1,0,0:0:0:0:
256,192,108741,1,8,0:0:0:0:
256,192,108858,1,8,0:0:0:0:
256,192,108975,1,8,0:0:0:0:
256,192,109210,5,0,0:0:0:0:
256,192,109678,5,0,0:0:0:0:
256,192,109913,5,8,0:0:0:0:
256,192,110147,5,0,0:0:0:0:
256,192,110264,5,0,0:0:0:0:
256,192,110381,5,0,0:0:0:0:
256,192,110616,5,8,0:0:0:0:
256,192,110733,5,0,0:0:0:0:
256,192,110967,5,0,0:0:0:0:
256,192,111085,5,8,0:0:0:0:
256,192,111553,5,8,0:0:0:0:
256,192,112022,5,8,0:0:0:0:
256,192,112960,1,4,0:0:0:0:
256,192,113428,1,0,0:0:0:0:
256,192,113663,1,8,0:0:0:0:
256,192,113897,1,0,0:0:0:0:
256,192,114014,1,0,0:0:0:0:
256,192,114131,1,0,0:0:0:0:
256,192,114366,1,0,0:0:0:0:
256,192,114600,1,8,0:0:0:0:
256,192,114835,1,0,0:0:0:0:
256,192,115069,1,8,0:0:0:0:
256,192,115186,1,8,0:0:0:0:
256,192,115303,1,8,0:0:0:0:
256,192,115538,1,0,0:0:0:0:
256,192,115772,1,8,0:0:0:0:
256,192,115889,1,8,0:0:0:0:
256,192,116006,1,8,0:0:0:0:
256,192,116241,1,0,0:0:0:0:
256,192,116358,1,0,0:0:0:0:
256,192,116475,1,0,0:0:0:0:
256,192,116710,1,0,0:0:0:0:
256,192,117178,1,8,0:0:0:0:
256,192,117413,1,8,0:0:0:0:
256,192,117647,1,0,0:0:0:0:
256,192,117764,1,0,0:0:0:0:
256,192,117881,1,8,0:0:0:0:
256,192,118116,1,0,0:0:0:0:
256,192,118350,1,8,0:0:0:0:
256,192,118585,1,0,0:0:0:0:
256,192,119053,1,0,0:0:0:0:
256,192,119288,1,8,0:0:0:0:
256,192,119522,1,8,0:0:0:0:
256,192,119756,1,0,0:0:0:0:
256,192,119991,5,8,0:0:0:0:
256,192,120460,5,12,0:0:0:0:
256,192,120928,5,8,0:0:0:0:
256,192,121163,5,0,0:0:0:0:
256,192,121397,5,8,0:0:0:0:
256,192,121866,5,8,0:0:0:0:
256,192,122335,5,8,0:0:0:0:
256,192,122803,5,8,0:0:0:0:
256,192,123272,5,0,0:0:0:0:
256,192,123741,5,8,0:0:0:0:
256,192,123975,5,0,0:0:0:0:
256,192,124210,5,8,0:0:0:0:
256,192,124444,5,0,0:0:0:0:
256,192,124678,5,0,0:0:0:0:
256,192,124913,5,8,0:0:0:0:
256,192,125147,5,0,0:0:0:0:
256,192,125381,5,0,0:0:0:0:
256,192,125616,5,0,0:0:0:0:
256,192,125850,5,8,0:0:0:0:
256,192,126085,5,0,0:0:0:0:
256,192,126553,5,8,0:0:0:0:
256,192,127022,5,0,0:0:0:0:
256,192,127256,5,8,0:0:0:0:
256,192,127374,5,8,0:0:0:0:
256,192,127608,5,8,0:0:0:0:
256,192,127725,5,8,0:0:0:0:
256,192,127960,5,12,0:0:0:0:
256,192,128428,5,8,0:0:0:0:
256,192,128663,5,0,0:0:0:0:
256,192,128897,5,8,0:0:0:0:
256,192,129366,5,8,0:0:0:0:
256,192,129835,5,8,0:0:0:0:
256,192,130303,5,8,0:0:0:0:
256,192,130772,5,0,0:0:0:0:
256,192,131241,5,0,0:0:0:0:
256,192,131475,5,0,0:0:0:0:
256,192,131710,5,8,0:0:0:0:
256,192,131944,5,8,0:0:0:0:
256,192,132178,5,4,0:0:0:0:
256,192,132647,5,0,0:0:0:0:
256,192,132881,5,8,0:0:0:0:
256,192,133116,5,4,0:0:0:0:
256,192,133585,5,12,0:0:0:0:
256,192,134053,5,8,0:0:0:0:
256,192,134522,5,12,0:0:0:0:
256,192,134756,5,0,0:0:0:0:
256,192,134991,5,12,0:0:0:0:
256,192,135460,5,12,0:0:0:0:
256,192,135928,5,8,0:0:0:0:
256,192,136163,5,0,0:0:0:0:
256,192,136397,5,0,0:0:0:0:
256,192,136514,5,0,0:0:0:0:
256,192,136631,1,0,0:0:0:0:
256,192,136866,5,8,0:0:0:0:
256,192,137100,1,0,0:0:0:0:
256,192,137335,5,0,0:0:0:0:
256,192,137803,5,8,0:0:0:0:
256,192,138038,5,8,0:0:0:0:
256,192,138272,5,0,0:0:0:0:
256,192,138389,5,0,0:0:0:0:
256,192,138506,5,8,0:0:0:0:
256,192,138741,5,0,0:0:0:0:
256,192,138858,5,0,0:0:0:0:
256,192,138975,5,0,0:0:0:0:
256,192,139210,5,8,0:0:0:0:
256,192,139444,5,0,0:0:0:0:
256,192,139678,5,0,0:0:0:0:
256,192,139913,5,8,0:0:0:0:
256,192,140147,5,0,0:0:0:0:
256,192,140381,5,0,0:0:0:0:
256,192,140616,5,0,0:0:0:0:
256,192,140850,5,8,0:0:0:0:
256,192,141085,5,8,0:0:0:0:
256,192,141436,5,0,0:0:0:0:
256,192,141553,5,8,0:0:0:0:
256,192,142022,5,0,0:0:0:0:
256,192,142139,5,0,0:0:0:0:
256,192,142256,5,8,0:0:0:0:
256,192,142491,5,0,0:0:0:0:
256,192,142608,5,0,0:0:0:0:
256,192,142725,5,0,0:0:0:0:
256,192,142960,5,12,0:0:0:0:
256,192,143428,5,8,0:0:0:0:
256,192,143663,5,0,0:0:0:0:
256,192,143897,5,0,0:0:0:0:
256,192,144014,5,0,0:0:0:0:
256,192,144131,1,0,0:0:0:0:
256,192,144366,5,0,0:0:0:0:
256,192,144600,1,8,0:0:0:0:
256,192,144835,5,0,0:0:0:0:
256,192,145303,5,8,0:0:0:0:
256,192,145772,5,8,0:0:0:0:
256,192,145889,5,8,0:0:0:0:
256,192,146006,5,8,0:0:0:0:
256,192,146241,5,0,0:0:0:0:
256,192,146475,5,8,0:0:0:0:
256,192,146710,5,8,0:0:0:0:
256,192,146944,5,8,0:0:0:0:
256,192,147198,5,4,0:0:0:0:
256,192,147706,5,0,0:0:0:0:
256,192,147966,5,8,0:0:0:0:
256,192,148243,5,4,0:0:0:0:
256,192,148814,5,12,0:0:0:0:
256,192,151382,5,4,0:0:0:0:
256,192,151599,1,0,0:0:0:0:
256,192,151708,1,0,0:0:0:0:
256,192,151816,1,0,0:0:0:0:
256,192,152034,1,0,0:0:0:0:
256,192,152251,1,8,0:0:0:0:
256,192,152468,1,8,0:0:0:0:
256,192,152577,1,8,0:0:0:0:
256,192,152686,1,0,0:0:0:0:
256,192,152903,1,8,0:0:0:0:
256,192,153338,1,0,0:0:0:0:
256,192,153555,1,0,0:0:0:0:
256,192,153664,1,0,0:0:0:0:
256,192,153773,1,0,0:0:0:0:
256,192,153990,1,8,0:0:0:0:
256,192,154208,1,0,0:0:0:0:
256,192,154316,1,0,0:0:0:0:
256,192,154425,1,8,0:0:0:0:
256,192,154642,1,8,0:0:0:0:
256,192,154860,1,0,0:0:0:0:
256,192,157034,1,8,0:0:0:0:
256,192,157468,1,8,0:0:0:0:
256,192,157903,1,0,0:0:0:0:
256,192,158338,1,4,0:0:0:0:
256,192,158555,1,0,0:0:0:0:
256,192,158664,1,0,0:0:0:0:
256,192,158773,1,8,0:0:0:0:
256,192,158990,1,0,0:0:0:0:
256,192,159208,1,8,0:0:0:0:
256,192,159425,1,8,0:0:0:0:
256,192,159534,1,8,0:0:0:0:
256,192,159642,1,8,0:0:0:0:
256,192,159860,1,8,0:0:0:0:
256,192,160077,1,0,0:0:0:0:
256,192,160295,1,0,0:0:0:0:
256,192,160403,1,0,0:0:0:0:
256,192,160512,1,0,0:0:0:0:
256,192,160729,1,0,0:0:0:0:
256,192,160947,1,8,0:0:0:0:
256,192,161164,1,0,0:0:0:0:
256,192,161273,1,0,0:0:0:0:
256,192,161382,1,0,0:0:0:0:
256,192,161599,1,8,0:0:0:0:
256,192,161816,1,12,0:0:0:0:
256,192,162034,1,0,0:0:0:0:
256,192,162686,1,8,0:0:0:0:
256,192,162903,1,8,0:0:0:0:
256,192,163012,1,8,0:0:0:0:
256,192,163121,1,8,0:0:0:0:
256,192,163338,1,8,0:0:0:0:
256,192,163773,1,0,0:0:0:0:
256,192,163990,1,0,0:0:0:0:
256,192,164208,1,8,0:0:0:0:
256,192,164425,1,8,0:0:0:0:
256,192,164642,1,0,0:0:0:0:
256,192,164751,1,0,0:0:0:0:
256,192,164860,1,0,0:0:0:0:
256,192,165077,1,8,0:0:0:0:
256,192,165295,5,4,0:0:0:0:
256,192,165512,1,0,0:0:0:0:
256,192,165621,1,0,0:0:0:0:
256,192,165729,1,0,0:0:0:0:
256,192,165947,1,0,0:0:0:0:
256,192,166164,1,8,0:0:0:0:
256,192,166382,1,0,0:0:0:0:
256,192,166490,1,0,0:0:0:0:
256,192,166599,1,8,0:0:0:0:
256,192,166816,1,8,0:0:0:0:
256,192,167251,1,0,0:0:0:0:
256,192,167468,1,0,0:0:0:0:
256,192,167577,1,0,0:0:0:0:
256,192,167686,1,0,0:0:0:0:
256,192,167903,1,8,0:0:0:0:
256,192,168121,1,0,0:0:0:0:
256,192,168229,1,0,0:0:0:0:
256,192,168338,1,8,0:0:0:0:
256,192,168555,1,8,0:0:0:0:
256,192,168773,1,0,0:0:0:0:
256,192,170947,5,0,0:0:0:0:
256,192,171382,1,8,0:0:0:0:
256,192,171816,1,8,0:0:0:0:
256,192,172251,1,4,0:0:0:0:
256,192,172468,1,0,0:0:0:0:
256,192,172577,1,0,0:0:0:0:
256,192,172686,1,0,0:0:0:0:
256,192,172903,1,0,0:0:0:0:
256,192,173121,1,8,0:0:0:0:
256,192,173338,1,8,0:0:0:0:
256,192,173447,1,8,0:0:0:0:
256,192,173555,1,0,0:0:0:0:
256,192,173773,1,8,0:0:0:0:
256,192,173990,1,0,0:0:0:0:
256,192,174208,1,0,0:0:0:0:
256,192,174425,1,0,0:0:0:0:
256,192,174534,1,0,0:0:0:0:
256,192,174642,1,0,0:0:0:0:
256,192,174860,1,8,0:0:0:0:
256,192,175077,1,0,0:0:0:0:
256,192,175186,1,0,0:0:0:0:
256,192,175295,1,0,0:0:0:0:
256,192,175512,1,8,0:0:0:0:
256,192,175729,1,12,0:0:0:0:
256,192,175947,1,0,0:0:0:0:
256,192,176599,1,8,0:0:0:0:
256,192,176816,1,0,0:0:0:0:
256,192,176925,1,0,0:0:0:0:
256,192,177034,1,0,0:0:0:0:
256,192,177251,1,0,0:0:0:0:
256,192,177468,5,12,0:0:0:0:
256,192,178338,1,0,0:0:0:0:
256,192,179208,1,4,0:0:0:0:
256,192,179425,1,0,0:0:0:0:
256,192,179642,1,8,0:0:0:0:
256,192,179860,1,8,0:0:0:0:
256,192,179968,1,8,0:0:0:0:
256,192,180077,1,0,0:0:0:0:
256,192,180295,1,0,0:0:0:0:
256,192,180512,1,8,0:0:0:0:
256,192,180729,1,8,0:0:0:0:
256,192,180947,1,0,0:0:0:0:
256,192,181164,1,0,0:0:0:0:
256,192,181273,1,0,0:0:0:0:
256,192,181382,1,8,0:0:0:0:
256,192,181599,1,8,0:0:0:0:
256,192,181816,1,8,0:0:0:0:
256,192,181925,1,8,0:0:0:0:
256,192,182034,1,8,0:0:0:0:
256,192,182251,1,0,0:0:0:0:
256,192,182360,1,0,0:0:0:0:
256,192,182468,1,0,0:0:0:0:
256,192,182686,1,8,0:0:0:0:
256,192,183121,1,0,0:0:0:0:
256,192,183555,1,0,0:0:0:0:
256,192,183773,1,0,0:0:0:0:
256,192,183990,1,8,0:0:0:0:
256,192,184425,1,8,0:0:0:0:
256,192,184860,1,8,0:0:0:0:
256,192,185295,1,8,0:0:0:0:
256,192,185403,1,8,0:0:0:0:
256,192,185512,1,8,0:0:0:0:
256,192,185729,1,0,0:0:0:0:
256,192,185838,1,0,0:0:0:0:
256,192,185947,1,0,0:0:0:0:
256,192,186164,1,4,0:0:0:0:
256,192,186382,1,0,0:0:0:0:
256,192,186599,1,8,0:0:0:0:
256,192,186816,1,8,0:0:0:0:
256,192,186925,1,8,0:0:0:0:
256,192,187034,1,0,0:0:0:0:
256,192,187251,1,0,0:0:0:0:
256,192,187468,1,8,0:0:0:0:
256,192,187686,1,8,0:0:0:0:
256,192,187903,1,0,0:0:0:0:
256,192,188121,1,0,0:0:0:0:
256,192,188229,1,0,0:0:0:0:
256,192,188338,1,8,0:0:0:0:
256,192,188555,1,0,0:0:0:0:
256,192,188773,1,8,0:0:0:0:
256,192,188882,1,8,0:0:0:0:
256,192,188990,1,8,0:0:0:0:
256,192,189208,1,0,0:0:0:0:
256,192,189316,1,0,0:0:0:0:
256,192,189425,1,0,0:0:0:0:
256,192,189642,1,0,0:0:0:0:
256,192,189860,1,0,0:0:0:0:
256,192,190077,1,12,0:0:0:0:
256,192,190512,1,0,0:0:0:0:
256,192,190729,1,0,0:0:0:0:
256,192,190947,1,12,0:0:0:0:
256,192,191382,1,12,0:0:0:0:
256,192,191816,5,0,0:0:0:0:
256,192,192251,5,12,0:0:0:0:
256,192,192686,5,12,0:0:0:0:
256,192,193121,5,4,0:0:0:0:
256,192,193338,1,0,0:0:0:0:
256,192,193555,1,8,0:0:0:0:
256,192,193773,1,8,0:0:0:0:
256,192,193881,1,8,0:0:0:0:
256,192,193990,1,0,0:0:0:0:
256,192,194208,1,0,0:0:0:0:
256,192,194425,1,8,0:0:0:0:
256,192,194642,1,8,0:0:0:0:
256,192,194860,1,0,0:0:0:0:
256,192,195077,1,0,0:0:0:0:
256,192,195186,1,0,0:0:0:0:
256,192,195295,1,8,0:0:0:0:
256,192,195512,1,8,0:0:0:0:
256,192,195729,1,8,0:0:0:0:
256,192,195838,1,8,0:0:0:0:
256,192,195947,1,8,0:0:0:0:
256,192,196164,1,0,0:0:0:0:
256,192,196273,1,0,0:0:0:0:
256,192,196381,1,0,0:0:0:0:
256,192,196599,1,8,0:0:0:0:
256,192,197034,5,8,0:0:0:0:
256,192,197468,5,0,0:0:0:0:
256,192,197903,5,0,0:0:0:0:
256,192,198121,5,0,0:0:0:0:
256,192,198338,5,8,0:0:0:0:
256,192,198773,5,0,0:0:0:0:
256,192,199208,5,8,0:0:0:0:
256,192,199642,5,8,0:0:0:0:
256,192,200077,5,4,0:0:0:0:
256,192,200367,5,0,0:0:0:0:
256,192,200657,5,8,0:0:0:0:
256,192,200947,5,0,0:0:0:0:
256,192,201237,5,8,0:0:0:0:
256,192,201526,5,0,0:0:0:0:
256,192,201816,5,4,0:0:0:0:
256,192,202106,5,8,0:0:0:0:
256,192,202396,5,0,0:0:0:0:
256,192,202686,5,8,0:0:0:0:
256,192,202976,5,0,0:0:0:0:
256,192,203266,5,8,0:0:0:0:
256,192,203555,5,0,0:0:0:0:
256,192,203845,5,0,0:0:0:0:
256,192,204157,1,8,0:0:0:0:
256,192,204470,5,0,0:0:0:0:
256,192,204780,1,8,0:0:0:0:
256,192,205127,1,8,0:0:0:0:
256,192,205465,1,12,0:0:0:0:
256,192,205815,1,0,0:0:0:0:
256,192,206181,1,8,0:0:0:0:
256,192,206573,1,0,0:0:0:0:
256,192,206965,1,8,0:0:0:0:
256,192,207395,1,8,0:0:0:0:
256,192,207834,1,4,0:0:0:0:
256,192,208537,1,8,0:0:0:0:
256,192,208771,1,0,0:0:0:0:
256,192,209240,1,8,0:0:0:0:
256,192,209357,1,8,0:0:0:0:
256,192,209591,1,0,0:0:0:0:
256,192,209709,1,0,0:0:0:0:
256,192,210177,1,8,0:0:0:0:
256,192,210412,1,0,0:0:0:0:
256,192,210646,1,0,0:0:0:0:
256,192,211115,1,8,0:0:0:0:
256,192,211232,1,8,0:0:0:0:
256,192,211466,1,0,0:0:0:0:
256,192,211584,5,0,0:0:0:0:
256,192,212052,5,0,0:0:0:0:
256,192,212521,5,0,0:0:0:0:
256,192,212755,5,8,0:0:0:0:
256,192,212990,5,0,0:0:0:0:
256,192,213107,5,0,0:0:0:0:
256,192,213341,5,8,0:0:0:0:
256,192,213459,5,8,0:0:0:0:
256,192,213927,5,8,0:0:0:0:
256,192,214396,5,12,0:0:0:0:
256,192,214865,1,12,0:0:0:0:
256,192,215334,1,4,0:0:0:0:
256,192,215802,1,8,0:0:0:0:
256,192,216037,1,8,0:0:0:0:
256,192,216271,1,0,0:0:0:0:
256,192,216505,1,8,0:0:0:0:
256,192,216740,1,0,0:0:0:0:
256,192,216974,1,8,0:0:0:0:
256,192,217209,1,0,0:0:0:0:
256,192,217443,1,8,0:0:0:0:
256,192,217677,1,8,0:0:0:0:
256,192,217912,1,0,0:0:0:0:
256,192,218146,1,8,0:0:0:0:
256,192,218263,1,8,0:0:0:0:
256,192,218380,1,8,0:0:0:0:
256,192,218615,1,0,0:0:0:0:
256,192,218732,1,0,0:0:0:0:
256,192,218849,1,0,0:0:0:0:
256,192,219084,1,0,0:0:0:0:
256,192,219552,1,8,0:0:0:0:
256,192,219787,1,8,0:0:0:0:
256,192,220021,1,0,0:0:0:0:
256,192,220255,1,8,0:0:0:0:
256,192,220490,1,0,0:0:0:0:
256,192,220724,1,8,0:0:0:0:
256,192,220959,1,0,0:0:0:0:
256,192,221076,1,0,0:0:0:0:
256,192,221193,1,0,0:0:0:0:
256,192,221427,1,0,0:0:0:0:
256,192,221662,1,8,0:0:0:0:
256,192,221896,1,8,0:0:0:0:
256,192,222013,1,8,0:0:0:0:
256,192,222130,5,8,0:0:0:0:
256,192,222365,1,8,0:0:0:0:
256,192,222482,1,8,0:0:0:0:
256,192,222599,1,8,0:0:0:0:
256,192,222834,5,4,0:0:0:0:
256,192,223537,1,8,0:0:0:0:
256,192,223771,1,0,0:0:0:0:
256,192,224240,1,8,0:0:0:0:
256,192,224357,1,8,0:0:0:0:
256,192,224591,1,0,0:0:0:0:
256,192,224709,1,0,0:0:0:0:
256,192,225177,1,8,0:0:0:0:
256,192,225412,1,0,0:0:0:0:
256,192,225646,1,0,0:0:0:0:
256,192,226115,1,8,0:0:0:0:
256,192,226232,1,8,0:0:0:0:
256,192,226466,5,8,0:0:0:0:
256,192,226584,5,8,0:0:0:0:
256,192,226818,5,0,0:0:0:0:
256,192,227052,5,8,0:0:0:0:
256,192,227169,5,8,0:0:0:0:
256,192,227287,5,8,0:0:0:0:
256,192,227521,5,0,0:0:0:0:
256,192,227638,5,0,0:0:0:0:
256,192,227755,5,0,0:0:0:0:
256,192,227990,5,8,0:0:0:0:
256,192,228107,5,8,0:0:0:0:
256,192,228341,5,0,0:0:0:0:
256,192,228459,5,0,0:0:0:0:
256,192,228927,1,0,0:0:0:0:
256,192,229396,5,12,0:0:0:0:
256,192,229865,1,12,0:0:0:0:
256,192,230334,1,4,0:0:0:0:
256,192,230802,1,0,0:0:0:0:
256,192,231037,1,8,0:0:0:0:
256,192,231271,1,0,0:0:0:0:
256,192,231505,1,8,0:0:0:0:
256,192,231740,1,0,0:0:0:0:
256,192,231974,1,8,0:0:0:0:
256,192,232209,1,0,0:0:0:0:
256,192,232326,1,0,0:0:0:0:
256,192,232443,1,0,0:0:0:0:
256,192,232677,1,8,0:0:0:0:
256,192,232912,1,0,0:0:0:0:
256,192,233146,1,8,0:0:0:0:
256,192,233263,1,8,0:0:0:0:
256,192,233380,1,8,0:0:0:0:
256,192,233615,1,0,0:0:0:0:
256,192,233732,1,0,0:0:0:0:
256,192,233849,1,0,0:0:0:0:
256,192,234084,1,0,0:0:0:0:
256,192,234552,1,8,0:0:0:0:
256,192,234787,1,8,0:0:0:0:
256,192,235021,1,0,0:0:0:0:
256,192,235255,1,8,0:0:0:0:
256,192,235490,1,0,0:0:0:0:
256,192,235724,1,8,0:0:0:0:
256,192,235959,1,0,0:0:0:0:
256,192,236076,1,0,0:0:0:0:
256,192,236193,5,8,0:0:0:0:
256,192,236427,1,0,0:0:0:0:
256,192,236662,1,8,0:0:0:0:
256,192,236896,1,8,0:0:0:0:
256,192,237130,1,0,0:0:0:0:
256,192,237365,5,0,0:0:0:0:
256,192,237599,5,8,0:0:0:0:
256,192,237834,5,4,0:0:0:0:
