osu file format v14

[General]
AudioFilename: audio.mp3
AudioLeadIn: 0
PreviewTime: 179907
Countdown: 0
SampleSet: Soft
StackLeniency: 0.5
Mode: 0
LetterboxInBreaks: 0
WidescreenStoryboard: 1

[Editor]
Bookmarks: 30448,60448,90448,120448,150448,207733,261698,305834
DistanceSpacing: 1.7
BeatDivisor: 4
GridSize: 16
TimelineZoom: 1.7

[Metadata]
Title:Lunatic set 09 ~ Faraway 380,000-Kilometer Voyage
TitleUnicode:Lunatic set 09 〜 遥か38万キロのボヤージュ
Artist:Rin
ArtistUnicode:凛
Creator:Mentai
Version:Embarking on a Lunar Voyage
Source:東方紺珠伝 ~ Legacy of Lunatic Kingdom.
Tags:akitoshi enkrypton ocelot function phantom kanjuden touhou house th15 zun
BeatmapID:1532376
BeatmapSetID:725769

[Difficulty]
HPDrainRate:6
CircleSize:4.2
OverallDifficulty:8
ApproachRate:9
SliderMultiplier:1.6
SliderTickRate:1

[Events]
//Background and Video events
0,0,"maybe.jpg",0,0
//Break Periods
//Storyboard Layer 0 (Background)
//Storyboard Layer 1 (Fail)
//Storyboard Layer 2 (Pass)
//Storyboard Layer 3 (Foreground)
//Storyboard Sound Samples

[TimingPoints]
442,468.75,4,2,1,45,1,0
442,-133.333333333333,4,2,1,45,0,0
13567,-133.333333333333,4,2,1,30,0,0
15442,-111.111111111111,4,2,1,60,0,0
29504,-111.111111111111,4,2,1,50,0,0
29973,-111.111111111111,4,2,1,40,0,0
30442,-133.333333333333,4,2,2,25,0,0
31379,-133.333333333333,4,2,1,25,0,0
37942,-133.333333333333,4,2,2,25,0,0
38879,-133.333333333333,4,2,1,25,0,0
45442,-133.333333333333,4,2,2,35,0,0
50129,-133.333333333333,4,2,1,35,0,0
52942,-133.333333333333,4,2,2,35,0,0
56692,-133.333333333333,4,2,1,35,0,0
58567,-125,4,2,1,45,0,0
59504,-111.111111111111,4,2,1,50,0,0
60442,-100,4,2,1,65,0,0
86692,-100,4,2,2,30,0,0
87160,-100,4,2,2,40,0,0
87629,-100,4,2,2,50,0,0
88098,-83.3333333333333,4,2,2,60,0,0
88156,-83.3333333333333,4,2,2,62,0,0
88215,-83.3333333333333,4,2,2,64,0,0
88274,-83.3333333333333,4,2,2,66,0,0
88332,-83.3333333333333,4,2,2,68,0,0
88391,-83.3333333333333,4,2,2,70,0,0
88449,-83.3333333333333,4,2,2,72,0,0
88567,-100,4,2,1,75,0,0
89738,-111.111111111111,4,2,1,75,0,0
90442,-142.857142857143,4,2,1,45,0,0
96301,-142.857142857143,4,2,1,42,0,0
96535,-142.857142857143,4,2,1,39,0,0
96770,-142.857142857143,4,2,1,36,0,0
97004,-142.857142857143,4,2,1,33,0,0
97238,-142.857142857143,4,2,1,30,0,0
97473,-142.857142857143,4,2,1,27,0,0
97707,-142.857142857143,4,2,1,24,0,0
97942,-142.857142857143,4,2,2,45,0,0
98410,-142.857142857143,4,2,1,45,0,0
103918,-142.857142857143,4,2,1,5,0,0
104035,-142.857142857143,4,2,1,45,0,0
104504,-111.111111111111,4,2,2,45,0,0
105442,-100,4,2,1,60,0,0
120442,-86.9565217391304,4,2,1,75,0,1
126067,-80,4,2,1,80,0,1
127942,-86.9565217391304,4,2,1,75,0,1
133567,-80,4,2,1,80,0,1
135442,-86.9565217391304,4,2,1,75,0,1
141067,-80,4,2,1,80,0,1
142942,-80,4,2,1,75,0,1
146692,-80,4,2,2,30,0,1
147160,-80,4,2,2,40,0,1
147629,-80,4,2,2,50,0,1
148098,-80,4,2,2,60,0,1
148156,-80,4,2,2,62,0,1
148215,-80,4,2,2,64,0,1
148274,-80,4,2,2,66,0,1
148332,-80,4,2,2,68,0,1
148391,-80,4,2,2,70,0,1
148449,-80,4,2,2,72,0,1
148567,-80,4,2,2,75,0,1
150442,-125,4,2,2,45,0,0
151379,-125,4,2,1,45,0,0
165324,-125,4,2,1,5,0,0
165442,-111.111111111111,4,2,1,45,0,0
169192,455.314660373206,4,2,1,45,1,0
169192,-111.111111111111,4,2,1,45,0,0
172834,451.127819548872,4,2,1,55,1,0
174638,443.350845691738,4,2,1,55,1,0
176411,437.956204379562,4,2,1,60,1,0
178162,434.782608695652,4,2,1,45,1,0
179901,434.782608695652,4,2,1,70,1,0
179901,-90.9090909090909,4,2,1,70,0,0
205987,-76.9230769230769,4,2,1,90,0,0
207727,-117.647058823529,4,2,3,45,0,0
219901,-117.647058823529,4,2,1,45,0,0
221640,-117.647058823529,4,2,3,35,0,0
223379,-133.333333333333,4,2,2,35,0,0
226857,-133.333333333333,4,2,2,35,0,0
233814,-153.846153846153,4,2,1,35,0,0
235553,-125,4,2,2,45,0,0
236422,-125,4,2,1,45,0,0
249466,428.571428571429,4,2,1,70,1,0
249894,-100,4,2,2,70,0,0
251180,410.958904109589,4,2,2,70,1,0
252823,402.684563758389,4,2,1,70,1,0
253225,-100,4,2,2,70,0,0
254433,387.096774193548,4,2,2,70,1,0
255594,-83.3333333333333,4,2,2,60,0,0
255642,-83.3333333333333,4,2,2,72,0,0
255691,-83.3333333333333,4,2,2,74,0,0
255739,-83.3333333333333,4,2,2,76,0,0
255787,-83.3333333333333,4,2,2,78,0,0
255836,-83.3333333333333,4,2,2,80,0,0
255884,-83.3333333333333,4,2,2,92,0,0
255981,370.37037037037,4,2,1,85,1,0
256351,-100,4,2,2,75,0,0
257462,368.098159509202,4,2,2,80,1,0
258198,359.281437125748,4,2,1,80,1,0
258916,348.837209302326,4,2,1,85,1,0
259265,-100,4,2,2,85,0,0
260137,400,4,2,1,85,1,0
260137,-66.6666666666667,4,2,1,85,0,0
260336,357.142857142857,4,2,1,45,1,0
260336,-166.666666666667,4,2,1,55,0,0
260693,335.195530726257,4,2,1,45,1,0
260693,-166.666666666667,4,2,1,55,0,0
261688,344.827586206897,4,2,1,70,1,0
265825,-66.6666666666667,4,2,1,90,0,0
267205,-100,4,2,1,70,0,0
272377,-66.6666666666667,4,2,1,60,0,0
272722,-90.9090909090909,4,2,1,75,0,0
283756,-83.3333333333333,4,2,1,85,0,1
287894,-66.6666666666667,4,2,1,90,0,1
289274,-83.3333333333333,4,2,1,85,0,1
293412,-111.111111111111,4,2,1,70,0,1
293584,-111.111111111111,4,2,1,45,0,1
294446,-66.6666666666667,4,2,1,70,0,1
294791,-83.3333333333333,4,2,1,85,0,1
299619,-66.6666666666667,4,2,1,85,0,1
300308,-83.3333333333333,4,2,1,85,0,1
305136,-111.111111111111,4,2,1,75,0,1
305394,-111.111111111111,4,2,1,5,0,1
305481,-62.5,4,2,1,85,0,1
305737,-62.5,4,2,1,5,0,1
305825,-62.5,4,2,1,5,0,1
305834,344.827586206897,4,2,1,75,1,0
306180,-100,4,2,2,75,0,0
308592,358.208955223881,4,2,1,75,1,0
308950,-100,4,2,2,75,0,0
311099,-83.3333333333333,4,2,2,50,0,0
311144,-83.3333333333333,4,2,2,62,0,0
311190,-83.3333333333333,4,2,2,64,0,0
311236,-83.3333333333333,4,2,2,66,0,0
311278,-83.3333333333333,4,2,2,68,0,0
311323,-83.3333333333333,4,2,2,70,0,0
311368,-83.3333333333333,4,2,2,82,0,0
311457,370.37037037037,4,2,1,70,1,0
311827,-100,4,2,2,70,0,0
312938,375,4,2,2,70,1,0
314438,384.615384615385,4,2,1,65,1,0
314822,-100,4,2,2,65,0,0
315976,392.156862745098,4,2,2,60,1,0
316956,-83.3333333333333,4,2,2,35,0,0
317005,-83.3333333333333,4,2,2,47,0,0
317054,-83.3333333333333,4,2,2,49,0,0
317103,-83.3333333333333,4,2,2,51,0,0
317152,-83.3333333333333,4,2,2,53,0,0
317201,-83.3333333333333,4,2,2,55,0,0
317250,-83.3333333333333,4,2,2,57,0,0
317299,-83.3333333333333,4,2,2,59,0,0
317348,-83.3333333333333,4,2,2,61,0,0
317397,-83.3333333333333,4,2,2,63,0,0
317446,-83.3333333333333,4,2,2,65,0,0
317544,402.684563758389,4,2,1,72,1,0
317945,-100,4,2,2,60,0,0
318550,-100,4,2,2,60,0,0
319155,405.405405405405,4,2,2,60,1,0
319965,410.958904109589,4,2,1,60,1,0
320786,421.052631578947,4,2,1,55,1,0
321207,-100,4,2,2,55,0,0
322891,425.531914893617,4,2,1,55,1,0
323742,434.782608695652,4,2,1,45,1,0
324176,437.956204379562,4,2,1,35,1,0
325051,441.176470588235,4,2,1,45,1,0
325933,447.761194029851,4,2,1,45,1,0
326828,454.545454545455,4,2,1,45,1,0
327737,465.116279069767,4,2,1,35,1,0
329595,-125,4,2,1,50,0,0
329597,466.323659708081,4,2,1,45,1,0
331462,468.75,4,2,1,60,1,0
331462,-111.111111111111,4,2,1,60,0,0
344587,-111.111111111111,4,2,1,35,0,0
346462,-125,4,2,1,45,0,0
359587,-142.857142857143,4,2,1,40,0,0
359821,-142.857142857143,4,2,1,30,0,0
361227,-142.857142857143,4,2,3,25,0,0

[Colours]
Combo1 : 255,100,243
Combo2 : 55,61,255
Combo3 : 11,208,251
Combo4 : 130,142,255

[HitObjects]
54,168,442,6,0,L|48:84,1,60.0000022888184,4|0,1:2|0:0,0:0:0:0:
129,48,910,1,2,1:2:0:0:
158,41,1027,1,2,0:0:0:0:
188,39,1145,1,2,0:0:0:0:
217,42,1262,1,2,0:0:0:0:
246,50,1379,2,0,L|241:109,1,60.0000022888184,0|0,1:2|0:0,0:0:0:0:
164,243,1848,2,0,L|159:183,1,60.0000022888184,0|2,1:2|0:0,0:0:0:0:
143,158,2199,1,2,0:0:0:0:
143,158,2317,6,0,L|138:98,1,60.0000022888184,2|0,1:2|0:0,0:0:0:0:
83,22,2785,1,0,1:2:0:0:
43,106,3020,2,0,L|44:155,1,30.0000011444092,2|0,0:0|0:0,0:0:0:0:
77,219,3254,1,0,1:2:0:0:
63,235,3371,2,0,L|62:284,1,30.0000011444092,2|0,0:0|0:0,0:0:0:0:
5,344,3606,1,2,0:0:0:0:
17,364,3723,1,2,1:2:0:0:
172,363,3957,1,0,1:2:0:0:
167,208,4192,6,0,L|173:124,1,60.0000022888184,0|0,1:2|0:0,0:0:0:0:
275,71,4660,1,2,1:2:0:0:
277,100,4777,1,2,0:0:0:0:
279,130,4895,1,2,0:0:0:0:
281,160,5012,1,2,0:0:0:0:
283,190,5129,2,0,L|287:249,1,60.0000022888184,0|0,1:2|0:0,0:0:0:0:
296,353,5598,1,0,1:2:0:0:
381,296,5832,1,2,0:0:0:0:
381,296,5949,1,2,0:0:0:0:
381,296,6067,6,0,L|440:291,1,60.0000022888184,2|0,1:2|0:0,0:0:0:0:
506,211,6535,1,0,1:2:0:0:
402,195,6770,2,0,L|403:146,1,30.0000011444092,2|0,0:0|0:0,0:0:0:0:
350,40,7004,1,0,1:2:0:0:
336,56,7121,2,0,L|335:105,1,30.0000011444092,2|0,0:0|0:0,0:0:0:0:
247,220,7356,1,2,0:0:0:0:
237,203,7473,2,0,L|241:143,1,60.0000022888184,0|0,1:2|0:0,0:0:0:0:
148,35,7942,6,0,L|152:94,1,60.0000022888184,0|0,1:2|0:0,0:0:0:0:
149,202,8410,1,2,1:2:0:0:
120,209,8527,1,2,0:0:0:0:
90,211,8645,1,2,0:0:0:0:
61,208,8762,1,2,0:0:0:0:
32,200,8879,2,0,L|37:141,1,60.0000022888184,0|0,1:2|0:0,0:0:0:0:
88,39,9348,2,0,L|148:34,1,60.0000022888184,0|2,1:2|0:0,0:0:0:0:
173,18,9699,1,2,0:0:0:0:
173,18,9817,6,0,L|233:13,1,60.0000022888184,2|0,1:2|0:0,0:0:0:0:
302,83,10285,1,0,1:2:0:0:
199,112,10520,2,0,L|200:161,1,30.0000011444092,2|0,0:0|0:0,0:0:0:0:
280,200,10754,1,0,1:2:0:0:
294,216,10871,2,0,L|295:265,1,30.0000011444092,2|0,0:0|0:0,0:0:0:0:
272,352,11106,1,2,0:0:0:0:
253,370,11223,1,0,1:2:0:0:
126,245,11457,1,0,1:2:0:0:
291,144,11692,6,0,L|351:139,1,60.0000022888184,0|0,1:2|0:0,0:0:0:0:
417,45,12160,1,2,1:2:0:0:
388,43,12277,1,2,0:0:0:0:
358,41,12395,1,2,0:0:0:0:
328,39,12512,1,2,0:0:0:0:
298,37,12629,2,0,L|238:32,1,60.0000022888184,0|0,1:2|0:0,0:0:0:0:
140,23,13098,1,0,1:2:0:0:
182,118,13332,1,2,0:0:0:0:
182,118,13449,1,2,0:0:0:0:
182,118,13567,6,0,L|178:163,1,30.0000011444092,2|0,0:0|0:0,0:0:0:0:
140,216,13801,1,0,0:0:0:0:
253,239,14035,1,0,0:0:0:0:
282,246,14152,1,0,0:0:0:0:
312,248,14270,1,0,0:0:0:0:
341,245,14387,1,0,0:0:0:0:
370,237,14504,6,0,L|396:227,3,20.0000007629395,2|2|2|2,0:0|0:0|0:0|0:0,0:0:0:0:
454,137,14973,2,0,L|449:105,1,30.0000011444092
436,36,15207,1,0,0:0:0:0:
491,301,15442,5,6,1:2:0:0:
366,157,15676,1,2,0:0:0:0:
397,316,15910,1,2,1:2:0:0:
512,204,16145,1,2,0:0:0:0:
323,244,16379,2,0,L|220:242,1,71.9999978027344,0|0,1:2|0:0,0:0:0:0:
143,187,16848,1,2,1:2:0:0:
139,315,17082,1,2,0:0:0:0:
232,152,17317,6,0,P|235:78|230:55,1,71.9999978027344,0|0,1:2|0:0,0:0:0:0:
165,3,17785,1,2,1:2:0:0:
306,5,18020,1,2,0:0:0:0:
143,112,18254,2,0,L|40:110,1,71.9999978027344,0|0,1:2|0:0,0:0:0:0:
4,195,18723,1,2,1:2:0:0:
124,273,18957,1,2,1:2:0:0:
247,128,19192,6,0,P|252:163|250:199,1,71.9999978027344,0|0,1:2|0:0,0:0:0:0:
226,302,19660,1,2,1:2:0:0:
157,187,19895,1,2,0:0:0:0:
335,234,20129,2,0,L|406:235,1,71.9999978027344,0|0,1:2|0:0,0:0:0:0:
488,172,20598,1,2,1:2:0:0:
479,315,20832,1,2,0:0:0:0:
358,142,21067,6,0,L|287:143,1,71.9999978027344,0|0,1:2|0:0,0:0:0:0:
199,214,21535,1,2,1:2:0:0:
220,64,21770,1,2,0:0:0:0:
286,230,22004,2,0,P|261:279|226:299,1,71.9999978027344,0|0,1:2|0:0,0:0:0:0:
91,325,22473,1,2,1:2:0:0:
199,214,22707,1,2,0:0:0:0:
382,327,22942,6,0,L|311:328,1,71.9999978027344,0|0,1:2|0:0,0:0:0:0:
204,307,23410,1,2,1:2:0:0:
312,216,23645,1,2,0:0:0:0:
127,338,23879,2,0,P|125:283|145:248,1,71.9999978027344,0|0,1:2|0:0,0:0:0:0:
199,170,24348,1,2,1:2:0:0:
204,307,24582,1,2,0:0:0:0:
67,235,24817,6,0,L|66:164,1,71.9999978027344,0|0,1:2|0:0,0:0:0:0:
129,54,25285,1,2,1:2:0:0:
0,59,25520,1,2,0:0:0:0:
193,161,25754,2,0,L|264:160,1,71.9999978027344,0|0,1:2|0:0,0:0:0:0:
394,127,26223,1,2,1:2:0:0:
264,286,26457,1,2,1:2:0:0:
115,120,26692,6,0,P|105:154|111:189,1,71.9999978027344,0|0,1:2|0:0,0:0:0:0:
181,316,27160,1,2,1:2:0:0:
193,161,27395,1,2,0:0:0:0:
92,277,27629,2,0,L|21:278,1,71.9999978027344,0|0,1:2|0:0,0:0:0:0:
111,189,28098,1,2,1:2:0:0:
96,379,28332,1,2,0:0:0:0:
5,88,28567,5,12,0:0:0:0:
20,278,28801,1,8,0:0:0:0:
8,128,29035,1,2,1:2:0:0:
12,182,29152,1,10,0:0:0:0:
16,236,29270,1,10,0:0:0:0:
96,379,29504,5,2,1:2:0:0:
98,351,29621,1,10,0:0:0:0:
100,324,29738,1,10,0:0:0:0:
174,272,29973,1,0,1:2:0:0:
174,272,30207,1,0,1:2:0:0:
251,324,30442,5,6,1:2:0:0:
118,96,31379,1,10,0:0:0:0:
382,95,32317,1,2,0:0:0:0:
256,171,32785,5,0,1:2:0:0:
252,175,33020,1,0,1:2:0:0:
248,179,33254,1,2,0:0:0:0:
126,259,33723,1,2,0:0:0:0:
122,263,33957,1,0,1:2:0:0:
91,171,34192,5,2,1:2:0:0:
309,309,35129,1,8,0:0:0:0:
376,198,35598,1,2,0:0:0:0:
438,311,36067,1,2,0:0:0:0:
309,309,36535,5,0,1:2:0:0:
305,305,36770,1,0,1:2:0:0:
301,301,37004,1,0,0:0:0:0:
376,198,37473,1,2,0:0:0:0:
380,194,37707,1,2,1:2:0:0:
268,211,37942,5,6,1:2:0:0:
65,48,38879,1,10,0:0:0:0:
322,78,39817,1,2,0:0:0:0:
221,158,40285,5,0,1:2:0:0:
217,162,40520,1,0,1:2:0:0:
213,166,40754,1,2,0:0:0:0:
113,249,41223,1,2,0:0:0:0:
109,253,41457,1,0,1:2:0:0:
193,321,41692,5,2,1:2:0:0:
93,81,42629,1,8,0:0:0:0:
214,125,43098,1,2,0:0:0:0:
115,209,43567,6,0,P|77:206|11:255,1,120.000004577637,2|0,0:0|0:0,0:0:0:0:
90,293,44270,2,0,P|128:290|194:339,1,120.000004577637,2|0,0:0|0:0,0:0:0:0:
277,363,44973,2,0,L|329:367,2,40.000001525879,2|0|0,0:0|0:0|0:0,0:0:0:0:
277,363,45442,6,0,B|291:309|291:309|272:249|272:249|288:180,1,180.000006866455,6|0,1:2|1:2,0:0:0:0:
364,145,46379,2,0,P|310:164|224:75,1,180.000006866455,8|0,0:0|0:0,0:0:0:0:
145,48,47317,6,0,P|137:75|137:113,1,60.0000022888184,2|0,0:0|0:0,0:0:0:0:
154,194,47785,1,0,1:2:0:0:
154,194,48020,1,0,1:2:0:0:
214,260,48254,2,0,P|222:287|222:325,1,60.0000022888184,2|0,0:0|0:0,0:0:0:0:
153,375,48723,1,2,0:0:0:0:
153,375,48957,1,0,1:2:0:0:
40,332,49192,6,0,B|13:237|75:251|40:148,1,180.000006866455,2|0,1:2|0:0,0:0:0:0:
12,71,50129,2,0,L|17:4,1,60.0000022888184,8|0,0:0|0:0,0:0:0:0:
106,11,50598,2,0,L|110:70,1,60.0000022888184,2|0,0:0|0:0,0:0:0:0:
174,134,51067,6,0,P|206:137|247:127,1,60.0000022888184
316,97,51535,1,0,1:2:0:0:
316,97,51770,1,0,1:2:0:0:
395,139,52004,2,0,L|393:212,1,60.0000022888184
393,289,52473,1,2,0:0:0:0:
393,289,52707,1,2,1:2:0:0:
278,250,52942,6,0,B|235:243|195:273|195:273|158:237|108:244,1,180.000006866455,6|0,1:2|1:2,0:0:0:0:
73,324,53879,2,0,L|62:135,1,180.000006866455,8|0,0:0|0:0,0:0:0:0:
106,65,54817,6,0,P|151:52|172:53,1,60.0000022888184,2|0,0:0|0:0,0:0:0:0:
250,75,55285,1,0,1:2:0:0:
250,75,55520,1,0,1:2:0:0:
295,152,55754,2,0,L|369:147,1,60.0000022888184,2|0,0:0|0:0,0:0:0:0:
445,144,56223,1,2,0:0:0:0:
445,144,56457,1,0,1:2:0:0:
471,261,56692,6,0,B|418:270|374:240|374:240|337:260|321:308,1,180.000006866455,2|0,1:2|0:0,0:0:0:0:
263,364,57629,2,0,L|186:355,1,60.0000022888184,8|0,0:0|0:0,0:0:0:0:
164,275,58098,2,0,L|241:266,1,60.0000022888184,2|0,0:0|0:0,0:0:0:0:
313,176,58567,6,0,P|318:142|306:95,1,64,2|0,1:2|0:0,0:0:0:0:
222,22,59035,1,0,1:2:0:0:
222,22,59152,1,0,1:2:0:0:
222,22,59270,1,0,1:2:0:0:
183,190,59504,5,2,0:0:0:0:
90,35,59738,2,0,L|93:7,1,17.9999994506836,0|0,1:2|1:2,0:0:0:0:
90,35,59856,2,0,L|93:7,1,17.9999994506836,0|0,1:2|1:2,0:0:0:0:
90,35,59973,1,0,1:2:0:0:
314,113,60207,1,8,0:0:0:0:
183,190,60442,6,0,L|178:288,1,80,6|0,1:2|0:0,0:0:0:0:
318,192,60910,2,0,L|313:94,1,80,8|0,1:2|0:0,0:0:0:0:
323,72,61262,1,0,0:0:0:0:
323,72,61379,1,2,1:2:0:0:
227,25,61613,1,0,0:0:0:0:
418,109,61848,2,0,L|516:104,1,80,8|0,1:2|0:0,0:0:0:0:
396,223,62317,6,0,L|298:218,1,80,2|0,1:2|0:0,0:0:0:0:
201,163,62785,1,8,1:2:0:0:
206,289,63020,1,0,0:0:0:0:
206,289,63137,1,0,0:0:0:0:
206,289,63254,2,0,L|211:387,1,80,2|0,1:2|0:0,0:0:0:0:
104,228,63723,1,10,1:2:0:0:
281,152,63957,1,0,1:2:0:0:
351,325,64192,6,0,P|392:343|429:345,1,80,2|0,1:2|0:0,0:0:0:0:
494,240,64660,2,0,L|499:142,1,80,8|0,1:2|0:0,0:0:0:0:
481,123,65012,1,0,0:0:0:0:
481,123,65129,1,2,1:2:0:0:
371,199,65363,1,0,0:0:0:0:
252,41,65598,2,0,B|245:82|245:82|256:131,1,80,8|0,1:2|0:0,0:0:0:0:
147,288,66067,6,0,L|142:190,1,80,2|0,1:2|0:0,0:0:0:0:
64,348,66535,1,8,1:2:0:0:
237,345,66770,1,0,0:0:0:0:
237,345,66887,1,0,0:0:0:0:
237,345,67004,2,0,L|335:340,1,80,0|0,1:2|0:0,0:0:0:0:
414,230,67473,1,10,1:2:0:0:
512,341,67707,1,2,0:0:0:0:
313,245,67942,6,0,L|308:147,1,80,2|0,1:2|0:0,0:0:0:0:
207,56,68410,2,0,L|202:135,1,80,8|0,1:2|0:0,0:0:0:0:
186,172,68762,1,0,0:0:0:0:
186,172,68879,1,2,1:2:0:0:
209,272,69113,1,0,0:0:0:0:
82,199,69348,2,0,P|78:150|90:119,1,80,8|0,1:2|0:0,0:0:0:0:
209,272,69817,6,0,P|220:309|215:349,1,80,2|0,1:2|0:0,0:0:0:0:
108,317,70285,1,8,1:2:0:0:
168,181,70520,1,0,0:0:0:0:
168,181,70637,1,0,0:0:0:0:
168,181,70754,2,0,L|247:176,1,80,2|0,1:2|0:0,0:0:0:0:
398,166,71223,1,10,1:2:0:0:
415,315,71457,1,0,1:2:0:0:
264,327,71692,6,0,L|184:322,1,80,2|0,1:2|0:0,0:0:0:0:
99,213,72160,2,0,L|178:208,1,80,8|0,1:2|0:0,0:0:0:0:
214,189,72512,1,0,0:0:0:0:
214,189,72629,1,0,1:2:0:0:
308,249,72863,1,0,0:0:0:0:
124,120,73098,2,0,B|117:79|117:79|128:30,1,80,10|0,1:2|0:0,0:0:0:0:
294,25,73567,6,0,L|298:104,2,80,2|0|8,1:2|0:0|1:2,0:0:0:0:
427,154,74270,2,0,L|431:74,2,80,2|0|0,0:0|1:2|1:2,0:0:0:0:
318,322,74973,2,0,P|315:257|319:239,1,80,10|0,1:2|0:0,0:0:0:0:
213,69,75442,6,0,P|218:108|213:148,1,80,6|0,1:2|0:0,0:0:0:0:
82,261,75910,2,0,L|77:181,1,80,8|0,1:2|0:0,0:0:0:0:
56,147,76262,1,0,0:0:0:0:
56,147,76379,1,2,1:2:0:0:
90,32,76613,1,0,0:0:0:0:
210,71,76848,2,0,P|247:77|281:100,1,80,8|0,1:2|0:0,0:0:0:0:
127,176,77317,6,0,P|89:169|55:146,1,80,2|0,1:2|0:0,0:0:0:0:
124,83,77785,1,8,1:2:0:0:
137,273,78020,1,0,0:0:0:0:
137,273,78137,1,0,0:0:0:0:
137,273,78254,2,0,L|142:353,1,80,2|0,1:2|0:0,0:0:0:0:
31,225,78723,1,10,1:2:0:0:
223,212,78957,1,0,1:2:0:0:
31,225,79192,6,0,L|36:145,1,80,2|0,1:2|0:0,0:0:0:0:
140,55,79660,2,0,P|197:52|227:57,1,80,8|0,1:2|0:0,0:0:0:0:
252,78,80012,1,0,0:0:0:0:
252,78,80129,1,0,1:2:0:0:
365,171,80363,1,0,0:0:0:0:
489,14,80598,2,0,B|497:51|497:51|490:92,1,80,10|0,1:2|0:0,0:0:0:0:
360,250,81067,6,0,L|365:170,1,80,2|0,1:2|0:0,0:0:0:0:
447,318,81535,1,8,1:2:0:0:
261,300,81770,1,0,0:0:0:0:
261,300,81887,1,0,0:0:0:0:
261,300,82004,2,0,L|181:295,1,80,0|0,1:2|0:0,0:0:0:0:
76,207,82473,1,10,1:2:0:0:
70,380,82707,1,2,0:0:0:0:
177,197,82942,6,0,L|182:117,1,80,2|0,1:2|0:0,0:0:0:0:
288,25,83410,2,0,L|293:105,1,80,8|0,1:2|0:0,0:0:0:0:
313,139,83762,1,0,0:0:0:0:
313,139,83879,1,2,1:2:0:0:
397,86,84113,1,0,0:0:0:0:
223,191,84348,2,0,P|162:195|140:190,1,80,8|0,1:2|0:0,0:0:0:0:
0,111,84817,6,0,P|61:107|83:112,1,80,2|0,1:2|0:0,0:0:0:0:
144,191,85285,1,8,1:2:0:0:
41,216,85520,1,0,0:0:0:0:
41,216,85637,1,0,0:0:0:0:
41,216,85754,2,0,L|46:296,1,80,2|0,1:2|0:0,0:0:0:0:
144,191,86223,1,10,1:2:0:0:
0,111,86457,1,0,1:2:0:0:
144,191,86692,5,10,1:2:0:0:
163,186,86809,1,8,0:0:0:0:
183,186,86926,1,8,0:0:0:0:
202,191,87043,1,8,0:0:0:0:
220,200,87160,1,8,1:2:0:0:
246,205,87277,1,8,0:0:0:0:
277,207,87395,1,8,0:0:0:0:
301,198,87512,1,8,0:0:0:0:
326,186,87629,5,8,1:2:0:0:
360,178,87746,1,8,0:0:0:0:
394,178,87863,1,8,0:0:0:0:
428,187,87981,1,8,0:0:0:0:
459,203,88098,2,8,L|460:244,6,23.9999992675781,10|8|8|8|8|8|8,1:2|0:0|0:0|0:0|0:0|0:0|0:0,0:0:0:0:
458,302,88567,5,6,1:2:0:0:
262,298,88801,1,2,0:0:0:0:
354,128,89035,5,6,1:2:0:0:
357,238,89270,1,0,1:2:0:0:
358,298,89387,1,0,1:2:0:0:
359,358,89504,1,0,1:2:0:0:
355,183,89738,5,6,1:2:0:0:
325,31,89973,2,0,P|286:51|266:85,1,71.9999978027344
271,74,90324,1,0,0:0:0:0:
271,74,90442,5,6,0:0:0:0:
140,179,90910,1,2,0:0:0:0:
221,326,91379,1,2,0:0:0:0:
358,229,91848,1,2,0:0:0:0:
274,233,92082,6,0,L|224:236,2,27.9999991455078,0|0|2,0:0|0:0|0:0,0:0:0:0:
445,224,92785,1,2,1:2:0:0:
445,224,93020,1,0,1:2:0:0:
358,229,93254,1,2,0:0:0:0:
448,87,93723,1,0,0:0:0:0:
306,122,93957,1,0,1:2:0:0:
278,127,94074,1,0,0:0:0:0:
250,134,94192,5,2,1:2:0:0:
359,6,94660,1,2,0:0:0:0:
250,134,95129,1,2,0:0:0:0:
141,6,95598,1,2,0:0:0:0:
111,84,95832,2,0,L|66:83,1,27.9999991455078
12,83,96067,5,2,0:0:0:0:
2,177,96301,1,2,0:0:0:0:
41,250,96535,1,2,0:0:0:0:
105,283,96770,1,2,0:0:0:0:
165,294,97004,1,2,0:0:0:0:
214,284,97238,1,2,0:0:0:0:
249,266,97473,1,2,0:0:0:0:
266,244,97707,2,0,L|264:209,1,27.9999991455078
282,362,97942,5,6,0:0:0:0:
425,274,98410,1,2,0:0:0:0:
323,140,98879,1,2,0:0:0:0:
180,229,99348,1,2,0:0:0:0:
109,183,99582,6,0,L|106:150,2,27.9999991455078,0|0|2,0:0|0:0|0:0,0:0:0:0:
225,61,100285,1,2,1:2:0:0:
225,61,100520,1,0,1:2:0:0:
150,21,100754,1,2,0:0:0:0:
232,167,101223,1,2,0:0:0:0:
341,70,101457,1,0,1:2:0:0:
363,53,101574,1,0,0:0:0:0:
385,35,101692,5,2,1:2:0:0:
340,254,102160,1,2,0:0:0:0:
171,105,102629,1,2,0:0:0:0:
385,35,103098,1,2,0:0:0:0:
363,144,103332,1,0,0:0:0:0:
359,171,103449,1,0,0:0:0:0:
354,198,103567,6,0,L|247:205,1,83.9999974365235,2|0,1:2|0:0,0:0:0:0:
244,215,104035,2,0,L|196:212,2,37.3333321940105
303,284,104504,5,0,1:2:0:0:
148,342,104738,1,0,0:0:0:0:
148,342,104856,1,0,1:2:0:0:
148,342,104973,2,0,P|143:315|141:297,1,35.9999989013672,8|0,0:0|0:0,0:0:0:0:
91,240,105207,2,0,P|96:213|98:195,1,35.9999989013672,8|0,0:0|0:0,0:0:0:0:
123,115,105442,6,0,P|161:106|223:110,1,80,6|0,1:2|0:0,0:0:0:0:
276,154,105793,1,0,0:0:0:0:
276,154,105910,2,0,P|314:163|376:159,1,80,10|0,1:2|0:0,0:0:0:0:
437,135,106262,1,0,0:0:0:0:
437,135,106379,2,0,L|447:239,1,80,2|0,1:2|0:0,0:0:0:0:
510,276,106731,1,0,0:0:0:0:
510,276,106848,2,0,L|500:380,1,80,10|0,1:2|0:0,0:0:0:0:
423,371,107199,1,0,0:0:0:0:
423,371,107317,6,0,P|367:360|332:361,1,80,2|0,1:2|0:0,0:0:0:0:
265,375,107668,1,0,0:0:0:0:
265,375,107785,2,0,L|257:321,1,40,10|0,1:2|0:0,0:0:0:0:
201,273,108020,2,0,L|209:219,1,40
268,176,108254,2,0,P|273:132|268:91,1,80,2|0,1:2|0:0,0:0:0:0:
209,44,108606,1,0,0:0:0:0:
209,44,108723,2,0,L|147:46,1,40,8|0,1:2|0:0,0:0:0:0:
103,98,108957,2,0,L|41:96,1,40,0|0,1:2|0:0,0:0:0:0:
22,170,109192,6,0,P|13:209|22:263,1,80,2|0,1:2|0:0,0:0:0:0:
104,261,109543,1,0,0:0:0:0:
104,261,109660,2,0,P|113:222|104:168,1,80,10|0,1:2|0:0,0:0:0:0:
107,102,110012,1,0,0:0:0:0:
107,102,110129,2,0,L|194:97,1,80,2|0,1:2|0:0,0:0:0:0:
257,50,110481,1,0,0:0:0:0:
257,50,110598,2,0,L|344:55,1,80,10|0,1:2|0:0,0:0:0:0:
399,118,110949,1,0,0:0:0:0:
399,118,111067,6,0,B|428:196|367:195|401:282,1,160,2|8,1:2|1:2,0:0:0:0:
494,116,111770,1,0,0:0:0:0:
322,155,112004,1,0,1:2:0:0:
489,248,112238,1,0,0:0:0:0:
489,248,112356,1,0,0:0:0:0:
489,248,112473,2,0,L|484:340,1,80,8|0,1:2|0:0,0:0:0:0:
281,373,112942,6,0,P|266:331|269:286,1,80,6|0,1:2|0:0,0:0:0:0:
322,233,113293,1,0,0:0:0:0:
322,233,113410,2,0,P|337:191|334:146,1,80,10|0,1:2|0:0,0:0:0:0:
296,87,113762,1,0,0:0:0:0:
296,87,113879,2,0,L|206:92,1,80,2|0,1:2|0:0,0:0:0:0:
157,152,114231,1,0,0:0:0:0:
157,152,114348,2,0,L|67:147,1,80,10|0,1:2|0:0,0:0:0:0:
22,211,114699,1,0,0:0:0:0:
22,211,114817,6,0,P|12:260|21:296,1,80,2|0,1:2|0:0,0:0:0:0:
65,363,115168,1,0,0:0:0:0:
65,363,115285,2,0,L|135:360,1,40,10|0,1:2|0:0,0:0:0:0:
175,314,115520,2,0,L|245:317,1,40
290,352,115754,2,0,P|339:342|375:351,1,80,2|0,1:2|0:0,0:0:0:0:
453,375,116106,1,0,0:0:0:0:
453,375,116223,2,0,L|456:327,1,40,10|0,1:2|0:0,0:0:0:0:
496,262,116457,2,0,L|493:214,1,40,0|0,1:2|0:0,0:0:0:0:
444,143,116692,6,0,P|395:138|345:159,1,80,2|0,1:2|0:0,0:0:0:0:
291,197,117043,1,0,0:0:0:0:
291,197,117160,2,0,P|252:187|212:193,1,80,10|0,1:2|0:0,0:0:0:0:
143,255,117512,1,0,0:0:0:0:
143,255,117629,2,0,L|154:352,1,80,2|0,1:2|0:0,0:0:0:0:
243,369,117981,1,0,0:0:0:0:
243,369,118098,2,0,L|254:272,1,80,10|0,1:2|0:0,0:0:0:0:
346,255,118449,1,0,0:0:0:0:
346,255,118567,6,0,P|384:265|437:260,1,80,0|2,1:2|0:0,0:0:0:0:
254,94,119035,1,8,0:0:0:0:
254,94,119152,1,8,0:0:0:0:
254,94,119270,1,8,0:0:0:0:
170,318,119504,1,2,1:2:0:0:
394,161,119738,1,4,0:0:0:0:
179,188,119973,2,0,L|146:185,6,20,2|0|0|0|0|0|0,0:0|0:0|0:0|0:0|0:0|0:0|0:0,0:0:0:0:
279,252,120442,6,0,P|339:261|382:250,1,92.0000017547608,6|0,1:2|0:0,0:0:0:0:
227,102,120910,2,0,P|167:93|124:104,1,92.0000017547608,8|0,1:2|0:0,0:0:0:0:
104,116,121262,1,0,0:0:0:0:
104,116,121379,1,0,1:2:0:0:
105,215,121613,1,2,0:0:0:0:
156,10,121848,1,10,1:2:0:0:
0,85,122082,1,2,0:0:0:0:
227,102,122317,6,0,L|332:99,1,92.0000017547608,2|0,1:2|0:0,0:0:0:0:
196,217,122785,2,0,L|91:214,1,92.0000017547608,10|0,1:2|0:0,0:0:0:0:
307,193,123254,1,2,1:2:0:0:
186,328,123488,1,2,0:0:0:0:
136,145,123723,1,10,1:2:0:0:
205,231,123957,1,0,1:2:0:0:
33,165,124192,6,0,B|28:108|28:108|52:-2,1,138.000002632141,2|0,1:2|0:0,0:0:0:0:
67,0,124660,1,8,1:2:0:0:
172,62,124895,1,0,0:0:0:0:
172,62,125012,1,0,0:0:0:0:
172,62,125129,2,0,L|277:59,1,92.0000017547608,0|0,1:2|0:0,0:0:0:0:
352,126,125598,2,0,L|457:129,1,92.0000017547608,8|0,1:2|0:0,0:0:0:0:
277,210,126067,6,0,B|273:260|273:260|287:308,1,100,6|0,1:2|0:0,0:0:0:0:
352,126,126535,2,0,B|356:76|356:76|342:28,1,100,6|0,1:2|0:0,0:0:0:0:
243,245,127004,2,0,B|239:295|239:295|253:343,1,100,6|0,1:2|0:0,0:0:0:0:
390,96,127473,2,0,P|398:41|380:-7,1,100,6|0,1:2|0:0,0:0:0:0:
148,161,127942,6,0,L|43:158,1,92.0000017547608,6|0,1:2|0:0,0:0:0:0:
176,270,128410,2,0,L|281:267,1,92.0000017547608,8|0,1:2|0:0,0:0:0:0:
298,246,128762,1,0,0:0:0:0:
298,246,128879,1,0,1:2:0:0:
378,339,129113,1,2,0:0:0:0:
229,157,129348,1,10,1:2:0:0:
405,176,129582,1,2,0:0:0:0:
213,328,129817,6,0,L|108:325,1,92.0000017547608,2|0,1:2|0:0,0:0:0:0:
5,206,130285,2,0,L|110:203,1,92.0000017547608,10|0,1:2|0:0,0:0:0:0:
239,193,130754,1,2,1:2:0:0:
161,73,130988,1,2,0:0:0:0:
177,320,131223,1,10,1:2:0:0:
269,85,131457,1,2,1:2:0:0:
30,140,131692,6,0,P|20:193|37:284,1,138.000002632141,2|0,1:2|0:0,0:0:0:0:
53,305,132160,1,8,1:2:0:0:
176,322,132395,1,0,0:0:0:0:
176,322,132512,1,0,0:0:0:0:
176,322,132629,2,0,P|245:324|268:318,1,92.0000017547608,0|0,1:2|0:0,0:0:0:0:
345,242,133098,2,0,P|414:240|437:246,1,92.0000017547608,8|0,1:2|0:0,0:0:0:0:
283,159,133567,6,0,B|279:109|279:109|293:61,1,100,6|0,1:2|0:0,0:0:0:0:
392,16,134035,1,8,1:2:0:0:
204,7,134270,1,0,0:0:0:0:
192,188,134504,1,0,1:2:0:0:
478,181,134738,2,0,B|428:177|428:177|380:191,1,100,6|2,1:2|0:0,0:0:0:0:
284,329,135207,1,2,0:0:0:0:
292,119,135442,6,0,L|289:19,1,92.0000017547608,4|0,1:2|0:0,0:0:0:0:
192,188,135910,2,0,L|189:288,1,92.0000017547608,8|0,1:2|0:0,0:0:0:0:
177,315,136262,1,0,0:0:0:0:
177,315,136379,1,0,1:2:0:0:
93,144,136613,1,2,0:0:0:0:
293,155,136848,1,10,1:2:0:0:
189,279,137082,1,2,0:0:0:0:
250,74,137317,6,0,P|300:64|347:81,1,92.0000017547608,2|0,1:2|0:0,0:0:0:0:
181,145,137785,2,0,P|131:155|84:138,1,92.0000017547608,10|0,1:2|0:0,0:0:0:0:
23,57,138254,1,2,1:2:0:0:
17,238,138488,1,2,0:0:0:0:
92,143,138723,2,0,L|147:140,1,46.0000008773804,10|0,1:2|0:0,0:0:0:0:
185,60,138957,2,0,L|130:57,1,46.0000008773804,0|0,1:2|0:0,0:0:0:0:
233,136,139192,6,0,B|290:141|290:141|400:117,1,138.000002632141,2|0,1:2|0:0,0:0:0:0:
401,107,139660,1,8,1:2:0:0:
487,179,139895,1,0,0:0:0:0:
487,179,140012,1,0,0:0:0:0:
487,179,140129,2,0,L|485:280,1,92.0000017547608,0|0,1:2|0:0,0:0:0:0:
384,308,140598,2,0,L|382:216,1,92.0000017547608,8|0,1:2|0:0,0:0:0:0:
200,150,141067,6,0,B|150:146|150:146|102:160,1,100,6|0,1:2|0:0,0:0:0:0:
284,225,141535,2,0,B|334:229|334:229|382:215,1,100,6|0,1:2|0:0,0:0:0:0:
168,110,142004,2,0,B|118:106|118:106|70:120,1,100,6|0,1:2|0:0,0:0:0:0:
318,257,142473,2,0,P|373:263|416:247,1,100,6|0,1:2|0:0,0:0:0:0:
138,311,142942,6,0,L|24:305,1,100,6|0,1:2|0:0,0:0:0:0:
142,180,143410,2,0,L|256:174,1,100,8|0,1:2|0:0,0:0:0:0:
274,151,143762,1,0,0:0:0:0:
274,151,143879,1,0,1:2:0:0:
318,265,144113,1,2,0:0:0:0:
187,82,144348,1,10,1:2:0:0:
368,90,144582,1,2,0:0:0:0:
139,260,144817,6,0,L|25:254,1,100,6|0,1:2|0:0,0:0:0:0:
175,162,145285,2,0,L|289:156,1,100,10|0,1:2|0:0,0:0:0:0:
434,150,145754,1,2,1:2:0:0:
277,295,145988,1,2,0:0:0:0:
350,37,146223,1,10,1:2:0:0:
441,289,146457,1,2,1:2:0:0:
265,134,146692,5,8,1:2:0:0:
232,102,146809,1,8,0:0:0:0:
190,89,146926,1,8,0:0:0:0:
146,95,147043,1,8,0:0:0:0:
109,120,147160,1,8,1:2:0:0:
88,159,147277,1,8,0:0:0:0:
85,204,147395,1,8,0:0:0:0:
103,245,147512,1,8,0:0:0:0:
135,277,147629,5,8,1:2:0:0:
186,247,147746,1,8,0:0:0:0:
244,234,147863,1,8,0:0:0:0:
302,247,147981,1,8,0:0:0:0:
349,283,148098,2,8,L|346:327,6,25
276,369,148567,5,10,1:2:0:0:
256,192,148684,12,2,149973,0:0:0:0:
221,180,150442,6,0,P|168:193|114:186,2,96,6|2|2,1:2|0:0|0:0,0:0:0:0:
293,116,151379,2,0,P|346:129|400:122,2,96,10|2|2,0:0|0:0|0:0,0:0:0:0:
223,49,152317,6,0,L|138:53,1,64,2|0,0:0|0:0,0:0:0:0:
132,69,152668,2,0,L|47:65,1,64,2|0,0:0|0:0,0:0:0:0:
35,64,153020,1,2,0:0:0:0:
10,156,153254,2,0,B|27:287|27:287|70:237,1,192,2|0,0:0|0:0,0:0:0:0:
158,152,154192,6,0,L|168:257,2,96,2|2|2,1:2|0:0|0:0,0:0:0:0:
240,102,155129,2,0,L|250:-3,2,96,10|2|2,0:0|0:0|0:0,0:0:0:0:
281,188,156067,6,0,P|323:167|445:233,1,192,2|0,0:0|0:0,0:0:0:0:
418,319,157004,2,0,P|376:340|254:274,1,192,2|0,0:0|0:0,0:0:0:0:
174,230,157942,6,0,L|57:239,1,96,2|2,1:2|0:0,0:0:0:0:
47,243,158410,2,0,P|41:205|34:169,1,64,0|2,0:0|0:0,0:0:0:0:
71,90,158879,2,0,P|117:75|178:99,1,96,10|2,0:0|0:0,0:0:0:0:
190,102,159348,2,0,P|196:64|203:28,1,64,0|2,0:0|0:0,0:0:0:0:
293,13,159817,6,0,P|301:62|310:124,1,96,2|2,0:0|0:0,0:0:0:0:
314,139,160285,1,0,0:0:0:0:
383,205,160520,1,2,0:0:0:0:
468,161,160754,2,0,P|481:113|472:56,2,96,2|2|2,0:0|0:0|0:0,0:0:0:0:
383,205,161692,6,0,B|278:182|298:253|181:226,1,192,2|0,1:2|0:0,0:0:0:0:
124,167,162629,2,0,P|163:219|112:333,1,192,8|0,0:0|0:0,0:0:0:0:
121,328,163567,5,0,0:0:0:0:
33,367,163801,1,2,0:0:0:0:
9,274,164035,2,0,L|15:197,1,64,2|2,0:0|0:0,0:0:0:0:
96,161,164504,2,0,L|90:84,1,64,2|2,0:0|0:0,0:0:0:0:
170,42,164973,2,0,P|214:55|281:39,1,96,2|0,0:0|0:0,0:0:0:0:
293,28,165442,6,0,L|430:33,2,107.999996704102,6|2|2,0:0|0:0|0:0,0:0:0:0:
209,145,166379,2,0,L|72:150,2,107.999996704102,10|2|2,0:0|0:0|0:0,0:0:0:0:
346,190,167317,6,0,P|362:238|356:299,1,107.999996704102,2|2,0:0|0:0,0:0:0:0:
348,329,167785,2,0,L|430:332,1,71.9999978027344,0|2,0:0|0:0,0:0:0:0:
241,255,168254,2,0,B|120:234|148:320|25:293,1,215.999993408203,2|0,0:0|0:0,0:0:0:0:
6,149,169192,6,0,P|57:122|121:122,2,107.999996704102,2|2|2,1:2|0:0|0:0,0:0:0:0:
84,27,170102,2,0,P|137:31|184:56,2,107.999996704102,10|2|2,0:0|0:0|0:0,0:0:0:0:
6,149,171013,6,0,L|19:311,1,143.999995605469,2|0,0:0|0:0,0:0:0:0:
100,362,171696,1,0,0:0:0:0:
189,302,171923,2,0,B|252:298|288:338|288:338|323:298|395:304,1,215.999993408203,2|0,0:0|0:0,0:0:0:0:
479,172,172834,6,0,P|490:111|472:52,2,120,2|2|2,1:2|0:0|0:0,0:0:0:0:
318,172,173736,2,0,P|307:111|325:52,2,120,10|2|2,0:0|0:0|0:0,0:0:0:0:
385,319,174638,6,0,L|254:310,1,120,2|2,0:0|0:0,0:0:0:0:
233,286,175081,2,0,L|143:292,1,80,0|2,0:0|0:0,0:0:0:0:
63,158,175524,2,0,P|110:134|186:138,1,120,2|2,0:0|0:0,0:0:0:0:
209,156,175968,2,0,L|215:62,1,80,0|2,0:0|0:0,0:0:0:0:
362,11,176411,5,0,1:2:0:0:
437,103,176629,1,2,0:0:0:0:
437,103,176739,1,2,0:0:0:0:
437,103,176848,1,2,1:2:0:0:
319,124,177067,1,2,0:0:0:0:
361,236,177286,5,0,1:2:0:0:
242,217,177505,1,2,0:0:0:0:
242,217,177615,1,2,0:0:0:0:
242,217,177724,1,2,1:2:0:0:
319,124,177943,1,2,0:0:0:0:
361,236,178162,6,0,L|350:349,1,80,0|0,1:2|0:0,0:0:0:0:
209,364,178596,1,0,0:0:0:0:
209,364,178705,1,0,0:0:0:0:
209,364,178814,2,0,L|203:307,1,40
198,216,179031,1,0,0:0:0:0:
91,312,179248,2,0,L|56:310,1,20,0|0,1:2|1:2,1:2:0:0:
91,312,179357,2,0,L|56:310,1,20,0|0,1:2|1:2,1:2:0:0:
91,312,179466,1,0,1:2:0:0:
288,261,179683,1,8,0:0:0:0:
95,161,179901,6,0,B|84:115|84:115|99:52,1,88.000002685547,6|0,1:2|0:0,0:0:0:0:
189,32,180227,1,0,0:0:0:0:
189,32,180335,2,0,B|200:78|200:78|185:141,1,88.000002685547,8|0,1:2|0:0,0:0:0:0:
335,245,180770,2,0,B|324:199|324:199|339:136,1,88.000002685547,2|0,1:2|0:0,0:0:0:0:
429,116,181096,1,0,0:0:0:0:
429,116,181205,2,0,B|440:162|440:162|425:225,1,88.000002685547,8|0,1:2|0:0,0:0:0:0:
288,339,181640,6,0,L|186:333,1,88.000002685547,2|0,1:2|0:0,0:0:0:0:
119,271,181966,1,0,0:0:0:0:
119,271,182074,2,0,L|17:277,1,88.000002685547,8|0,1:2|0:0,0:0:0:0:
16,74,182509,2,0,L|118:80,1,88.000002685547,2|0,1:2|0:0,0:0:0:0:
188,149,182835,1,0,0:0:0:0:
188,149,182944,2,0,L|239:146,1,44.0000013427735,10|0,1:2|0:0,0:0:0:0:
320,80,183161,2,0,L|371:83,1,44.0000013427735,0|0,1:2|0:0,0:0:0:0:
470,112,183379,6,0,P|490:168|465:247,1,132.00000402832,2|0,1:2|0:0,0:0:0:0:
450,264,183814,2,0,L|455:357,1,88.000002685547,8|0,1:2|0:0,0:0:0:0:
352,175,184248,1,0,1:2:0:0:
238,331,184466,1,0,0:0:0:0:
238,331,184574,1,0,0:0:0:0:
238,331,184683,2,0,P|183:338|143:329,1,88.000002685547,10|0,1:2|0:0,0:0:0:0:
21,189,185118,6,0,P|76:182|116:191,1,88.000002685547,2|0,1:2|0:0,0:0:0:0:
211,226,185444,1,0,0:0:0:0:
211,226,185553,2,0,L|219:118,1,88.000002685547,8|0,1:2|0:0,0:0:0:0:
366,15,185987,2,0,L|374:123,1,88.000002685547,0|0,1:2|0:0,0:0:0:0:
392,296,186422,1,10,1:2:0:0:
502,137,186640,1,2,1:2:0:0:
296,215,186857,6,0,P|233:222|204:214,1,88.000002685547,2|0,1:2|0:0,0:0:0:0:
129,153,187183,1,0,0:0:0:0:
129,153,187292,2,0,L|138:57,1,88.000002685547,8|0,1:2|0:0,0:0:0:0:
3,218,187727,2,0,L|12:314,1,88.000002685547,2|0,1:2|0:0,0:0:0:0:
93,371,188053,1,0,0:0:0:0:
93,371,188161,2,0,P|136:374|178:362,1,88.000002685547,8|0,1:2|0:0,0:0:0:0:
302,212,188596,6,0,P|350:214|401:216,1,88.000002685547,2|0,1:2|0:0,0:0:0:0:
435,309,188922,1,0,0:0:0:0:
435,309,189031,2,0,P|387:311|336:313,1,88.000002685547,8|0,1:2|0:0,0:0:0:0:
153,318,189466,2,0,P|141:263|150:217,1,88.000002685547,2|0,1:2|0:0,0:0:0:0:
213,150,189792,1,0,0:0:0:0:
213,150,189901,2,0,L|208:104,1,44.0000013427735,10|0,1:2|0:0,0:0:0:0:
116,53,190118,2,0,L|121:7,1,44.0000013427735,0|0,1:2|0:0,0:0:0:0:
239,11,190335,6,0,P|293:35|365:21,1,132.00000402832,2|0,1:2|0:0,0:0:0:0:
393,3,190770,2,0,P|399:47|405:94,1,88.000002685547,8|0,1:2|0:0,0:0:0:0:
427,282,191205,1,0,1:2:0:0:
262,179,191422,1,0,0:0:0:0:
262,179,191531,1,0,0:0:0:0:
262,179,191640,2,0,P|209:178|172:192,1,88.000002685547,10|0,1:2|0:0,0:0:0:0:
339,339,192074,5,6,1:2:0:0:
456,185,192292,1,0,0:0:0:0:
456,185,192401,1,0,0:0:0:0:
456,185,192509,1,0,0:0:0:0:
262,179,192727,1,2,1:2:0:0:
262,179,192835,1,0,0:0:0:0:
262,179,192944,2,0,L|264:126,1,44.0000013427735
343,80,193161,2,0,L|341:27,1,44.0000013427735
244,24,193379,2,0,L|230:8,1,22.0000006713867,2|0,1:2|1:2,0:0:0:0:
213,41,193487,1,0,1:2:0:0:
179,49,193596,1,0,1:2:0:0:
144,48,193705,1,0,1:2:0:0:
110,38,193814,6,0,L|103:109,3,44.0000013427735,6|0|0|0,1:2|0:0|0:0|0:0,0:0:0:0:
37,151,194248,2,0,L|43:222,3,44.0000013427735,8|0|0|0,1:2|0:0|0:0|0:0,0:0:0:0:
94,275,194683,5,2,1:2:0:0:
126,287,194792,1,0,0:0:0:0:
160,290,194901,1,0,0:0:0:0:
195,285,195009,1,0,0:0:0:0:
226,268,195118,1,8,1:2:0:0:
258,254,195227,1,0,0:0:0:0:
293,251,195335,1,0,0:0:0:0:
326,262,195444,1,0,0:0:0:0:
355,281,195553,6,0,L|363:238,3,44.0000013427735,2|0|0|0,1:2|0:0|0:0|0:0,0:0:0:0:
423,161,195987,2,0,L|414:118,3,44.0000013427735,8|0|0|0,1:2|0:0|0:0|0:0,0:0:0:0:
367,31,196422,5,2,1:2:0:0:
334,17,196531,1,0,0:0:0:0:
299,13,196640,1,0,0:0:0:0:
264,17,196748,1,0,0:0:0:0:
232,31,196857,2,0,P|227:56|225:82,1,44.0000013427735,10|0,1:2|0:0,0:0:0:0:
260,165,197074,2,0,P|265:189|267:215,1,44.0000013427735,0|0,1:2|0:0,0:0:0:0:
235,301,197292,5,2,1:2:0:0:
204,318,197401,1,0,0:0:0:0:
170,327,197509,1,0,0:0:0:0:
135,328,197618,1,0,0:0:0:0:
101,319,197727,1,8,1:2:0:0:
120,289,197835,1,0,0:0:0:0:
128,255,197944,1,0,0:0:0:0:
126,220,198053,1,0,0:0:0:0:
113,187,198161,6,0,L|120:129,3,44.0000013427735,0|0|0|0,1:2|0:0|0:0|0:0,0:0:0:0:
209,110,198596,2,0,L|216:168,3,44.0000013427735,10|0|0|0,1:2|0:0|0:0|0:0,0:0:0:0:
265,236,199031,5,2,1:2:0:0:
299,244,199140,1,0,0:0:0:0:
334,244,199248,1,0,0:0:0:0:
368,236,199357,1,0,0:0:0:0:
399,220,199466,1,8,1:2:0:0:
377,193,199574,1,0,0:0:0:0:
366,159,199683,1,0,0:0:0:0:
368,124,199792,1,0,0:0:0:0:
382,92,199901,5,0,1:2:0:0:
355,69,200009,1,0,0:0:0:0:
324,54,200118,1,0,0:0:0:0:
289,46,200227,1,0,0:0:0:0:
254,47,200335,2,0,L|259:0,1,44.0000013427735,10|0,1:2|0:0,0:0:0:0:
149,61,200553,2,0,L|153:108,1,44.0000013427735,2|0,1:2|0:0,0:0:0:0:
223,189,200770,6,0,L|218:236,3,44.0000013427735,6|0|0|0,1:2|0:0|0:0|0:0,0:0:0:0:
139,288,201205,2,0,L|143:335,3,44.0000013427735,8|0|0|0,1:2|0:0|0:0|0:0,0:0:0:0:
233,369,201640,5,2,1:2:0:0:
266,357,201748,1,0,0:0:0:0:
301,354,201857,1,0,0:0:0:0:
335,361,201966,1,0,0:0:0:0:
367,375,202074,1,8,1:2:0:0:
367,339,202183,1,0,0:0:0:0:
368,304,202292,1,0,0:0:0:0:
369,269,202401,1,0,0:0:0:0:
370,234,202509,6,0,L|426:231,1,44.0000013427735,6|0,1:2|0:0,0:0:0:0:
456,144,202727,2,0,L|400:141,1,44.0000013427735
325,97,202944,1,8,1:2:0:0:
292,83,203053,1,0,0:0:0:0:
256,80,203161,1,0,0:0:0:0:
222,88,203270,1,0,0:0:0:0:
191,106,203379,5,2,1:2:0:0:
156,112,203487,1,0,0:0:0:0:
120,110,203596,1,0,0:0:0:0:
89,93,203705,1,0,0:0:0:0:
62,69,203814,2,0,L|12:73,1,44.0000013427735,10|0,1:2|0:0,0:0:0:0:
0,168,204031,2,0,L|50:172,1,44.0000013427735,0|0,1:2|0:0,0:0:0:0:
166,222,204248,6,0,P|173:261|173:278,1,44.0000013427735,6|0,1:2|0:0,0:0:0:0:
166,362,204466,1,0,0:0:0:0:
133,374,204574,1,0,0:0:0:0:
98,373,204683,1,8,1:2:0:0:
65,362,204792,1,0,0:0:0:0:
38,340,204901,1,0,0:0:0:0:
20,310,205009,1,0,0:0:0:0:
13,275,205118,6,0,L|74:271,1,44.0000013427735,6|0,1:2|0:0,0:0:0:0:
173,265,205335,1,0,0:0:0:0:
202,284,205444,1,0,0:0:0:0:
234,296,205553,2,8,L|234:326,1,22.0000006713867,10|8,0:0|0:0,0:0:0:0:
269,299,205661,2,8,L|273:331,1,22.0000006713867
304,297,205770,2,8,L|312:327,1,22.0000006713867
337,288,205879,2,8,L|354:316,1,22.0000006713867
361,263,205987,6,0,B|375:215|375:215|363:145,1,103.999995239258,4|0,1:2|0:0,0:0:0:0:
152,33,206422,2,0,B|138:81|138:81|150:151,1,103.999995239258,4|0,1:2|0:0,0:0:0:0:
188,381,206857,1,4,1:2:0:0:
264,176,207074,1,0,1:2:0:0:
34,273,207292,1,4,1:2:0:0:
215,373,207509,1,0,1:2:0:0:
243,366,207727,6,0,P|304:339|337:276,2,136.000002593994,2|10|2,0:0|0:0|0:0,0:0:0:0:
157,371,208814,1,0,0:0:0:0:
197,296,209031,2,0,L|194:223,1,68.0000012969971,10|0,0:0|0:0,0:0:0:0:
160,146,209466,6,0,P|194:139|230:147,1,68.0000012969971,2|0,0:0|0:0,0:0:0:0:
283,212,209792,1,0,0:0:0:0:
283,212,209901,2,0,P|317:219|353:211,1,68.0000012969971,10|0,0:0|0:0,0:0:0:0:
443,249,210335,6,0,P|450:215|442:179,1,68.0000012969971,2|0,0:0|0:0,0:0:0:0:
377,126,210661,1,0,0:0:0:0:
377,126,210770,2,0,P|370:92|378:56,1,68.0000012969971,8|0,0:0|0:0,0:0:0:0:
295,23,211205,6,0,B|225:31|225:31|136:19,2,136.000002593994,2|10|2,0:0|0:0|0:0,0:0:0:0:
376,59,212292,1,0,0:0:0:0:
308,115,212509,2,0,L|304:190,1,68.0000012969971,10|0,0:0|0:0,0:0:0:0:
311,351,212944,6,0,P|309:291|300:261,1,68.0000012969971,2|0,0:0|0:0,0:0:0:0:
223,237,213270,1,0,0:0:0:0:
223,237,213379,2,0,L|148:233,1,68.0000012969971,8|0,0:0|0:0,0:0:0:0:
93,137,213814,2,0,L|168:133,1,68.0000012969971
250,95,214140,1,0,0:0:0:0:
250,95,214248,2,0,L|325:99,1,68.0000012969971,10|0,0:0|0:0,0:0:0:0:
376,164,214683,6,0,P|357:100|379:37,2,136.000002593994,2|10|2,0:0|0:0|0:0,0:0:0:0:
432,234,215770,1,0,0:0:0:0:
341,249,215987,2,0,P|284:254|266:251,1,68.0000012969971,10|0,0:0|0:0,0:0:0:0:
205,195,216422,6,0,P|148:190|130:193,1,68.0000012969971,2|0,0:0|0:0,0:0:0:0:
54,221,216748,1,0,0:0:0:0:
54,221,216857,2,0,L|51:147,1,68.0000012969971,10|0,0:0|0:0,0:0:0:0:
127,32,217292,2,0,L|130:106,1,68.0000012969971,2|0,0:0|0:0,0:0:0:0:
209,137,217618,1,0,0:0:0:0:
209,137,217727,2,0,P|266:142|284:139,1,68.0000012969971,10|0,0:0|0:0,0:0:0:0:
353,96,218161,6,0,L|495:93,1,136.000002593994,2|2,0:0|0:0,0:0:0:0:
418,258,219031,2,0,L|276:255,1,136.000002593994,2|2,0:0|0:0,0:0:0:0:
172,116,219901,1,6,0:0:0:0:
172,116,220987,2,0,P|182:186|162:253,1,136.000002593994,2|0,0:0|0:0,0:0:0:0:
131,328,221640,5,6,0:0:0:0:
3,225,222074,1,2,0:0:0:0:
101,95,222509,1,2,0:0:0:0:
228,196,222944,1,2,0:0:0:0:
472,103,223379,2,0,L|337:92,2,120.000004577637,10|2|2,0:0|0:0|0:0,0:0:0:0:
472,103,225118,5,2,0:0:0:0:
394,239,225553,1,2,0:0:0:0:
315,96,225987,1,2,0:0:0:0:
472,103,226422,1,2,0:0:0:0:
302,193,226857,2,0,B|245:183|192:223|192:223|143:175|77:185,1,240.000009155274,2|0,0:0|0:0,0:0:0:0:
51,43,228161,1,2,0:0:0:0:
187,17,228596,5,2,0:0:0:0:
156,177,229031,1,2,0:0:0:0:
276,66,229466,1,2,0:0:0:0:
114,86,229901,1,2,0:0:0:0:
254,281,230335,2,0,P|266:223|247:144,2,120.000004577637,10|2|2,0:0|0:0|0:0,0:0:0:0:
141,370,231640,1,2,0:0:0:0:
49,258,232074,6,0,L|43:117,1,120.000004577637,2|2,0:0|0:0,0:0:0:0:
161,35,232944,2,0,L|155:176,1,120.000004577637,2|2,0:0|0:0,0:0:0:0:
306,362,233814,6,0,B|289:293|318:254|318:254|278:190|278:190|304:132|275:61,1,311.999985717774,2|0,0:0|0:0,0:0:0:0:
417,115,235553,6,0,L|527:110,2,96,6|2|2,1:2|0:0|0:0,0:0:0:0:
370,202,236422,2,0,L|260:197,2,96,10|2|2,0:0|0:0|0:0,0:0:0:0:
490,209,237292,5,2,0:0:0:0:
442,294,237618,1,2,0:0:0:0:
389,211,237944,1,2,0:0:0:0:
496,367,238161,2,0,B|455:349|442:314|442:314|397:377|316:357,1,192,2|0,0:0|0:0,0:0:0:0:
255,325,239031,6,0,P|202:312|148:319,2,96,2|2|2,1:2|0:0|0:0,0:0:0:0:
328,263,239900,2,0,P|381:250|435:257,2,96,10|2|2,0:0|0:0|0:0,0:0:0:0:
242,222,240770,6,0,B|223:149|234:89|234:89|219:113|187:130,1,192,2|0,0:0|0:0,0:0:0:0:
96,196,241640,2,0,P|77:103|144:22,1,192,2|0,0:0|0:0,0:0:0:0:
226,16,242509,6,0,P|272:20|331:14,1,96,2|2,1:2|0:0,0:0:0:0:
350,2,242944,2,0,L|358:72,1,64,0|2,0:0|0:0,0:0:0:0:
413,144,243379,2,0,L|399:265,1,96,10|2,0:0|0:0,0:0:0:0:
378,261,243814,2,0,P|336:264|306:258,1,64,0|2,0:0|0:0,0:0:0:0:
248,190,244248,6,0,P|186:185|143:194,1,96,2|2,0:0|0:0,0:0:0:0:
122,202,244683,1,0,0:0:0:0:
54,270,244900,1,2,0:0:0:0:
10,184,245118,2,0,L|-3:62,2,96,2|2|2,0:0|0:0|0:0,0:0:0:0:
54,270,245987,6,0,B|143:298|146:244|247:271,1,192,2|0,1:2|0:0,0:0:0:0:
281,348,246857,2,0,L|279:154,1,192,8|0,0:0|0:0,0:0:0:0:
279,156,247727,5,0,0:0:0:0:
277,59,247944,1,2,0:0:0:0:
362,102,248161,2,0,P|409:106|434:100,1,64,2|2,0:0|0:0,0:0:0:0:
502,160,248596,2,0,L|500:232,1,64,2|2,0:0|0:0,0:0:0:0:
422,280,249031,2,0,L|424:352,1,64,2|0,0:0|0:0,0:0:0:0:
299,354,249466,6,0,P|247:346|168:356,1,120,6|2,1:2|0:0,0:0:0:0:
142,366,249894,1,8,0:0:0:0:
51,287,250108,2,0,L|48:218,4,40,2|0|2|0|8,0:0|0:0|0:0|0:0|0:0,0:0:0:0:
131,197,250751,2,0,L|134:128,4,40,0|0|2|0|10,0:0|0:0|0:0|0:0|0:0,0:0:0:0:
46,114,251385,5,0,0:0:0:0:
46,114,251488,1,0,0:0:0:0:
46,114,251590,2,0,L|41:16,1,80,0|0,1:2|0:0,0:0:0:0:
136,77,251899,1,0,0:0:0:0:
136,77,252001,2,0,L|132:156,1,80,0|0,1:2|0:0,0:0:0:0:
223,103,252310,1,0,0:0:0:0:
223,103,252412,2,0,L|219:23,1,80,0|0,1:2|0:0,0:0:0:0:
303,157,252823,6,0,L|296:304,1,120,6|2,1:2|0:0,0:0:0:0:
294,316,253225,1,8,0:0:0:0:
444,318,253427,1,2,0:0:0:0:
448,291,253527,1,0,0:0:0:0:
449,266,253628,1,2,0:0:0:0:
445,239,253729,1,0,0:0:0:0:
436,214,253829,1,10,0:0:0:0:
395,120,254031,2,0,L|398:58,4,40,0|0|2|0|8,0:0|0:0|0:0|0:0|0:0,0:0:0:0:
308,184,254626,5,0,0:0:0:0:
308,184,254723,1,0,0:0:0:0:
308,184,254820,2,0,P|225:191|215:188,1,80,0|0,1:2|0:0,0:0:0:0:
174,116,255110,1,0,0:0:0:0:
174,116,255207,2,0,P|91:109|81:112,1,80,0|0,1:2|0:0,0:0:0:0:
3,200,255594,2,8,L|2:240,6,23.9999992675781
46,284,255981,6,0,P|118:277|185:290,1,120,6|2,1:2|0:0,0:0:0:0:
201,299,256351,1,8,0:0:0:0:
302,339,256536,1,2,0:0:0:0:
332,346,256629,1,0,0:0:0:0:
364,345,256721,1,2,0:0:0:0:
395,336,256814,1,0,0:0:0:0:
422,319,256906,1,8,0:0:0:0:
490,233,257092,1,0,0:0:0:0:
487,197,257184,1,0,0:0:0:0:
484,161,257277,1,2,0:0:0:0:
481,125,257369,1,0,0:0:0:0:
480,89,257462,5,8,0:0:0:0:
363,34,257646,1,0,0:0:0:0:
363,34,257738,1,2,0:0:0:0:
363,34,257830,2,0,L|279:32,1,80,0|2,1:2|0:0,0:0:0:0:
239,135,258106,1,0,0:0:0:0:
239,135,258198,2,0,L|323:133,1,80,2|0,1:2|0:0,0:0:0:0:
371,236,258467,1,2,0:0:0:0:
371,236,258557,2,0,L|287:234,1,80,0|2,1:2|0:0,0:0:0:0:
110,321,258916,6,0,L|234:318,1,120,6|0,1:2|0:0,0:0:0:0:
269,315,259264,1,8,0:0:0:0:
404,257,259439,1,0,0:0:0:0:
388,221,259526,1,0,0:0:0:0:
381,182,259613,1,0,0:0:0:0:
383,143,259700,1,0,0:0:0:0:
393,106,259788,1,8,0:0:0:0:
325,19,259962,1,0,0:0:0:0:
277,21,260049,1,0,0:0:0:0:
229,23,260137,6,0,P|195:27|143:17,1,60.0000022888184
49,29,260337,6,0,L|48:76,2,47.9999985351563,2|0|2,0:0|0:0|0:0,0:0:0:0:
108,137,260860,1,2,0:0:0:0:
100,238,261028,6,0,L|107:321,1,71.9999978027344,2|0,0:0|0:0,0:0:0:0:
188,193,261363,2,0,L|181:276,1,71.9999978027344,2|0,0:0|0:0,0:0:0:0:
269,359,261688,6,0,P|332:336|421:353,2,160,14|8|8,0:0|0:0|0:0,0:0:0:0:
106,309,262550,1,2,0:0:0:0:
188,193,262722,1,10,0:0:0:0:
234,370,262894,1,2,0:0:0:0:
318,206,263067,6,0,P|314:165|310:119,1,80,10|0,0:0|0:0,0:0:0:0:
164,13,263412,2,0,P|160:54|156:100,1,80,10|0,0:0|0:0,0:0:0:0:
126,265,263756,1,10,0:0:0:0:
65,133,263929,1,2,0:0:0:0:
199,182,264101,2,0,P|243:178|299:173,1,80,10|0,0:0|0:0,0:0:0:0:
422,167,264446,6,0,P|450:240|428:329,2,160,10|8|8,0:0|0:0|0:0,0:0:0:0:
345,73,265308,1,0,0:0:0:0:
278,174,265481,2,0,L|272:261,1,80,8|0,0:0|0:0,0:0:0:0:
60,304,265825,6,0,B|37:174|37:174|93:203,1,180.000006866455,6|0,1:2|0:0,0:0:0:0:
173,237,266170,2,0,B|189:185|167:147|167:147|144:105|166:46,1,180.000006866455,6|0,1:2|0:0,0:0:0:0:
244,2,266515,2,0,B|278:32|278:32|417:15,1,180.000006866455,6|0,1:2|0:0,0:0:0:0:
505,58,266860,2,0,B|512:99|512:99|499:136|499:136|521:181|506:237,1,180.000006866455,6|0,1:2|0:0,0:0:0:0:
403,304,267205,6,0,P|356:266|241:272,2,160,14|8|8,0:0|0:0|0:0,0:0:0:0:
306,376,268067,1,2,0:0:0:0:
234,251,268239,1,10,0:0:0:0:
159,374,268412,1,2,0:0:0:0:
81,221,268584,6,0,P|83:180|87:123,1,80,10|0,0:0|0:0,0:0:0:0:
227,10,268929,2,0,P|229:51|233:108,1,80,10|0,0:0|0:0,0:0:0:0:
245,284,269274,1,10,0:0:0:0:
348,118,269446,1,2,0:0:0:0:
167,191,269619,1,10,0:0:0:0:
356,239,269791,1,2,0:0:0:0:
231,89,269963,6,0,P|157:73|78:111,2,160,10|8|8,0:0|0:0|0:0,0:0:0:0:
336,146,270825,1,0,0:0:0:0:
443,92,270998,2,0,P|449:52|438:6,1,80,8|0,0:0|0:0,0:0:0:0:
240,187,271343,6,0,P|244:227|250:285,1,80,4|0,1:2|0:0,0:0:0:0:
339,115,271688,1,0,0:0:0:0:
164,97,271860,1,0,0:0:0:0:
340,233,272032,2,0,L|366:231,1,20
344,237,272119,2,0,L|370:235,1,20
348,241,272205,2,0,L|374:239,1,20,2|0,0:0|0:0,0:0:0:0:
211,344,272377,2,0,B|77:326|77:326|133:382,1,180.000006866455,6|0,1:2|0:0,0:0:0:0:
223,365,272722,6,0,P|242:299|220:186,1,176.000005371094,4|0,1:2|1:2,0:0:0:0:
143,89,273239,1,0,0:0:0:0:
10,254,273412,1,0,1:2:0:0:
194,195,273584,1,2,0:0:0:0:
15,67,273756,1,2,1:2:0:0:
116,263,273929,1,2,0:0:0:0:
272,109,274101,6,0,P|269:66|265:7,1,88.000002685547,2|0,1:2|0:0,0:0:0:0:
456,178,274446,2,0,P|453:221|449:280,1,88.000002685547,2|0,1:2|0:0,0:0:0:0:
272,134,274791,1,2,1:2:0:0:
427,52,274963,1,2,0:0:0:0:
310,239,275136,2,0,P|265:245|205:225,1,88.000002685547,2|0,1:2|0:0,0:0:0:0:
70,148,275481,6,0,B|58:209|58:209|76:256|76:256|64:343,2,176.000005371094,2|0|0,1:2|1:2|1:2,0:0:0:0:
109,21,276343,1,0,0:0:0:0:
276,73,276515,2,0,P|287:115|281:159,1,88.000002685547,0|0,1:2|0:0,0:0:0:0:
161,322,276860,5,2,1:2:0:0:
179,120,277032,1,0,1:2:0:0:
357,277,277205,1,2,1:2:0:0:
172,222,277377,1,0,0:0:0:0:
172,222,277463,1,0,0:0:0:0:
172,222,277550,2,0,L|60:231,1,88.000002685547,2|0,1:2|0:0,0:0:0:0:
276,73,277894,1,2,1:2:0:0:
263,311,278067,1,8,0:0:0:0:
263,311,278153,2,0,L|230:315,1,22.0000006713867,8|8,0:0|0:0,0:0:0:0:
267,315,278239,6,0,P|332:340|431:302,1,176.000005371094,4|0,1:2|1:2,0:0:0:0:
504,196,278756,1,0,0:0:0:0:
342,220,278929,1,0,1:2:0:0:
452,319,279101,1,2,0:0:0:0:
410,111,279274,1,2,1:2:0:0:
474,339,279446,1,2,1:2:0:0:
249,292,279619,6,0,L|150:297,1,88.000002685547,4|0,1:2|0:0,0:0:0:0:
2,132,279963,2,0,L|101:137,1,88.000002685547,0|0,1:2|0:0,0:0:0:0:
310,152,280308,1,4,1:2:0:0:
168,45,280481,1,2,0:0:0:0:
204,261,280653,1,2,1:2:0:0:
308,38,280825,1,2,1:2:0:0:
96,165,280998,5,4,1:2:0:0:
341,146,281170,1,0,1:2:0:0:
235,369,281343,1,0,1:2:0:0:
220,158,281515,1,0,1:2:0:0:
425,295,281688,1,0,1:2:0:0:
229,263,281860,1,0,1:2:0:0:
460,180,282032,1,0,1:2:0:0:
474,143,282119,1,0,1:2:0:0:
480,104,282205,1,0,1:2:0:0:
475,65,282291,1,0,1:2:0:0:
460,28,282377,6,0,B|407:18|407:18|348:38|348:38|277:25,1,176.000005371094,4|0,1:2|1:2,0:0:0:0:
92,162,282894,2,0,P|82:204|95:259,1,88.000002685547,0|2,1:2|0:0,0:0:0:0:
273,142,283239,1,2,0:0:0:0:
126,42,283412,1,2,0:0:0:0:
189,207,283584,1,2,0:0:0:0:
367,33,283756,6,0,P|424:33|513:133,2,191.999994140625,4|0|0,1:2|1:2|1:2,0:0:0:0:
201,89,284619,1,2,0:0:0:0:
395,150,284791,1,2,1:2:0:0:
261,6,284963,1,2,0:0:0:0:
133,174,285136,6,0,P|124:223|133:272,1,95.9999970703126,2|0,1:2|0:0,0:0:0:0:
326,350,285481,2,0,P|335:301|326:252,1,95.9999970703126,2|0,1:2|0:0,0:0:0:0:
201,89,285825,1,2,1:2:0:0:
131,268,285998,1,2,0:0:0:0:
291,163,286170,2,0,L|401:166,1,95.9999970703126,2|0,1:2|0:0,0:0:0:0:
188,67,286515,6,0,P|86:80|6:34,2,191.999994140625,2|0|0,1:2|1:2|1:2,0:0:0:0:
318,4,287377,1,0,0:0:0:0:
413,160,287550,2,0,P|423:205|411:261,1,95.9999970703126,0|0,1:2|0:0,0:0:0:0:
176,359,287894,5,6,1:2:0:0:
243,210,288067,2,0,L|303:208,1,60.0000022888184
405,134,288239,1,6,1:2:0:0:
171,36,288412,1,0,0:0:0:0:
171,36,288498,1,0,0:0:0:0:
171,36,288584,2,0,P|161:73|164:106,1,60.0000022888184,6|0,1:2|0:0,0:0:0:0:
53,157,288756,2,0,P|52:127|43:98,1,60.0000022888184
7,257,288929,2,0,B|70:284|125:240|125:240|144:267|190:272,1,180.000006866455,6|0,1:2|0:0,0:0:0:0:
299,286,289274,6,0,B|341:230|317:133|317:133|265:96,2,191.999994140625,6|0|0,1:2|1:2|1:2,0:0:0:0:
185,375,290136,1,2,0:0:0:0:
123,143,290308,1,2,1:2:0:0:
271,280,290481,1,2,0:0:0:0:
32,295,290653,6,0,P|26:244|22:190,1,95.9999970703126,2|0,1:2|0:0,0:0:0:0:
160,38,290998,2,0,P|154:89|150:143,1,95.9999970703126,2|0,1:2|0:0,0:0:0:0:
299,286,291343,1,2,1:2:0:0:
330,77,291515,1,2,0:0:0:0:
180,265,291688,1,2,1:2:0:0:
414,311,291860,1,2,0:0:0:0:
242,117,292032,5,2,1:2:0:0:
315,366,292205,1,0,1:2:0:0:
483,170,292377,2,0,P|490:118|479:71,1,95.9999970703126,0|0,1:2|0:0,0:0:0:0:
240,23,292722,2,0,P|233:75|244:122,1,95.9999970703126,0|0,1:2|0:0,0:0:0:0:
318,345,293067,2,0,P|242:338|152:332,1,143.999995605469,0|8,1:2|0:0,0:0:0:0:
90,330,293412,5,4,1:2:0:0:
15,182,293584,1,8,0:0:0:0:
24,147,293670,1,8,0:0:0:0:
57,134,293756,1,8,0:0:0:0:
89,151,293843,1,8,0:0:0:0:
95,187,293929,1,8,0:0:0:0:
71,213,294015,1,8,0:0:0:0:
35,211,294101,1,8,0:0:0:0:
17,45,294274,6,0,L|85:39,1,35.9999989013672
176,102,294446,2,0,B|208:148|207:213|207:213|208:169|253:132,1,180.000006866455,2|0,1:2|0:0,0:0:0:0:
311,54,294791,6,0,P|397:39|488:98,2,191.999994140625,6|0|0,1:2|1:2|1:2,0:0:0:0:
176,102,295653,1,2,0:0:0:0:
376,169,295825,1,2,1:2:0:0:
174,234,295998,1,2,0:0:0:0:
376,292,296170,6,0,P|425:288|481:283,1,95.9999970703126,2|0,1:2|0:0,0:0:0:0:
184,258,296515,2,0,P|135:254|79:249,1,95.9999970703126,2|0,1:2|0:0,0:0:0:0:
289,75,296860,1,2,1:2:0:0:
355,275,297032,1,2,0:0:0:0:
174,115,297205,1,2,1:2:0:0:
412,138,297377,1,0,1:2:0:0:
183,258,297550,6,0,P|94:286|2:239,2,191.999994140625,2|0|0,1:2|1:2|1:2,0:0:0:0:
286,156,298412,1,0,0:0:0:0:
439,286,298584,2,0,L|428:407,1,95.9999970703126,0|0,1:2|0:0,0:0:0:0:
292,184,298929,5,6,1:2:0:0:
454,102,299101,2,0,L|506:107,1,47.9999985351563
394,181,299274,1,2,1:2:0:0:
285,23,299446,1,0,0:0:0:0:
186,202,299619,1,2,1:2:0:0:
171,228,299705,1,0,0:0:0:0:
155,253,299791,2,0,L|81:247,1,60.0000022888184
14,144,299963,1,2,1:2:0:0:
228,113,300136,1,2,0:0:0:0:
257,110,300222,1,2,0:0:0:0:
290,106,300308,6,0,B|314:195|243:196|290:310,2,191.999994140625,6|0|0,1:2|1:2|1:2,0:0:0:0:
178,13,301170,1,2,0:0:0:0:
146,232,301343,1,2,1:2:0:0:
269,85,301515,1,2,0:0:0:0:
38,105,301688,6,0,P|27:149|40:214,1,95.9999970703126,6|0,1:2|0:0,0:0:0:0:
238,301,302032,2,0,P|249:257|236:192,1,95.9999970703126,2|0,1:2|0:0,0:0:0:0:
92,31,302377,1,2,1:2:0:0:
269,85,302550,1,2,0:0:0:0:
59,200,302722,1,2,1:2:0:0:
198,5,302894,1,2,1:2:0:0:
279,252,303067,5,6,1:2:0:0:
373,31,303239,1,0,1:2:0:0:
167,155,303412,1,0,1:2:0:0:
407,175,303584,1,0,1:2:0:0:
225,18,303756,1,0,1:2:0:0:
279,252,303929,1,0,1:2:0:0:
373,31,304101,1,8,1:2:0:0:
415,28,304188,1,8,0:0:0:0:
456,42,304274,2,8,L|459:13,1,23.9999992675781
488,70,304360,2,8,L|505:44,1,23.9999992675781
507,109,304446,6,0,L|498:177,1,47.9999985351563
465,307,304619,1,2,0:0:0:0:
456,305,304705,1,2,0:0:0:0:
448,311,304791,1,2,0:0:0:0:
448,321,304877,1,2,0:0:0:0:
456,327,304963,1,2,0:0:0:0:
465,325,305050,1,2,0:0:0:0:
469,316,305136,6,0,B|440:321|416:309|416:309|389:318|351:304,1,107.999996704102
325,300,305481,6,0,P|280:251|294:295,1,192,2|0,1:2|0:0,0:0:0:0:
231,351,305834,6,0,P|164:365|109:351,1,120,6|0,1:2|0:0,0:0:0:0:
84,342,306178,1,8,0:0:0:0:
93,230,306351,1,0,0:0:0:0:
91,188,306437,1,0,0:0:0:0:
89,148,306524,1,2,0:0:0:0:
88,106,306609,1,0,0:0:0:0:
86,66,306696,1,8,0:0:0:0:
203,29,306868,1,0,0:0:0:0:
237,37,306955,1,0,0:0:0:0:
274,40,307041,1,0,0:0:0:0:
310,36,307128,1,0,0:0:0:0:
345,27,307213,5,10,0:0:0:0:
461,90,307384,1,0,0:0:0:0:
461,90,307471,1,0,0:0:0:0:
461,90,307558,2,0,L|457:170,1,80,0|0,1:2|0:0,0:0:0:0:
358,214,307816,1,0,0:0:0:0:
358,214,307902,2,0,L|354:134,1,80,2|0,1:2|0:0,0:0:0:0:
253,88,308161,1,0,0:0:0:0:
253,88,308247,2,0,L|249:168,1,80,2|0,1:2|0:0,0:0:0:0:
142,247,308592,6,0,L|134:96,1,120,6|0,1:2|0:0,0:0:0:0:
134,91,308950,1,8,0:0:0:0:
22,83,309129,1,0,0:0:0:0:
20,116,309218,1,0,0:0:0:0:
18,150,309308,1,0,0:0:0:0:
16,184,309397,1,0,0:0:0:0:
15,218,309487,1,8,0:0:0:0:
89,310,309666,1,2,0:0:0:0:
118,325,309756,1,0,0:0:0:0:
152,327,309845,1,0,0:0:0:0:
184,315,309935,1,0,0:0:0:0:
207,291,310024,5,10,0:0:0:0:
295,211,310203,1,0,0:0:0:0:
295,211,310293,1,0,0:0:0:0:
295,211,310383,2,0,P|302:128|299:118,1,80,0|0,1:2|0:0,0:0:0:0:
211,96,310651,1,0,0:0:0:0:
211,96,310741,2,0,P|204:13|207:3,1,80,0|0,1:2|0:0,0:0:0:0:
340,8,311099,2,8,L|371:11,6,23.9999992675781
435,53,311457,6,0,P|426:110|444:195,1,120,6|0,1:2|0:0,0:0:0:0:
445,205,311827,1,8,0:0:0:0:
455,307,312012,1,0,0:0:0:0:
429,307,312105,1,0,0:0:0:0:
404,307,312197,1,2,0:0:0:0:
378,307,312290,1,0,0:0:0:0:
353,307,312382,1,8,0:0:0:0:
254,271,312568,2,0,L|204:273,4,40,0|0|0|0|10,0:0|0:0|0:0|0:0|0:0,0:0:0:0:
336,201,313125,5,0,0:0:0:0:
336,201,313219,1,0,0:0:0:0:
336,201,313313,2,0,L|340:121,1,80,0|0,1:2|0:0,0:0:0:0:
245,62,313594,1,0,0:0:0:0:
245,62,313688,2,0,L|249:142,1,80,2|0,1:2|0:0,0:0:0:0:
154,205,313969,1,0,0:0:0:0:
154,205,314063,2,0,L|158:125,1,80,2|0,1:2|0:0,0:0:0:0:
51,50,314438,6,0,L|57:186,1,120,4|0,1:2|0:0,0:0:0:0:
59,205,314822,1,8,0:0:0:0:
108,292,315014,1,0,0:0:0:0:
130,301,315111,1,0,0:0:0:0:
156,304,315207,1,0,0:0:0:0:
181,301,315303,1,0,0:0:0:0:
204,291,315399,1,8,0:0:0:0:
281,219,315591,2,0,L|283:161,4,40,2|0|0|0|8,0:0|0:0|0:0|0:0|0:0,0:0:0:0:
366,299,316172,5,0,0:0:0:0:
366,299,316270,1,0,0:0:0:0:
366,299,316368,2,0,P|429:307|458:298,1,80,0|2,1:2|0:0,0:0:0:0:
501,221,316662,1,0,0:0:0:0:
501,221,316760,1,0,1:2:0:0:
451,131,316956,2,8,L|410:128,10,23.9999992675781
370,184,317544,6,0,P|299:178|236:187,1,120,6|0,1:2|0:0,0:0:0:0:
217,197,317946,1,8,0:0:0:0:
116,200,318148,1,0,0:0:0:0:
115,172,318248,1,0,0:0:0:0:
114,145,318349,1,2,0:0:0:0:
113,118,318450,1,0,0:0:0:0:
112,91,318550,1,8,0:0:0:0:
198,39,318752,2,0,L|200:-8,4,40,0|0|0|0|10,0:0|0:0|0:0|0:0|0:0,0:0:0:0:
282,101,319357,5,0,0:0:0:0:
282,101,319459,1,0,0:0:0:0:
282,101,319560,2,0,L|370:98,1,80,0|0,1:2|0:0,0:0:0:0:
407,188,319864,1,0,0:0:0:0:
407,188,319965,2,0,L|319:185,1,80,2|0,1:2|0:0,0:0:0:0:
291,279,320273,1,0,0:0:0:0:
291,279,320375,2,0,L|379:276,1,80,2|0,1:2|0:0,0:0:0:0:
463,373,320786,6,0,L|334:368,1,120,6|0,1:2|0:0,0:0:0:0:
306,368,321207,1,8,0:0:0:0:
220,317,321417,2,0,L|143:314,4,40,0|0|0|0|8,0:0|0:0|0:0|0:0|0:0,0:0:0:0:
101,363,322049,2,0,L|24:365,4,40,2|0|0|0|10,0:0|0:0|0:0|0:0|0:0,0:0:0:0:
12,276,322680,5,0,0:0:0:0:
12,276,322786,1,0,0:0:0:0:
12,276,322891,2,0,P|3:238|11:188,1,80,0|0,1:2|0:0,0:0:0:0:
97,159,323210,1,0,0:0:0:0:
97,159,323316,2,0,P|106:121|98:71,1,80,0|0,1:2|0:0,0:0:0:0:
196,32,323742,1,2,0:0:0:0:
275,32,323959,1,2,0:0:0:0:
355,32,324176,5,2,1:2:0:0:
404,266,325051,1,2,0:0:0:0:
185,182,325933,1,2,0:0:0:0:
378,148,326828,1,2,0:0:0:0:
404,266,327282,1,2,0:0:0:0:
292,230,327737,5,2,0:0:0:0:
355,32,329132,1,2,0:0:0:0:
404,266,329597,6,0,L|406:358,1,80,0|0,1:2|0:0,0:0:0:0:
498,220,330063,1,0,1:2:0:0:
498,220,330179,1,0,1:2:0:0:
498,220,330296,1,0,1:2:0:0:
319,212,330529,1,0,0:0:0:0:
411,354,330762,2,0,P|411:369|415:386,1,20,0|0,1:2|1:2,1:2:0:0:
411,354,330879,2,0,P|411:369|415:386,1,20,0|0,1:2|1:2,1:2:0:0:
411,354,330995,1,0,1:2:0:0:
412,141,331229,1,8,0:0:0:0:
226,271,331462,5,6,1:2:0:0:
258,129,331696,1,2,0:0:0:0:
354,252,331930,1,2,1:2:0:0:
176,185,332165,1,2,0:0:0:0:
341,76,332399,2,0,L|422:75,1,71.9999978027344,0|0,1:2|0:0,0:0:0:0:
499,144,332868,1,2,1:2:0:0:
500,15,333102,1,2,0:0:0:0:
372,170,333337,6,0,L|291:169,1,71.9999978027344,0|0,1:2|0:0,0:0:0:0:
212,89,333805,1,2,1:2:0:0:
217,260,334040,1,2,0:0:0:0:
305,73,334274,2,0,P|290:35|255:7,1,71.9999978027344,0|0,1:2|0:0,0:0:0:0:
105,10,334743,1,2,1:2:0:0:
212,89,334977,1,2,1:2:0:0:
111,259,335212,6,0,L|110:178,1,71.9999978027344,0|0,1:2|0:0,0:0:0:0:
212,89,335680,1,2,1:2:0:0:
252,230,335915,1,2,0:0:0:0:
113,89,336149,2,0,L|32:90,1,71.9999978027344,0|0,1:2|0:0,0:0:0:0:
11,187,336618,1,2,1:2:0:0:
12,6,336852,1,2,0:0:0:0:
153,166,337087,6,0,L|234:167,1,71.9999978027344,0|0,1:2|0:0,0:0:0:0:
355,171,337555,1,2,1:2:0:0:
292,67,337790,1,2,0:0:0:0:
285,273,338024,2,0,L|284:354,1,71.9999978027344,0|0,1:2|0:0,0:0:0:0:
406,366,338493,1,2,1:2:0:0:
355,171,338727,1,2,0:0:0:0:
163,218,338962,6,0,P|124:227|89:219,1,71.9999978027344,0|0,1:2|0:0,0:0:0:0:
0,95,339430,1,2,1:2:0:0:
125,136,339665,1,2,0:0:0:0:
0,235,339899,2,0,L|1:316,1,71.9999978027344,0|0,1:2|0:0,0:0:0:0:
93,220,340368,1,2,1:2:0:0:
0,95,340602,1,2,0:0:0:0:
86,305,340837,6,0,P|132:296|161:269,1,71.9999978027344,0|0,1:2|0:0,0:0:0:0:
228,157,341305,1,2,1:2:0:0:
93,220,341540,1,2,0:0:0:0:
233,307,341774,2,0,L|314:308,1,71.9999978027344,0|0,1:2|0:0,0:0:0:0:
425,382,342243,1,2,1:2:0:0:
414,178,342477,1,2,1:2:0:0:
209,181,342712,6,0,L|128:182,1,71.9999978027344,0|0,1:2|0:0,0:0:0:0:
277,100,343180,1,2,1:2:0:0:
277,261,343415,1,2,0:0:0:0:
191,95,343649,2,0,L|190:14,1,71.9999978027344,0|0,1:2|0:0,0:0:0:0:
146,172,344118,1,2,1:2:0:0:
277,100,344352,1,2,0:0:0:0:
271,253,344587,6,0,L|268:298,2,35.9999989013672
342,194,345055,1,0,0:0:0:0:
342,194,345172,1,0,0:0:0:0:
342,194,345290,1,0,0:0:0:0:
399,257,345524,2,0,L|400:283,3,23.9999992675781,2|2|2|2,0:0|0:0|0:0|0:0,0:0:0:0:
466,194,345993,2,0,L|469:149,2,35.9999989013672
512,268,346462,6,0,L|507:334,2,64,6|0|0,1:2|0:0|1:2,0:0:0:0:
466,194,347165,2,0,L|461:127,2,64,2|0|0,0:0|1:2|0:0,0:0:0:0:
409,261,347868,2,0,P|381:269|328:257,2,64,2|0|0,1:2|0:0|1:2,0:0:0:0:
309,187,348571,2,0,P|337:179|390:191,2,64,2|0|0,0:0|1:2|0:0,0:0:0:0:
265,264,349274,6,0,L|198:259,1,64,2|0,1:2|0:0,0:0:0:0:
131,178,349743,2,0,L|197:173,1,64,2|0,1:2|1:2,0:0:0:0:
267,111,350212,6,0,P|275:83|263:30,2,64,2|0|0,1:2|0:0|1:2,0:0:0:0:
195,174,350915,2,0,P|187:202|199:255,2,64,2|0|0,0:0|1:2|0:0,0:0:0:0:
274,212,351618,2,0,L|340:216,2,64,2|0|0,1:2|0:0|1:2,0:0:0:0:
385,300,352321,2,0,L|318:304,2,64,2|0|0,0:0|1:2|0:0,0:0:0:0:
466,245,353024,6,0,P|474:217|462:164,1,64,2|0,1:2|0:0,0:0:0:0:
399,124,353493,2,0,P|391:96|403:43,1,64,2|0,1:2|0:0,0:0:0:0:
317,17,353962,6,0,L|250:12,2,64,2|0|0,1:2|0:0|1:2,0:0:0:0:
394,61,354665,1,2,0:0:0:0:
394,85,354899,1,2,1:2:0:0:
394,110,355133,1,2,0:0:0:0:
320,173,355368,6,0,P|312:201|324:254,2,64,2|0|0,1:2|0:0|1:2,0:0:0:0:
245,111,356071,1,2,0:0:0:0:
221,111,356305,1,2,1:2:0:0:
196,111,356540,1,2,0:0:0:0:
116,166,356774,6,0,L|49:161,1,64,2|0,1:2|0:0,0:0:0:0:
101,260,357243,2,0,L|167:255,1,64,2|0,1:2|1:2,0:0:0:0:
252,198,357712,6,0,L|318:202,2,64,2|0|0,1:2|0:0|1:2,0:0:0:0:
196,111,358415,1,2,0:0:0:0:
196,87,358649,1,2,1:2:0:0:
196,62,358883,1,2,0:0:0:0:
110,6,359118,2,0,L|46:1,1,64,0|0,1:2|0:0,0:0:0:0:
196,62,359587,6,0,P|224:57|274:63,1,55.9999982910157,6|0,1:2|0:0,0:0:0:0:
317,109,360055,2,0,P|345:114|395:108,1,55.9999982910157,2|0,0:0|0:0,0:0:0:0:
443,68,360524,2,0,L|444:7,2,55.9999982910157,2|0|0,0:0|0:0|0:0,0:0:0:0:
503,126,361227,1,6,0:0:0:0:
