osu file format v14

[General]
AudioFilename: audio.mp3
AudioLeadIn: 0
PreviewTime: 43585
Countdown: 0
SampleSet: Normal
StackLeniency: 0.7
Mode: 1
LetterboxInBreaks: 0
WidescreenStoryboard: 0

[Editor]
Bookmarks: 460,7960,15460,22960,30460,37960,45460,60460,67960,75460,82960,90460,97960,105460,120460,127960,135460,142960,150460,157960,165460,172960,180460,187960,195342
DistanceSpacing: 0.8
BeatDivisor: 4
GridSize: 32
TimelineZoom: 1.5

[Metadata]
Title:Lunatic set 02 ~ Usagi wa Maiorita
TitleUnicode:Lunatic set 02 〜 兎は舞い降りた
Artist:Rin
ArtistUnicode:凛
Creator:eiri-
Version:Kantan
Source:東方紺珠伝 ~ Legacy of Lunatic Kingdom.
Tags:Ayyri 東方Project Touhou Instrumental Video Game Electronic Featured Artist FA Team Shanghai Alice ZUN LoLK Kanjuden Ultramarine Orb Tale TH15 The Rabbit Has Landed 清蘭 Seiran
BeatmapID:2716442
BeatmapSetID:1309846

[Difficulty]
HPDrainRate:8
CircleSize:2
OverallDifficulty:3
ApproachRate:10
SliderMultiplier:1.4
SliderTickRate:1

[Events]
//Background and Video events
0,0,"Seiran 265.jpg",0,0
//Break Periods
//Storyboard Layer 0 (Background)
//Storyboard Layer 1 (Fail)
//Storyboard Layer 2 (Pass)
//Storyboard Layer 3 (Foreground)
//Storyboard Layer 4 (Overlay)
//Storyboard Sound Samples

[TimingPoints]
460,468.75,4,1,0,75,1,0
45460,-100,4,1,0,75,0,1
60460,-100,4,1,0,75,0,0
105460,-100,4,1,0,75,0,1
120460,-100,4,1,0,75,0,0

[HitObjects]
256,192,28585,5,0,0:0:0:0:
256,192,29522,1,0,0:0:0:0:
256,192,29991,1,12,0:0:0:0:
256,192,30460,1,12,0:0:0:0:
256,192,31397,1,12,0:0:0:0:
256,192,31866,1,0,0:0:0:0:
256,192,32335,1,12,0:0:0:0:
256,192,33272,1,12,0:0:0:0:
256,192,34210,1,12,0:0:0:0:
256,192,34678,1,0,0:0:0:0:
256,192,35147,1,12,0:0:0:0:
256,192,36085,1,12,0:0:0:0:
256,192,37960,1,12,0:0:0:0:
256,192,38428,1,0,0:0:0:0:
256,192,38897,1,12,0:0:0:0:
256,192,39366,1,0,0:0:0:0:
256,192,39835,1,12,0:0:0:0:
256,192,40772,1,12,0:0:0:0:
256,192,41710,1,12,0:0:0:0:
256,192,42178,1,0,0:0:0:0:
256,192,42647,1,12,0:0:0:0:
256,192,43116,1,0,0:0:0:0:
256,192,43585,1,12,0:0:0:0:
256,192,44991,1,4,0:0:0:0:
256,192,45460,1,12,0:0:0:0:
256,192,46397,1,8,0:0:0:0:
256,192,46866,1,8,0:0:0:0:
256,192,47335,1,0,0:0:0:0:
256,192,49210,1,8,0:0:0:0:
256,192,49678,1,0,0:0:0:0:
256,192,50147,1,8,0:0:0:0:
256,192,51085,1,12,0:0:0:0:
256,192,51788,1,12,0:0:0:0:
256,192,52491,1,12,0:0:0:0:
256,192,52960,1,12,0:0:0:0:
256,192,53897,1,8,0:0:0:0:
256,192,54366,1,0,0:0:0:0:
256,192,54835,1,12,0:0:0:0:
256,192,56710,1,12,0:0:0:0:
256,192,57178,1,0,0:0:0:0:
256,192,57647,1,8,0:0:0:0:
256,192,58116,1,0,0:0:0:0:
256,192,58585,1,12,0:0:0:0:
256,192,59288,1,12,0:0:0:0:
256,192,60460,1,12,0:0:0:0:
256,192,60928,1,0,0:0:0:0:
256,192,61397,1,0,0:0:0:0:
256,192,61866,1,8,0:0:0:0:
256,192,62335,1,0,0:0:0:0:
256,192,64210,1,0,0:0:0:0:
256,192,64678,1,8,0:0:0:0:
256,192,65147,1,0,0:0:0:0:
256,192,65616,1,8,0:0:0:0:
256,192,66085,1,4,0:0:0:0:
256,192,66788,1,4,0:0:0:0:
256,192,67491,1,4,0:0:0:0:
256,192,67960,1,12,0:0:0:0:
256,192,68428,1,0,0:0:0:0:
256,192,68897,1,0,0:0:0:0:
256,192,69366,1,8,0:0:0:0:
256,192,69835,1,4,0:0:0:0:
256,192,71710,1,12,0:0:0:0:
256,192,72178,1,0,0:0:0:0:
256,192,72647,1,8,0:0:0:0:
256,192,73116,1,8,0:0:0:0:
256,192,73585,1,4,0:0:0:0:
256,192,75460,1,12,0:0:0:0:
256,192,75928,1,0,0:0:0:0:
256,192,76397,1,8,0:0:0:0:
256,192,77335,1,0,0:0:0:0:
256,192,79210,1,0,0:0:0:0:
256,192,80147,1,8,0:0:0:0:
256,192,81085,1,0,0:0:0:0:
256,192,82960,1,12,0:0:0:0:
256,192,83428,1,0,0:0:0:0:
256,192,83897,1,8,0:0:0:0:
256,192,84835,1,0,0:0:0:0:
256,192,86710,1,0,0:0:0:0:
256,192,87647,1,8,0:0:0:0:
256,192,88585,1,0,0:0:0:0:
256,192,90460,1,12,0:0:0:0:
256,192,90928,1,0,0:0:0:0:
256,192,91397,1,8,0:0:0:0:
256,192,92335,1,0,0:0:0:0:
256,192,93272,1,8,0:0:0:0:
256,192,94210,1,0,0:0:0:0:
256,192,94678,1,8,0:0:0:0:
256,192,95147,1,0,0:0:0:0:
256,192,96085,1,0,0:0:0:0:
256,192,97960,1,12,0:0:0:0:
256,192,98428,1,0,0:0:0:0:
256,192,98897,1,8,0:0:0:0:
256,192,99835,1,0,0:0:0:0:
256,192,100772,1,8,0:0:0:0:
256,192,101710,1,0,0:0:0:0:
256,192,102178,1,8,0:0:0:0:
256,192,102647,1,0,0:0:0:0:
256,192,103585,1,0,0:0:0:0:
256,192,104522,1,12,0:0:0:0:
256,192,105460,1,12,0:0:0:0:
256,192,105928,1,0,0:0:0:0:
256,192,106397,1,8,0:0:0:0:
256,192,106866,1,8,0:0:0:0:
256,192,107335,1,0,0:0:0:0:
256,192,109210,1,8,0:0:0:0:
256,192,109678,1,0,0:0:0:0:
256,192,110147,1,8,0:0:0:0:
256,192,110616,1,0,0:0:0:0:
256,192,111085,1,12,0:0:0:0:
256,192,111788,1,12,0:0:0:0:
256,192,112491,1,12,0:0:0:0:
256,192,112960,1,12,0:0:0:0:
256,192,113428,1,0,0:0:0:0:
256,192,113897,1,8,0:0:0:0:
256,192,114366,1,8,0:0:0:0:
256,192,114835,1,12,0:0:0:0:
256,192,116710,1,12,0:0:0:0:
256,192,117178,1,0,0:0:0:0:
256,192,117647,1,8,0:0:0:0:
256,192,118116,1,0,0:0:0:0:
256,192,118585,1,12,0:0:0:0:
256,192,119288,1,12,0:0:0:0:
256,192,120460,1,12,0:0:0:0:
256,192,120928,1,0,0:0:0:0:
256,192,121397,1,8,0:0:0:0:
256,192,122335,1,0,0:0:0:0:
256,192,123741,1,8,0:0:0:0:
256,192,124210,1,0,0:0:0:0:
256,192,124678,1,8,0:0:0:0:
256,192,125147,1,0,0:0:0:0:
256,192,126085,1,4,0:0:0:0:
256,192,126788,1,4,0:0:0:0:
256,192,127491,1,4,0:0:0:0:
256,192,127960,1,12,0:0:0:0:
256,192,128428,1,0,0:0:0:0:
256,192,128897,1,8,0:0:0:0:
256,192,129835,1,4,0:0:0:0:
256,192,131710,1,12,0:0:0:0:
256,192,132178,1,0,0:0:0:0:
256,192,132647,1,8,0:0:0:0:
256,192,133116,1,8,0:0:0:0:
256,192,133585,1,4,0:0:0:0:
256,192,135460,1,12,0:0:0:0:
256,192,136397,1,0,0:0:0:0:
256,192,136866,1,8,0:0:0:0:
256,192,137335,1,0,0:0:0:0:
256,192,138272,1,8,0:0:0:0:
256,192,140147,1,0,0:0:0:0:
256,192,140616,1,8,0:0:0:0:
256,192,141085,1,0,0:0:0:0:
256,192,142022,1,0,0:0:0:0:
256,192,142960,1,12,0:0:0:0:
256,192,143428,1,0,0:0:0:0:
256,192,143897,1,8,0:0:0:0:
256,192,144835,1,0,0:0:0:0:
256,192,145303,1,8,0:0:0:0:
256,192,145772,1,0,0:0:0:0:
256,192,146710,1,0,0:0:0:0:
256,192,147178,1,12,0:0:0:0:
256,192,148116,1,12,0:0:0:0:
256,192,148585,1,12,0:0:0:0:
256,192,150460,1,12,0:0:0:0:
256,192,151397,1,12,0:0:0:0:
256,192,151866,1,0,0:0:0:0:
256,192,152335,1,12,0:0:0:0:
256,192,153272,1,12,0:0:0:0:
256,192,154210,1,12,0:0:0:0:
256,192,154678,1,0,0:0:0:0:
256,192,155147,1,12,0:0:0:0:
256,192,156085,1,12,0:0:0:0:
256,192,157960,1,12,0:0:0:0:
256,192,158428,1,0,0:0:0:0:
256,192,158897,1,12,0:0:0:0:
256,192,159366,1,0,0:0:0:0:
256,192,159835,1,12,0:0:0:0:
256,192,160772,1,12,0:0:0:0:
256,192,161710,1,12,0:0:0:0:
256,192,162178,1,0,0:0:0:0:
256,192,162647,1,12,0:0:0:0:
256,192,163116,1,0,0:0:0:0:
256,192,163585,1,12,0:0:0:0:
256,192,164991,1,12,0:0:0:0:
256,192,165460,1,12,0:0:0:0:
