osu file format v14

[General]
AudioFilename: audio.mp3
AudioLeadIn: 0
PreviewTime: 187681
Countdown: 1
SampleSet: Normal
StackLeniency: 0.7
Mode: 1
LetterboxInBreaks: 0
WidescreenStoryboard: 0

[Editor]
DistanceSpacing: 0.8
BeatDivisor: 8
GridSize: 8
TimelineZoom: 2

[Metadata]
Title:Kishinjou set 14 ~ Shigen no Beat
TitleUnicode:Kishinjou set 14 〜 始原のビート
Artist:Rin
ArtistUnicode:凛
Creator:CallMeLyra
Version:Percussion Puzzledom
Source:東方輝針城 ~ Double Dealing Character.
Tags:th14 mpg mg mappers' guild DDC fa featured artist クロネコラウンジ raiko horikawa 堀川雷鼓 extra boss Primordial Pristine kuroneko lounge function phantom ZUN team shanghai alice 上海アリス幻樂団 東方project touhou oriental house electronic instrumental SV tech taiko
BeatmapID:3167968
BeatmapSetID:1550297

[Difficulty]
HPDrainRate:5.5
CircleSize:5
OverallDifficulty:6
ApproachRate:5
SliderMultiplier:1.4
SliderTickRate:1

[Events]
//Background and Video events
0,0,"Raiko Taiko.jpg",0,120
//Break Periods
//Storyboard Layer 0 (Background)
//Storyboard Layer 1 (Fail)
//Storyboard Layer 2 (Pass)
//Storyboard Layer 3 (Foreground)
//Storyboard Layer 4 (Overlay)
//Storyboard Sound Samples

[TimingPoints]
474,468.75,4,1,0,50,1,0
474,-95.2380952380952,4,1,0,50,0,0
934,-104.166666666667,4,1,0,50,0,0
1285,-113.636363636364,4,1,0,50,0,0
1402,-115.606936416185,4,1,0,50,0,0
1637,-119.047619047619,4,1,0,50,0,0
1871,-123.456790123457,4,1,0,50,0,0
2106,-128.205128205128,4,1,0,50,0,0
2340,-133.333333333333,4,1,0,50,0,0
2809,-104.166666666667,4,1,0,50,0,0
3043,-111.731843575419,4,1,0,50,0,0
3160,-113.636363636364,4,1,0,50,0,0
3277,-115.606936416185,4,1,0,50,0,0
3512,-119.047619047619,4,1,0,50,0,0
3746,-123.456790123457,4,1,0,50,0,0
3981,-128.205128205128,4,1,0,50,0,0
4215,-133.333333333333,4,1,0,50,0,0
4684,-104.166666666667,4,1,0,50,0,0
4918,-111.731843575419,4,1,0,50,0,0
5035,-113.636363636364,4,1,0,50,0,0
5152,-115.606936416185,4,1,0,50,0,0
5387,-119.047619047619,4,1,0,50,0,0
5621,-123.456790123457,4,1,0,50,0,0
5856,-128.205128205128,4,1,0,50,0,0
6090,-133.333333333333,4,1,0,50,0,0
6559,-104.166666666667,4,1,0,50,0,0
6910,-113.636363636364,4,1,0,50,0,0
7027,-115.606936416185,4,1,0,50,0,0
7262,-119.047619047619,4,1,0,50,0,0
7496,-123.456790123457,4,1,0,50,0,0
7965,-95.2380952380952,4,1,0,50,0,0
8434,-104.166666666667,4,1,0,50,0,0
8785,-113.636363636364,4,1,0,50,0,0
8902,-115.606936416185,4,1,0,50,0,0
9137,-119.047619047619,4,1,0,50,0,0
9371,-123.456790123457,4,1,0,50,0,0
9606,-128.205128205128,4,1,0,50,0,0
9840,-133.333333333333,4,1,0,50,0,0
10309,-104.166666666667,4,1,0,50,0,0
10543,-111.731843575419,4,1,0,50,0,0
10660,-113.636363636364,4,1,0,50,0,0
10777,-115.606936416185,4,1,0,50,0,0
11012,-119.047619047619,4,1,0,50,0,0
11246,-123.456790123457,4,1,0,50,0,0
11481,-128.205128205128,4,1,0,50,0,0
11715,-100,4,1,0,50,0,0
12184,-104.166666666667,4,1,0,50,0,0
12418,-111.731843575419,4,1,0,50,0,0
12535,-113.636363636364,4,1,0,50,0,0
12652,-115.606936416185,4,1,0,50,0,0
12887,-119.047619047619,4,1,0,50,0,0
13121,-123.456790123457,4,1,0,50,0,0
13356,-128.205128205128,4,1,0,50,0,0
13590,-121.951219512195,4,1,0,50,0,0
13707,-121.212121212121,4,1,0,50,0,0
13824,-120.481927710843,4,1,0,50,0,0
14059,-119.047619047619,4,1,0,50,0,0
14176,-117.647058823529,4,1,0,50,0,0
14293,-116.279069767442,4,1,0,50,0,0
14410,-114.942528735632,4,1,0,50,0,0
14527,-113.636363636364,4,1,0,50,0,0
14762,-117.647058823529,4,1,0,50,0,0
14996,-121.951219512195,4,1,0,50,0,0
15409,-100,4,1,0,50,0,0
25081,-99.009900990099,4,1,0,50,0,0
25315,-98.3619779806876,4,1,0,50,0,0
25550,-97.7223843870901,4,1,0,50,0,0
25784,-97.0911491708416,4,1,0,50,0,0
26018,-96.4679234507734,4,1,0,50,0,0
26253,-95.8527395192218,4,1,0,50,0,0
26487,-95.2452613101367,4,1,0,50,0,0
26604,-94.9444005590326,4,1,0,50,0,0
26722,-94.6455241185189,4,1,0,50,0,0
26956,-94.053204016448,4,1,0,50,0,0
27190,-93.4683390021881,4,1,0,50,0,0
27425,-92.8906166543587,4,1,0,50,0,0
27659,-92.3200774011529,4,1,0,50,0,0
27893,-91.756419737907,4,1,0,50,0,0
28128,-91.1996862730792,4,1,0,50,0,0
28362,-90.649585867367,4,1,0,50,0,0
28479,-90.3770984432545,4,1,0,50,0,0
28597,-90.1061630813424,4,1,0,50,0,0
28831,-89.5692168515525,4,1,0,50,0,0
29065,-89.0385528029782,4,1,0,50,0,0
29300,-88.5142180388436,4,1,0,50,0,0
29417,-88.2543207109062,4,1,0,50,0,0
29534,-87.9959451468476,4,1,0,50,0,0
29768,-87.4837826937832,4,1,0,50,0,0
30003,-86.9774719649864,4,1,0,50,0,0
30413,-100,4,1,0,75,0,0
30940,-140.47106005188,4,1,0,75,0,0
31057,-139.880792691264,4,1,0,75,0,0
31174,-139.293005667573,4,1,0,75,0,0
31291,-138.707688558289,4,1,0,76,0,0
31409,-138.124830984692,4,1,0,76,0,0
31526,-137.544422611674,4,1,0,76,0,0
31643,-136.966453147555,4,1,0,76,0,0
31760,-136.390912343902,4,1,0,76,0,0
31877,-135.817789995345,4,1,0,76,0,0
31994,-135.2470759394,4,1,0,76,0,0
32112,-134.678760056283,4,1,0,76,0,0
32229,-134.112832268737,4,1,0,76,0,0
32346,-133.549282541849,4,1,0,76,0,0
32463,-132.988100882872,4,1,0,76,0,0
32580,-132.429277341052,4,1,0,76,0,0
32698,-131.872802007446,4,1,0,76,0,0
32815,-131.318665014751,4,1,0,77,0,0
32932,-130.766856537124,4,1,0,77,0,0
33049,-130.217366790014,4,1,0,77,0,0
33166,-129.670186029984,4,1,0,77,0,0
33284,-129.125304554538,4,1,0,77,0,0
33401,-128.582712701953,4,1,0,77,0,0
33518,-128.042400851104,4,1,0,77,0,0
33635,-127.504359421294,4,1,0,77,0,0
33752,-126.968578872085,4,1,0,77,0,0
33869,-126.435049703128,4,1,0,77,0,0
33987,-125.903762453997,4,1,0,77,0,0
34104,-125.374707704016,4,1,0,77,0,0
34221,-124.847876072098,4,1,0,78,0,0
34338,-124.323258216574,4,1,0,78,0,0
34455,-123.800844835031,4,1,0,78,0,0
34573,-123.280626664144,4,1,0,78,0,0
34690,-122.762594479513,4,1,0,78,0,0
34807,-122.2467390955,4,1,0,78,0,0
34924,-121.733051365066,4,1,0,78,0,0
35041,-121.221522179607,4,1,0,78,0,0
35159,-120.712142468794,4,1,0,78,0,0
35276,-120.204903200414,4,1,0,78,0,0
35393,-119.699795380205,4,1,0,78,0,0
35510,-119.196810051703,4,1,0,78,0,0
35627,-118.695938296075,4,1,0,78,0,0
35744,-118.19717123197,4,1,0,79,0,0
35862,-117.700500015354,4,1,0,79,0,0
35979,-117.205915839357,4,1,0,79,0,0
36096,-116.713409934116,4,1,0,79,0,0
36213,-116.222973566619,4,1,0,79,0,0
36330,-115.734598040552,4,1,0,79,0,0
36448,-115.248274696141,4,1,0,79,0,0
36565,-114.763994910004,4,1,0,79,0,0
36682,-114.281750094992,4,1,0,79,0,0
36799,-113.801531700042,4,1,0,79,0,0
36916,-113.323331210021,4,1,0,79,0,0
37034,-112.847140145578,4,1,0,79,0,0
37151,-112.372950062993,4,1,0,79,0,0
37268,-111.900752554028,4,1,0,80,0,0
37385,-111.430539245773,4,1,0,80,0,0
37502,-110.962301800507,4,1,0,80,0,0
37974,-83.3333333333333,4,1,0,85,0,1
43831,-85.4700854700855,4,1,0,85,0,1
43948,-86.5800865800866,4,1,0,85,0,1
44065,-87.719298245614,4,1,0,85,0,1
44300,-90.0900900900901,4,1,0,85,0,1
44417,-91.324200913242,4,1,0,85,0,1
44534,-92.5925925925926,4,1,0,85,0,1
44768,-95.2380952380952,4,1,0,85,0,1
44886,-96.6183574879227,4,1,0,85,0,1
45003,-98.0392156862745,4,1,0,85,0,1
45237,-101.010101010101,4,1,0,85,0,1
45354,-102.564102564103,4,1,0,85,0,1
45474,-104.166666666667,4,1,0,85,0,0
45940,-125,4,1,0,60,0,0
52913,-117.647058823529,4,1,0,60,0,0
53382,-125,4,1,0,60,0,0
58557,-125,4,1,0,60,0,0
58792,-121.951219512195,4,1,0,60,0,0
59026,-119.760479041916,4,1,0,60,0,0
59261,-117.647058823529,4,1,0,60,0,0
59534,-109.89010989011,4,1,0,85,0,0
59651,-106.382978723404,4,1,0,85,0,0
59768,-103.092783505155,4,1,0,85,0,0
59886,-100,4,1,0,85,0,0
60003,-97.0873786407767,4,1,0,85,0,0
60120,-94.3396226415094,4,1,0,85,0,0
60237,-91.743119266055,4,1,0,85,0,0
60354,-89.2857142857143,4,1,0,85,0,0
60474,-86.9565217391304,4,1,0,85,0,1
66800,-86.9565217391304,4,1,0,85,0,1
66917,-88.1057268722467,4,1,0,85,0,1
67034,-89.2857142857143,4,1,0,85,0,1
67151,-90.4977375565611,4,1,0,85,0,1
67268,-91.743119266055,4,1,0,85,0,1
67386,-93.0232558139535,4,1,0,85,0,1
67503,-94.3396226415094,4,1,0,85,0,1
67737,-97.0873786407767,4,1,0,85,0,1
67972,-86.9565217391304,4,1,0,85,0,1
74300,-86.9565217391304,4,1,0,85,0,1
74417,-88.1057268722467,4,1,0,85,0,1
74534,-89.2857142857143,4,1,0,85,0,1
74651,-90.4977375565611,4,1,0,85,0,1
74768,-91.743119266055,4,1,0,85,0,1
74886,-93.0232558139535,4,1,0,85,0,1
75003,-94.3396226415094,4,1,0,85,0,1
75237,-97.0873786407767,4,1,0,85,0,1
75472,-71.4285714285714,4,1,0,85,0,1
75649,-74.6268656716418,4,1,0,85,0,1
75766,-76.3358778625954,4,1,0,85,0,1
75884,-78.125,4,1,0,85,0,1
76118,-81.9672131147541,4,1,0,85,0,1
76352,-86.2068965517241,4,1,0,85,0,1
76587,-90.9090909090909,4,1,0,85,0,1
76880,-96.1538461538461,4,1,0,85,0,0
77349,-66.6666666666667,4,1,0,85,0,1
77524,-69.4444444444444,4,1,0,85,0,1
77641,-70.9219858156028,4,1,0,85,0,1
77759,-72.463768115942,4,1,0,85,0,1
77993,-75.7575757575758,4,1,0,85,0,1
78227,-79.3650793650794,4,1,0,85,0,1
78462,-83.3333333333333,4,1,0,85,0,1
78755,-87.719298245614,4,1,0,85,0,0
79224,-66.6666666666667,4,1,0,85,0,1
79399,-69.4444444444444,4,1,0,85,0,1
79516,-70.9219858156028,4,1,0,85,0,1
79634,-72.463768115942,4,1,0,85,0,1
79868,-75.7575757575758,4,1,0,85,0,1
80102,-79.3650793650794,4,1,0,85,0,1
80337,-83.3333333333333,4,1,0,85,0,1
80571,-87.719298245614,4,1,0,85,0,1
80688,-86.2068965517241,4,1,0,85,0,1
80806,-84.7457627118644,4,1,0,85,0,1
80893,-84.0336134453781,4,1,0,85,0,1
80952,-83.3333333333333,4,1,0,85,0,1
81011,-82.6446280991736,4,1,0,85,0,1
81069,-81.9672131147541,4,1,0,85,0,1
81304,-76.9230769230769,4,1,0,85,0,1
81538,-72.463768115942,4,1,0,85,0,1
82036,-58.8235294117647,4,1,0,85,0,0
82969,-111.111111111111,4,1,0,40,0,0
83203,-113.636363636364,4,1,0,40,0,0
83437,-116.279069767442,4,1,0,40,0,0
83672,-119.047619047619,4,1,0,40,0,0
83906,-121.951219512195,4,1,0,40,0,0
84140,-125,4,1,0,40,0,0
84375,-128.205128205128,4,1,0,40,0,0
84844,-121.951219512195,4,1,0,40,0,0
85078,-125,4,1,0,40,0,0
85195,-126.582278481013,4,1,0,40,0,0
85312,-128.205128205128,4,1,0,40,0,0
85547,-131.578947368421,4,1,0,40,0,0
85664,-133.333333333333,4,1,0,40,0,0
85781,-135.135135135135,4,1,0,40,0,0
86015,-138.888888888889,4,1,0,40,0,0
86250,-142.857142857143,4,1,0,40,0,0
86719,-111.111111111111,4,1,0,40,0,0
86953,-113.636363636364,4,1,0,40,0,0
87187,-116.279069767442,4,1,0,40,0,0
87422,-119.047619047619,4,1,0,40,0,0
87539,-120.481927710843,4,1,0,40,0,0
87656,-121.951219512195,4,1,0,40,0,0
87890,-125,4,1,0,40,0,0
88125,-128.205128205128,4,1,0,40,0,0
88359,-131.578947368421,4,1,0,40,0,0
88476,-133.333333333333,4,1,0,40,0,0
88594,-135.135135135135,4,1,0,40,0,0
88828,-138.888888888889,4,1,0,40,0,0
88945,-140.845070422535,4,1,0,40,0,0
89062,-142.857142857143,4,1,0,40,0,0
89492,-108.695652173913,4,1,0,52,0,0
89570,-106.382978723404,4,1,0,56,0,0
89648,-104.166666666667,4,1,0,60,0,0
89726,-102.040816326531,4,1,0,64,0,0
89804,-100,4,1,0,68,0,0
89883,-98.0392156862745,4,1,0,72,0,0
89961,-96.1538461538461,4,1,0,76,0,0
90039,-94.3396226415094,4,1,0,80,0,0
90117,-92.5925925925926,4,1,0,84,0,0
90195,-90.9090909090909,4,1,0,88,0,0
90273,-89.2857142857143,4,1,0,92,0,0
90351,-87.719298245614,4,1,0,96,0,0
90469,-86.2068965517241,4,1,0,100,0,0
90703,-71.4285714285714,4,1,0,100,0,0
90820,-72.3981900452489,4,1,0,100,0,0
90937,-73.394495412844,4,1,0,100,0,0
91054,-74.4186046511628,4,1,0,100,0,0
91172,-75.4716981132076,4,1,0,100,0,0
91289,-76.555023923445,4,1,0,100,0,0
91406,-77.6699029126214,4,1,0,100,0,0
91484,-78.4313725490196,4,1,0,100,0,0
91562,-79.2079207920792,4,1,0,100,0,0
91640,-80,4,1,0,100,0,0
91875,-71.4285714285714,4,1,0,100,0,0
91992,-72.9601083311689,4,1,0,100,0,0
92109,-74.5587612509171,4,1,0,100,0,0
92226,-76.2289827166028,4,1,0,100,0,0
92344,-77.975810344115,4,1,0,100,0,0
92578,-68.9655172413793,4,1,0,100,0,0
92695,-69.7051125214779,4,1,0,100,0,0
92812,-70.4606931500228,4,1,0,100,0,0
92929,-71.2328845186723,4,1,0,100,0,0
92988,-71.625336460018,4,1,0,100,0,0
93047,-72.0221367239435,4,1,0,100,0,0
93164,-72.8291275725979,4,1,0,100,0,0
93281,-73.6544076270612,4,1,0,100,0,0
93359,-74.2150276525193,4,1,0,100,0,0
93437,-74.7843033729964,4,1,0,100,0,0
93515,-75.36232320941,4,1,0,100,0,0
93633,-76.2463611424145,4,1,0,100,0,0
93750,-77.1513261541453,4,1,0,100,0,0
93867,-78.0780921462028,4,1,0,100,0,0
93984,-79.0273316026348,4,1,0,100,0,0
94044,-79.3650793650794,4,1,0,100,0,0
94101,-80,4,1,0,100,0,0
94219,-66.6666666666667,4,1,0,100,0,0
94453,-68.9655172413793,4,1,0,100,0,0
94570,-70.1652461712579,4,1,0,100,0,0
94687,-71.4075062142382,4,1,0,100,0,0
94804,-72.6944941190154,4,1,0,100,0,0
94922,-74.0287794282905,4,1,0,100,0,0
95039,-75.4129045053932,4,1,0,100,0,0
95156,-76.8497740616643,4,1,0,100,0,0
95200,-77.8385177678093,4,1,0,100,0,0
95239,-78.8530352898874,4,1,0,100,0,0
95307,-79.3650793650794,4,1,0,100,0,0
95390,-79.8943477145822,4,1,0,100,0,0
95508,-81.5088926201849,4,1,0,100,0,0
95625,-83.1901076979134,4,1,0,100,0,0
95703,-84.7457627118644,4,1,0,100,0,0
95859,-83.6820083682008,4,1,0,100,0,0
95976,-82.815734989648,4,1,0,100,0,0
96094,-81.9672131147541,4,1,0,100,0,0
96211,-81.1359026369168,4,1,0,100,0,0
96328,-80.3212851405622,4,1,0,100,0,0
96445,-79.5228628230616,4,1,0,100,0,0
96562,-78.740157480315,4,1,0,100,0,0
96679,-77.9727095516569,4,1,0,100,0,0
96797,-77.2200772200772,4,1,0,100,0,0
96914,-76.4818355640535,4,1,0,100,0,0
97031,-75.7575757575758,4,1,0,100,0,0
97187,-73.5294117647059,4,1,0,100,0,0
97344,-71.4285714285714,4,1,0,100,0,0
97500,-69.4444444444444,4,1,0,100,0,0
97734,-74.6268656716418,4,1,0,100,0,0
97969,-62.5,4,1,0,100,0,0
98203,-64.5161290322581,4,1,0,100,0,0
98437,-68.9655172413793,4,1,0,100,0,0
98554,-70.4225352112676,4,1,0,100,0,0
98672,-71.9424460431655,4,1,0,100,0,0
98789,-73.5294117647059,4,1,0,100,0,0
98906,-75.187969924812,4,1,0,100,0,0
99023,-76.9230769230769,4,1,0,100,0,0
99140,-78.740157480315,4,1,0,100,0,0
99375,-71.4285714285714,4,1,0,100,0,0
99492,-72.463768115942,4,1,0,100,0,0
99609,-73.5294117647059,4,1,0,100,0,0
99726,-74.6268656716418,4,1,0,100,0,0
99844,-75.7575757575758,4,1,0,100,0,0
99961,-76.9230769230769,4,1,0,100,0,0
100078,-78.125,4,1,0,100,0,0
100195,-79.3650793650794,4,1,0,100,0,0
100312,-80.6451612903226,4,1,0,100,0,0
100469,-78.7401574803149,4,1,0,100,0,0
100625,-76.9230769230769,4,1,0,100,0,0
100781,-71.4285714285714,4,1,0,100,0,0
101250,-81.3008130081301,4,1,0,100,0,0
101406,-78.7401574803149,4,1,0,100,0,0
101484,-77.5193798449612,4,1,0,100,0,0
101562,-76.3358778625954,4,1,0,100,0,0
101640,-75.187969924812,4,1,0,100,0,0
101719,-74.0740740740741,4,1,0,100,0,0
101958,-64.5161290322581,4,1,0,100,0,0
102075,-65.3155918768305,4,1,0,100,0,0
102192,-66.1351604273654,4,1,0,100,0,0
102309,-66.9755130826618,4,1,0,100,0,0
102427,-67.8374966335642,4,1,0,100,0,0
102544,-68.7220043734684,4,1,0,100,0,0
102661,-69.6298338771423,4,1,0,100,0,0
102720,-70.0928028710012,4,1,0,100,0,0
102778,-70.5619696385957,4,1,0,100,0,0
102837,-71.0374594731294,4,1,0,100,0,0
102895,-71.5194522182116,4,1,0,100,0,0
103013,-72.5032245809132,4,1,0,100,0,0
103071,-73.005330119152,4,1,0,100,0,0
103130,-73.5144386033139,4,1,0,100,0,0
103247,-74.5543143090604,4,1,0,100,0,0
103364,-75.623973404561,4,1,0,100,0,0
103481,-76.7247728946722,4,1,0,100,0,0
103599,-77.8581533447473,4,1,0,100,0,0
103716,-79.0254580513112,4,1,0,100,0,0
103833,-80.2282976437751,4,1,0,100,0,0
103950,-81.4683861927379,4,1,0,100,0,0
104067,-82.7473442239871,4,1,0,100,0,0
104184,-84.0670989957344,4,1,0,100,0,0
104302,-85.4297071555068,4,1,0,100,0,0
104419,-86.8371395498884,4,1,0,100,0,0
104707,-90.0900900900901,4,1,0,100,0,0
104883,-93.4579439252336,4,1,0,100,0,0
105000,-94.3396226415094,4,1,0,100,0,0
105176,-98.0392156862745,4,1,0,100,0,0
105351,-102.040816326531,4,1,0,100,0,0
105474,-83.3333333333333,4,1,0,85,0,1
111797,-83.3333333333333,4,1,0,85,0,1
111914,-82.6446280991736,4,1,0,85,0,1
112031,-81.9672131147541,4,1,0,85,0,1
112148,-81.3008130081301,4,1,0,85,0,1
112265,-80.6451612903226,4,1,0,85,0,1
112383,-80,4,1,0,85,0,1
112500,-79.3650793650794,4,1,0,85,0,1
112734,-78.125,4,1,0,85,0,1
112969,-76.9230769230769,4,1,0,85,0,1
113149,-83.3333333333333,4,1,0,85,0,1
119297,-83.3333333333333,4,1,0,85,0,1
119414,-82.6446280991736,4,1,0,85,0,1
119531,-81.9672131147541,4,1,0,85,0,1
119648,-81.3008130081301,4,1,0,85,0,1
119765,-80.6451612903226,4,1,0,85,0,1
119883,-80,4,1,0,85,0,1
120000,-79.3650793650794,4,1,0,85,0,1
120234,-78.125,4,1,0,85,0,1
120474,-71.4285714285714,4,1,0,85,0,0
121875,-166.666666666667,4,1,0,70,0,0
133071,-161.290322580645,4,1,0,70,0,0
133540,-156.25,4,1,0,70,0,0
134009,-151.515151515152,4,1,0,70,0,0
134477,-147.058823529412,4,1,0,70,0,0
134966,-142.857142857143,4,1,0,70,0,0
135200,-137.931034482759,4,1,0,70,0,0
135469,-133.333333333333,4,1,0,70,0,0
135937,-128.205128205128,4,1,0,75,0,0
136406,-123.456790123457,4,1,0,75,0,0
136640,-121.951219512195,4,1,0,75,0,0
136758,-121.212121212121,4,1,0,75,0,0
136875,-120.481927710843,4,1,0,75,0,0
137109,-119.047619047619,4,1,0,75,0,0
137226,-118.343195266272,4,1,0,75,0,0
137344,-117.647058823529,4,1,0,75,0,0
137578,-117.302465580524,4,1,0,75,0,0
137813,-116.959748302622,4,1,0,75,0,0
138047,-116.619163793948,4,1,0,75,0,0
138165,-116.449546487241,4,1,0,75,0,0
138282,-116.280421865371,4,1,0,75,0,0
138515,-115.943776543878,4,1,0,75,0,0
138633,-115.776116776422,4,1,0,75,0,0
138750,-115.609074849939,4,1,0,75,0,0
138984,-115.276167113554,4,1,0,75,0,0
139101,-115.11056369643,4,1,0,75,0,0
139219,-114.945303277435,4,1,0,75,0,0
139453,-114.616201917071,4,1,0,75,0,0
139688,-114.289110304992,4,1,0,75,0,0
139922,-113.963880287782,4,1,0,75,0,0
140039,-113.801893663511,4,1,0,75,0,0
140157,-113.64036687656,4,1,0,75,0,0
140390,-113.318813416041,4,1,0,75,0,0
140508,-113.158654090968,4,1,0,75,0,0
140625,-112.998946849815,4,1,0,75,0,0
140859,-112.681007954152,4,1,0,75,0,0
140977,-112.522645182343,4,1,0,75,0,0
141094,-112.364853172846,4,1,0,75,0,0
141328,-112.050341977644,4,1,0,75,0,0
141563,-111.737711365848,4,1,0,75,0,0
141797,-111.426696276454,4,1,0,75,0,0
141915,-111.271960912386,4,1,0,75,0,0
142032,-111.117531235138,4,1,0,75,0,0
142265,-110.810077068409,4,1,0,75,0,0
142383,-110.656925906336,4,1,0,75,0,0
142500,-110.504197501942,4,1,0,75,0,0
142734,-110.200123424138,4,1,0,75,0,0
142852,-110.048652509274,4,1,0,75,0,0
142969,-109.897597418725,4,1,0,75,0,0
143203,-109.596847994652,4,1,0,75,0,0
143438,-109.297740159924,4,1,0,75,0,0
143672,-109.000141700184,4,1,0,75,0,0
143789,-108.852067862733,4,1,0,75,0,0
143907,-108.704277622029,4,1,0,75,0,0
144140,-108.409897823671,4,1,0,75,0,0
144258,-108.263422228429,4,1,0,75,0,0
144375,-108.117225020056,4,1,0,75,0,0
144609,-107.826128211736,4,1,0,75,0,0
144727,-107.681108856987,4,1,0,75,0,0
144844,-107.53647906211,4,1,0,75,0,0
145078,-107.248496912316,4,1,0,75,0,0
145313,-106.961938663746,4,1,0,75,0,0
145547,-106.677021449549,4,1,0,75,0,0
145665,-106.535074542592,4,1,0,75,0,0
145782,-106.393618085213,4,1,0,75,0,0
146015,-106.111603940561,4,1,0,75,0,0
146133,-105.97126906953,4,1,0,75,0,0
146250,-105.831192897457,4,1,0,75,0,0
146484,-105.55214856676,4,1,0,75,0,0
146602,-105.413288609989,4,1,0,75,0,0
146719,-105.274682702106,4,1,0,75,0,0
147187,-90.9090909090909,4,1,0,85,0,0
147656,-80,4,1,0,85,0,0
148125,-100,4,1,0,85,0,0
148242,-98.0392156862745,4,1,0,85,0,0
148359,-96.1538461538461,4,1,0,85,0,0
148476,-94.3396226415094,4,1,0,85,0,0
148594,-92.5925925925926,4,1,0,85,0,0
148828,-89.2857142857143,4,1,0,85,0,0
149062,-86.2068965517241,4,1,0,85,0,0
149297,-83.3333333333333,4,1,0,85,0,0
149531,-86.2068965517241,4,1,0,85,0,0
149648,-84.9386742771719,4,1,0,85,0,0
149765,-83.7072956767693,4,1,0,85,0,0
149883,-82.511042040201,4,1,0,85,0,0
150000,-81.3485639538005,4,1,0,85,0,0
150078,-80.5915419176757,4,1,0,85,0,0
150156,-79.8485432831006,4,1,0,85,0,0
150234,-79.1190567742528,4,1,0,85,0,0
150312,-78.4028400644785,4,1,0,85,0,0
150390,-77.6994739745612,4,1,0,85,0,0
150474,-77.0085564207039,4,1,0,90,0,1
150703,-83.3333333333333,4,1,0,90,0,1
155864,-84.7457627118644,4,1,0,90,0,1
155976,-86.2068965517241,4,1,0,90,0,1
156099,-87.719298245614,4,1,0,90,0,0
156328,-90.9090909090909,4,1,0,90,0,0
156562,-94.3396226415094,4,1,0,90,0,0
156797,-98.0392156862745,4,1,0,90,0,0
157265,-90.9090909090909,4,1,0,90,0,0
157422,-86.9565217391304,4,1,0,90,0,0
157734,-96.1538461538461,4,1,0,90,0,0
157974,-83.3333333333333,4,1,0,90,0,1
163594,-74.0740740740741,4,1,0,90,0,1
163828,-79.3650793650794,4,1,0,90,0,1
163945,-78.125,4,1,0,90,0,1
164062,-76.9230769230769,4,1,0,90,0,1
164179,-75.7575757575758,4,1,0,90,0,1
164297,-74.0740740740741,4,1,0,90,0,1
164531,-79.3650793650794,4,1,0,90,0,1
164653,-77.5193798449612,4,1,0,90,0,1
164712,-76.6283524904215,4,1,0,90,0,1
164770,-75.7575757575758,4,1,0,90,0,1
165000,-74.0740740740741,4,1,0,90,0,1
165234,-80,4,1,0,90,0,1
165469,-83.3333333333333,4,1,0,90,0,1
170864,-84.7457627118644,4,1,0,90,0,1
170976,-86.2068965517241,4,1,0,90,0,1
171099,-87.719298245614,4,1,0,90,0,0
171328,-90.9090909090909,4,1,0,90,0,0
171562,-94.3396226415094,4,1,0,90,0,0
171797,-98.0392156862745,4,1,0,90,0,0
171914,-99.009900990099,4,1,0,90,0,0
172031,-100,4,1,0,90,0,0
172265,-90.9090909090909,4,1,0,90,0,0
172422,-86.9565217391304,4,1,0,90,0,0
172734,-96.1538461538461,4,1,0,90,0,0
172974,-83.3333333333333,4,1,0,90,0,1
176660,-92.5925925925926,4,1,0,90,0,1
176953,-89.2857142857143,4,1,0,90,0,1
177187,-86.2068965517241,4,1,0,90,0,1
177422,-83.3333333333333,4,1,0,90,0,1
177656,-80.6451612903226,4,1,0,90,0,1
177890,-78.125,4,1,0,90,0,1
178125,-74.6268656716418,4,1,0,90,0,1
178247,-75.4716981132076,4,1,0,90,0,1
178364,-76.3358778625954,4,1,0,90,0,1
178481,-77.2200772200772,4,1,0,90,0,1
178599,-78.125,4,1,0,90,0,1
178828,-83.3333333333333,4,1,0,90,0,1
179062,-88.4955752212389,4,1,0,90,0,1
179297,-93.4579439252336,4,1,0,90,0,1
179531,-98.0392156862745,4,1,0,90,0,1
179765,-102.040816326531,4,1,0,90,0,1
180000,-105.263157894737,4,1,0,90,0,1
180234,-107.52688172043,4,1,0,90,0,1
180474,-90.9090909090909,4,1,0,90,0,0
180820,-80,4,1,0,90,0,0
180937,-81.3008130081301,4,1,0,90,0,0
181289,-86.2068965517241,4,1,0,90,0,0
181406,-88.4955752212389,4,1,0,90,0,0
181523,-90.9090909090909,4,1,0,90,0,0
181640,-93.4579439252336,4,1,0,90,0,0
181875,-98.0392156862745,4,1,0,90,0,0
182109,-103.092783505155,4,1,0,90,0,0
182344,-89.2857142857143,4,1,0,90,0,0
182641,-80,4,1,0,90,0,0
182758,-81.3008130081301,4,1,0,90,0,0
183164,-86.2068965517241,4,1,0,90,0,0
183281,-88.4955752212389,4,1,0,90,0,0
183398,-90.9090909090909,4,1,0,90,0,0
183515,-93.4579439252336,4,1,0,90,0,0
183750,-98.0392156862745,4,1,0,90,0,0
183984,-103.092783505155,4,1,0,90,0,0
184101,-105.263157894737,4,1,0,90,0,0
184219,-107.52688172043,4,1,0,90,0,0
184453,-95.2380952380952,4,1,0,90,0,0
184687,-83.3333333333333,4,1,0,90,0,0
185039,-88.4955752212389,4,1,0,90,0,0
185156,-90.9090909090909,4,1,0,90,0,0
185273,-93.4579439252336,4,1,0,90,0,0
185390,-96.1538461538461,4,1,0,90,0,0
185625,-100,4,1,0,90,0,0
185742,-102.040816326531,4,1,0,90,0,0
185859,-104.166666666667,4,1,0,90,0,0
186094,-95.2380952380952,4,1,0,90,0,0
186445,-80,4,1,0,90,0,0
186562,-81.3008130081301,4,1,0,90,0,0
186797,-86.2068965517241,4,1,0,90,0,0
186914,-87.719298245614,4,1,0,90,0,0
187031,-89.2857142857143,4,1,0,90,0,0
187148,-90.9090909090909,4,1,0,90,0,0
187265,-92.5925925925926,4,1,0,90,0,0
187383,-94.3396226415094,4,1,0,90,0,0
187500,-96.1538461538461,4,1,0,90,0,0
187734,-90.9090909090909,4,1,0,90,0,0
187798,-83.3333333333333,4,1,0,90,0,0
187974,-71.4285714285714,4,1,0,100,0,1
188149,-74.6268656716418,4,1,0,100,0,1
188266,-76.3358778625954,4,1,0,100,0,1
188384,-78.125,4,1,0,100,0,1
188618,-81.9672131147541,4,1,0,100,0,1
188735,-84.0336134453781,4,1,0,100,0,1
188852,-86.2068965517241,4,1,0,100,0,1
189087,-90.9090909090909,4,1,0,100,0,1
189380,-96.1538461538461,4,1,0,100,0,0
189849,-66.6666666666667,4,1,0,100,0,1
190024,-69.4444444444444,4,1,0,100,0,1
190141,-70.9219858156028,4,1,0,100,0,1
190259,-72.463768115942,4,1,0,100,0,1
190493,-75.7575757575758,4,1,0,100,0,1
190610,-77.5193798449612,4,1,0,100,0,1
190727,-79.3650793650794,4,1,0,100,0,1
190962,-83.3333333333333,4,1,0,100,0,1
191255,-87.719298245614,4,1,0,100,0,0
191724,-66.6666666666667,4,1,0,100,0,1
191899,-69.4444444444444,4,1,0,100,0,1
192016,-70.9219858156028,4,1,0,100,0,1
192134,-72.463768115942,4,1,0,100,0,1
192368,-75.7575757575758,4,1,0,100,0,1
192485,-77.5193798449612,4,1,0,100,0,1
192602,-79.3650793650794,4,1,0,100,0,1
192837,-83.3333333333333,4,1,0,100,0,1
193071,-87.719298245614,4,1,0,100,0,1
193188,-86.2068965517241,4,1,0,100,0,1
193306,-84.7457627118644,4,1,0,100,0,1
193569,-80.6451612903226,4,1,0,100,0,1
193804,-75.7575757575758,4,1,0,100,0,1
194038,-71.4285714285714,4,1,0,100,0,1
194536,-66.6666666666667,4,1,0,100,0,0
194946,-76.9230769230769,4,1,0,100,0,0
195474,-55.5555555555556,4,1,0,100,0,1
195703,-62.5,4,1,0,100,0,1
195820,-64.5161290322581,4,1,0,100,0,1
195937,-66.6666666666667,4,1,0,100,0,1
196175,-62.5,4,1,0,100,0,1
196292,-64.1025641025641,4,1,0,100,0,1
196409,-65.7894736842105,4,1,0,100,0,1
196526,-67.5675675675676,4,1,0,100,0,1
196585,-68.4931506849315,4,1,0,100,0,1
196643,-69.4444444444444,4,1,0,100,0,1
196761,-71.4285714285714,4,1,0,100,0,1
196819,-72.463768115942,4,1,0,100,0,1
196878,-73.5294117647059,4,1,0,100,0,1
196995,-75.7575757575758,4,1,0,100,0,1
197112,-78.125,4,1,0,100,0,1
197229,-80.6451612903226,4,1,0,100,0,1
197347,-62.5,4,1,0,100,0,1
197464,-64.1025641025641,4,1,0,100,0,1
197581,-65.7894736842105,4,1,0,100,0,1
197698,-67.5675675675676,4,1,0,100,0,1
197815,-69.4444444444444,4,1,0,100,0,1
197932,-71.4285714285714,4,1,0,100,0,1
197991,-72.463768115942,4,1,0,100,0,1
198050,-73.5294117647059,4,1,0,100,0,1
198167,-75.7575757575758,4,1,0,100,0,1
198284,-66.6666666666667,4,1,0,100,0,1
198362,-68.0272108843537,4,1,0,100,0,1
198440,-69.4444444444444,4,1,0,100,0,1
198518,-70.9219858156028,4,1,0,100,0,1
198597,-72.463768115942,4,1,0,100,0,1
198675,-74.0740740740741,4,1,0,100,0,1
198753,-75.7575757575758,4,1,0,100,0,1
198870,-77.5193798449612,4,1,0,100,0,1
199101,-81.9672131147541,4,1,0,100,0,1
199219,-62.5,4,1,0,100,0,1
199453,-65.7894736842105,4,1,0,100,0,1
199570,-67.1701291748754,4,1,0,100,0,1
199687,-68.6099285427594,4,1,0,100,0,1
199804,-70.1128536492338,4,1,0,100,0,1
199922,-71.6830462427331,4,1,0,100,0,1
200039,-73.3252333392238,4,1,0,100,0,1
200156,-75.187969924812,4,1,0,100,0,1
200200,-76.219512195122,4,1,0,100,0,1
200234,-77.2797527047913,4,1,0,100,0,1
200312,-78.3699059561128,4,1,0,100,0,1
200390,-79.4912559618442,4,1,0,100,0,1
200508,-80.7221728471598,4,1,0,100,0,1
200625,-82.810660050647,4,1,0,100,0,1
200742,-85.0100864467569,4,1,0,100,0,1
200859,-87.3294564876617,4,1,0,100,0,1
200976,-89.7790179252787,4,1,0,100,0,1
201094,-90.9090909090909,4,1,0,100,0,1
201211,-90.0900900900901,4,1,0,100,0,1
201328,-89.2857142857143,4,1,0,100,0,1
201445,-88.4955752212389,4,1,0,100,0,1
201562,-87.719298245614,4,1,0,100,0,1
201679,-86.9565217391304,4,1,0,100,0,1
201797,-86.2068965517241,4,1,0,100,0,1
201914,-85.4700854700855,4,1,0,100,0,1
202207,-88.4955752212389,4,1,0,100,0,1
202383,-91.743119266055,4,1,0,100,0,1
202500,-92.5925925925926,4,1,0,100,0,1
202676,-96.1538461538461,4,1,0,100,0,1
202967,-58.8235294117647,4,1,0,100,0,1
203206,-66.6666666666667,4,1,0,100,0,1
203323,-68.0272108843537,4,1,0,100,0,1
203440,-69.4444444444444,4,1,0,100,0,1
203557,-70.9219858156028,4,1,0,100,0,1
203675,-72.463768115942,4,1,0,100,0,1
203792,-74.0740740740741,4,1,0,100,0,1
203909,-75.7575757575758,4,1,0,100,0,1
204026,-77.5193798449612,4,1,0,100,0,1
204143,-79.3650793650794,4,1,0,100,0,1
204261,-81.3008130081301,4,1,0,100,0,1
204378,-83.3333333333333,4,1,0,100,0,1
204495,-85.5842709803422,4,1,0,100,0,1
204612,-87.719298245614,4,1,0,100,0,1
204729,-90.0900900900901,4,1,0,100,0,1
204847,-66.6666666666667,4,1,0,100,0,1
204964,-68.0272108843537,4,1,0,100,0,1
205081,-69.4444444444444,4,1,0,100,0,1
205198,-70.9219858156028,4,1,0,100,0,1
205315,-72.463768115942,4,1,0,100,0,1
205432,-74.0740740740741,4,1,0,100,0,1
205550,-75.7575757575758,4,1,0,100,0,1
205667,-77.5193798449612,4,1,0,100,0,1
205784,-79.3650793650794,4,1,0,100,0,1
205901,-81.3008130081301,4,1,0,100,0,1
206018,-83.3333333333333,4,1,0,100,0,1
206136,-85.4700854700855,4,1,0,100,0,1
206253,-66.6666666666667,4,1,0,100,0,1
206331,-68.4931506849315,4,1,0,100,0,1
206409,-70.4225352112676,4,1,0,100,0,1
206487,-72.463768115942,4,1,0,100,0,1
206565,-74.6268656716418,4,1,0,100,0,1
206643,-76.9230769230769,4,1,0,100,0,1
206722,-79.3650793650794,4,1,0,100,0,1
206839,-64.5161290322581,4,1,0,100,0,1
206956,-65.7894736842105,4,1,0,100,0,1
207073,-67.1140939597315,4,1,0,100,0,1
207190,-68.4931506849315,4,1,0,100,0,1
207307,-69.9300699300699,4,1,0,100,0,1
207425,-71.4285714285714,4,1,0,100,0,1
207542,-72.992700729927,4,1,0,100,0,1
207659,-74.6268656716418,4,1,0,100,0,1
207718,-75.4716981132076,4,1,0,100,0,1
207776,-76.3358778625954,4,1,0,100,0,1
207893,-78.125,4,1,0,100,0,1
208011,-80,4,1,0,100,0,1
208069,-80.9716599190283,4,1,0,100,0,1
208128,-81.9672131147541,4,1,0,100,0,1
208245,-84.0336134453781,4,1,0,100,0,1
208362,-86.2068965517241,4,1,0,100,0,1
208479,-88.4955752212389,4,1,0,100,0,1
208597,-90.7951017858489,4,1,0,100,0,1
208714,-90.0900900900901,4,1,0,100,0,1
208831,-89.2857142857143,4,1,0,100,0,1
208948,-88.4955752212389,4,1,0,100,0,1
209065,-87.719298245614,4,1,0,100,0,1
209182,-86.9565217391304,4,1,0,100,0,1
209300,-86.2068965517241,4,1,0,100,0,1
209417,-85.4700854700855,4,1,0,100,0,1
209710,-88.4955752212389,4,1,0,100,0,1
209886,-91.743119266055,4,1,0,100,0,1
210003,-92.5925925925926,4,1,0,100,0,1
210179,-96.1538461538461,4,1,0,100,0,1
210354,-100,4,1,0,100,0,1
210474,-50,4,1,0,80,0,0
210703,-50,4,1,0,80,0,0
210796,-51.0204081632653,4,1,0,80,0,0
210854,-51.5463917525773,4,1,0,80,0,0
210913,-52.0833333333333,4,1,0,80,0,0
211030,-53.1914893617021,4,1,0,80,0,0
211089,-53.763440860215,4,1,0,80,0,0
211147,-54.3478260869565,4,1,0,80,0,0
211265,-50,4,1,0,80,0,0
211382,-50.5050505050505,4,1,0,80,0,0
211440,-51.0204081632653,4,1,0,80,0,0
211499,-51.5463917525773,4,1,0,80,0,0
211557,-52.0833333333333,4,1,0,80,0,0
211616,-52.6315789473684,4,1,0,80,0,0
211733,-53.763440860215,4,1,0,80,0,0
211792,-54.3478260869565,4,1,0,80,0,0
211850,-54.9450549450549,4,1,0,80,0,0
211919,-55.8659217877095,4,1,0,80,0,0
211997,-56.8181818181818,4,1,0,80,0,0
212075,-57.8034682080925,4,1,0,80,0,0
212153,-58.8235294117647,4,1,0,80,0,0
212231,-59.8802395209581,4,1,0,80,0,0
212309,-60.9756097560976,4,1,0,80,0,0
212436,-55.5555555555556,4,1,0,80,0,0
212494,-56.1797752808989,4,1,0,80,0,0
212553,-56.8181818181818,4,1,0,80,0,0
212670,-58.1395348837209,4,1,0,80,0,0
212729,-58.8235294117647,4,1,0,80,0,0
212787,-59.5238095238095,4,1,0,80,0,0
212905,-60.9756097560976,4,1,0,80,0,0
212964,-61.7283950617284,4,1,0,80,0,0
213022,-62.5,4,1,0,80,0,0
213140,-55.5555555555556,4,1,0,80,0,0
213198,-56.1797752808989,4,1,0,80,0,0
213257,-56.8181818181818,4,1,0,80,0,0
213315,-57.4712643678161,4,1,0,80,0,0
213373,-58.1395348837209,4,1,0,80,0,0
213432,-58.8235294117647,4,1,0,80,0,0
213491,-59.5238095238095,4,1,0,80,0,0
213633,-54.9450549450549,4,1,0,80,0,0
213691,-55.5555555555556,4,1,0,80,0,0
213750,-56.1797752808989,4,1,0,80,0,0
213828,-57.1428571428571,4,1,0,80,0,0
213906,-58.1395348837209,4,1,0,80,0,0
213984,-59.1715976331361,4,1,0,80,0,0
214062,-60.2409638554217,4,1,0,80,0,0
214140,-61.3496932515337,4,1,0,80,0,0
214219,-62.5,4,1,0,80,0,0
214336,-52.6315789473684,4,1,0,80,0,0
214429,-53.763440860215,4,1,0,80,0,0
214546,-54.9450549450549,4,1,0,80,0,0
214604,-55.5555555555556,4,1,0,80,0,0
214663,-56.1797752808989,4,1,0,80,0,0
214780,-57.4712643678161,4,1,0,80,0,0
214839,-58.1395348837209,4,1,0,80,0,0
214897,-58.8235294117647,4,1,0,80,0,0
215015,-52.6315789473684,4,1,0,80,0,0
215132,-53.763440860215,4,1,0,80,0,0
215190,-54.3478260869565,4,1,0,80,0,0
215249,-54.9450549450549,4,1,0,80,0,0
215307,-55.5555555555556,4,1,0,80,0,0
215365,-56.1797752808989,4,1,0,80,0,0
215424,-56.8181818181818,4,1,0,80,0,0
215483,-57.4712643678161,4,1,0,80,0,0
215542,-58.1395348837209,4,1,0,80,0,0
215600,-59.1715976331361,4,1,0,80,0,0
215669,-60.2409638554217,4,1,0,80,0,0
215747,-61.3496932515337,4,1,0,80,0,0
215825,-62.5,4,1,0,80,0,0
215903,-63.6942675159236,4,1,0,80,0,0
215981,-64.9350649350649,4,1,0,80,0,0
216059,-66.2251655629139,4,1,0,80,0,0
216186,-55.5555555555556,4,1,0,80,0,0
216244,-56.1797752808989,4,1,0,80,0,0
216303,-56.8181818181818,4,1,0,80,0,0
216420,-58.1395348837209,4,1,0,80,0,0
216479,-58.8235294117647,4,1,0,80,0,0
216537,-59.5238095238095,4,1,0,80,0,0
216655,-60.9756097560976,4,1,0,80,0,0
216714,-61.7283950617284,4,1,0,80,0,0
216772,-62.5,4,1,0,80,0,0
216890,-55.5555555555556,4,1,0,80,0,0
217007,-56.8181818181818,4,1,0,80,0,0
217065,-57.4712643678161,4,1,0,80,0,0
217124,-58.1395348837209,4,1,0,80,0,0
217182,-58.8235294117647,4,1,0,80,0,0
217241,-59.5238095238095,4,1,0,80,0,0
217383,-54.9450549450549,4,1,0,80,0,0
217441,-55.5555555555556,4,1,0,80,0,0
217500,-56.1797752808989,4,1,0,80,0,0
217578,-57.1428571428571,4,1,0,80,0,0
217656,-58.1395348837209,4,1,0,80,0,0
217734,-59.1715976331361,4,1,0,80,0,0
217812,-60.2409638554217,4,1,0,80,0,0
217890,-61.3496932515337,4,1,0,80,0,0
217969,-62.5,4,1,0,80,0,0
218198,-66.6666666666667,4,1,0,80,0,0
218384,-71.4285714285714,4,1,0,80,0,0
218501,-68.9655172413793,4,1,0,80,0,0
218618,-66.6666666666667,4,1,0,80,0,0
218735,-64.5161290322581,4,1,0,80,0,0
218852,-62.5,4,1,0,80,0,0
218970,-60.6060606060606,4,1,0,80,0,0
219087,-58.8235294117647,4,1,0,80,0,0
219321,-74.0740740740741,4,1,0,80,0,0
219438,-71.4285714285714,4,1,0,80,0,0
219555,-68.9655172413793,4,1,0,80,0,0
219672,-66.6666666666667,4,1,0,80,0,0
219789,-64.5161290322581,4,1,0,80,0,0
219907,-62.5,4,1,0,80,0,0
220024,-60.6060606060606,4,1,0,80,0,0
220259,-76.9230769230769,4,1,0,80,0,0
220376,-74.0740740740741,4,1,0,80,0,0
220493,-71.4285714285714,4,1,0,80,0,0
220610,-68.9655172413793,4,1,0,80,0,0
220727,-66.6666666666667,4,1,0,80,0,0
220845,-64.5161290322581,4,1,0,80,0,0
220962,-62.5,4,1,0,80,0,0
221250,-55.5555555555556,4,1,0,80,0,0
221328,-57.1428571428571,4,1,0,80,0,0
221406,-58.8235294117647,4,1,0,80,0,0
221484,-60.6060606060606,4,1,0,80,0,0
221562,-62.5,4,1,0,80,0,0
221640,-64.5161290322581,4,1,0,80,0,0
221719,-66.6666666666667,4,1,0,80,0,0
221953,-76.9230769230769,4,1,0,80,0,0
222070,-74.0740740740741,4,1,0,80,0,0
222187,-71.4285714285714,4,1,0,80,0,0
222427,-62.5,4,1,0,80,0,0
222544,-63.4328192526218,4,1,0,80,0,0
222661,-64.3939467114333,4,1,0,80,0,0
222720,-64.8855159955774,4,1,0,80,0,0
222778,-65.3846053254453,4,1,0,80,0,0
222895,-66.4062655639685,4,1,0,80,0,0
222954,-66.9291180482398,4,1,0,80,0,0
223013,-67.4603147833208,4,1,0,80,0,0
223071,-68.0000108800017,4,1,0,80,0,0
223130,-68.5483649843984,4,1,0,80,0,0
223247,-69.6721368583719,4,1,0,80,0,0
223364,-70.833318576392,4,1,0,80,0,0
223442,-72.0339135665071,4,1,0,80,0,0
223520,-73.2758557520814,4,1,0,80,0,0
223716,-74.5614296706771,4,1,0,80,0,0
223833,-75.8928605309313,4,1,0,80,0,0
223872,-77.2727061983529,4,1,0,80,0,0
224067,-78.7037182784663,4,1,0,80,0,0
224184,-80.18866789783,4,1,0,80,0,0
224302,-81.7307967363258,4,1,0,80,0,0
224419,-83.3333333333333,4,1,0,80,0,0
224707,-86.2068965517241,4,1,0,80,0,0
224883,-89.2857142857143,4,1,0,80,0,0
225000,-90.0900900900901,4,1,0,80,0,0
225176,-93.4579439252336,4,1,0,80,0,0
225351,-97.0873786407767,4,1,0,80,0,0
225469,-98.0392156862745,4,1,0,80,0,0
225586,-142.256849041262,4,1,0,75,0,0
225703,-141.659077694039,4,1,0,75,0,0
225821,-141.063818215917,4,1,0,75,0,0
225938,-140.47106005188,4,1,0,75,0,0
226055,-139.880792691264,4,1,0,75,0,0
226172,-139.293005667573,4,1,0,75,0,0
226289,-138.707688558289,4,1,0,76,0,0
226407,-138.124830984692,4,1,0,76,0,0
226524,-137.544422611674,4,1,0,76,0,0
226641,-136.966453147555,4,1,0,76,0,0
226758,-136.390912343902,4,1,0,76,0,0
226875,-135.817789995345,4,1,0,76,0,0
226992,-135.2470759394,4,1,0,76,0,0
227110,-134.678760056283,4,1,0,76,0,0
227227,-134.112832268737,4,1,0,76,0,0
227344,-133.549282541849,4,1,0,76,0,0
227461,-132.988100882872,4,1,0,76,0,0
227578,-132.429277341052,4,1,0,76,0,0
227696,-131.872802007446,4,1,0,76,0,0
227813,-131.318665014751,4,1,0,77,0,0
227930,-130.766856537124,4,1,0,77,0,0
228047,-130.217366790014,4,1,0,77,0,0
228164,-129.670186029984,4,1,0,77,0,0
228282,-129.125304554538,4,1,0,77,0,0
228399,-128.582712701953,4,1,0,77,0,0
228516,-128.042400851104,4,1,0,77,0,0
228633,-127.504359421294,4,1,0,77,0,0
228750,-126.968578872085,4,1,0,77,0,0
228867,-126.435049703128,4,1,0,77,0,0
228985,-125.903762453997,4,1,0,77,0,0
229102,-125.374707704016,4,1,0,77,0,0
229219,-124.847876072098,4,1,0,78,0,0
229336,-124.323258216574,4,1,0,78,0,0
229453,-123.800844835031,4,1,0,78,0,0
229571,-123.280626664144,4,1,0,78,0,0
229688,-122.762594479513,4,1,0,78,0,0
229805,-122.2467390955,4,1,0,78,0,0
229922,-121.733051365066,4,1,0,78,0,0
230039,-121.221522179607,4,1,0,78,0,0
230157,-120.712142468794,4,1,0,78,0,0
230274,-120.204903200414,4,1,0,78,0,0
230391,-119.699795380205,4,1,0,78,0,0
230508,-119.196810051703,4,1,0,78,0,0
230625,-118.695938296075,4,1,0,78,0,0
230742,-118.19717123197,4,1,0,79,0,0
230860,-117.700500015354,4,1,0,79,0,0
230977,-117.205915839357,4,1,0,79,0,0
231094,-116.713409934116,4,1,0,79,0,0
231211,-116.222973566619,4,1,0,79,0,0
231328,-115.734598040552,4,1,0,79,0,0
231446,-115.248274696141,4,1,0,79,0,0
231563,-114.763994910004,4,1,0,79,0,0
231680,-114.281750094992,4,1,0,79,0,0
231797,-113.801531700042,4,1,0,79,0,0
231914,-113.323331210021,4,1,0,79,0,0
232032,-112.847140145578,4,1,0,79,0,0
232149,-112.372950062993,4,1,0,79,0,0
232266,-111.900752554028,4,1,0,80,0,0
232383,-111.430539245773,4,1,0,80,0,0
232500,-110.962301800507,4,1,0,80,0,0
232617,-110.49603191554,4,1,0,80,0,0
232735,-110.031721323072,4,1,0,80,0,0
232852,-109.569361790045,4,1,0,80,0,0
232969,-109.108945117997,4,1,0,80,0,0
233086,-108.650463142915,4,1,0,80,0,0
233203,-108.193907735094,4,1,0,80,0,0
233321,-107.739270798989,4,1,0,80,0,0
233438,-107.286544273072,4,1,0,80,0,0
233555,-106.835720129691,4,1,0,80,0,0
233672,-106.386790374928,4,1,0,80,0,0
233789,-105.939747048454,4,1,0,81,0,0
233907,-105.49458222339,4,1,0,81,0,0
234024,-105.051288006166,4,1,0,81,0,0
234141,-104.609856536383,4,1,0,81,0,0
234258,-104.17027998667,4,1,0,81,0,0
234375,-103.732550562548,4,1,0,81,0,0
234492,-103.296660502291,4,1,0,81,0,0
234610,-102.862602076786,4,1,0,81,0,0
234727,-102.430367589401,4,1,0,81,0,0
234844,-101.999949375845,4,1,0,81,0,0
234961,-101.571339804031,4,1,0,81,0,0
235078,-101.144531273946,4,1,0,81,0,0
235196,-100.719516217508,4,1,0,81,0,0
235313,-100.296287098441,4,1,0,82,0,0
235430,-99.8748364121341,4,1,0,82,0,0
235547,-99.4551566855119,4,1,0,82,0,0
235664,-99.0372404769015,4,1,0,82,0,0
235782,-98.6210803759001,4,1,0,82,0,0
235899,-98.2066690032442,4,1,0,82,0,0
236016,-97.7939990106778,4,1,0,82,0,0
236133,-97.3830630808232,4,1,0,82,0,0
236250,-96.9738539270505,4,1,0,82,0,0
236367,-96.5663642933487,4,1,0,82,0,0
236485,-96.1605869541969,4,1,0,82,0,0
236602,-95.7565147144364,4,1,0,82,0,0
236719,-95.3541404091427,4,1,0,83,0,0
236836,-94.953456903499,4,1,0,83,0,0
236953,-94.5544570926692,4,1,0,83,0,0
237071,-94.1571339016723,4,1,0,83,0,0
237188,-93.7614802852566,4,1,0,83,0,0
237305,-93.3674892277751,4,1,0,83,0,0
237422,-92.9751537430608,4,1,0,83,0,0
237539,-92.584466874303,4,1,0,83,0,0
237657,-92.1954216939241,4,1,0,83,0,0
237774,-91.8080113034564,4,1,0,83,0,0
237891,-91.4222288334199,4,1,0,83,0,0
238008,-91.0380674432007,4,1,0,83,0,0
238125,-90.6555203209294,4,1,0,83,0,0
238242,-90.2745806833605,4,1,0,84,0,0
238360,-89.8952417757523,4,1,0,84,0,0
238477,-89.5174968717466,4,1,0,84,0,0
238594,-89.1413392732499,4,1,0,84,0,0
238711,-88.7667623103144,4,1,0,84,0,0
238828,-88.3937593410199,4,1,0,84,0,0
238946,-88.0223237513557,4,1,0,84,0,0
239063,-87.6524489551039,4,1,0,84,0,0
239180,-87.284128393722,4,1,0,84,0,0
239297,-86.9173555362269,4,1,0,84,0,0
239414,-86.552123879079,4,1,0,84,0,0
239532,-86.1884269460673,4,1,0,84,0,0
239649,-85.8262582881937,4,1,0,84,0,0
239766,-85.4656114835595,4,1,0,85,0,0
239883,-85.1064801372511,4,1,0,85,0,0
240000,-84.7488578812266,4,1,0,85,0,0
240117,-84.3927383742032,4,1,0,85,0,0
240235,-84.0381153015442,4,1,0,85,0,0
240352,-83.6849823751476,4,1,0,85,0,0
240469,-83.3333333333343,4,1,0,85,0,0
240474,-83.3333333333333,4,1,0,85,0,1
240703,-83.3333333333333,4,1,0,85,0,1
246797,-83.3333333333333,4,1,0,85,0,1
246914,-82.6446280991736,4,1,0,85,0,1
247031,-81.9672131147541,4,1,0,85,0,1
247148,-81.3008130081301,4,1,0,85,0,1
247265,-80.6451612903226,4,1,0,85,0,1
247383,-80,4,1,0,85,0,1
247500,-79.3650793650794,4,1,0,85,0,1
247734,-78.125,4,1,0,85,0,1
247969,-76.9230769230769,4,1,0,85,0,1
248149,-83.3333333333333,4,1,0,85,0,1
254297,-83.3333333333333,4,1,0,85,0,1
254414,-82.6446280991736,4,1,0,85,0,1
254531,-81.9672131147541,4,1,0,85,0,1
254648,-81.3008130081301,4,1,0,85,0,1
254765,-80.6451612903226,4,1,0,85,0,1
254883,-80,4,1,0,85,0,1
255000,-79.3650793650794,4,1,0,85,0,1
255234,-78.125,4,1,0,85,0,1
255474,-76.9230769230769,4,1,0,85,0,0
255935,-100,4,1,0,65,0,0
261800,-100,4,1,0,65,0,0
262034,-96.1538461538461,4,1,0,65,0,0
262386,-91.743119266055,4,1,0,65,0,0
262737,-98.0392156862745,4,1,0,65,0,0
262972,-89.2857142857143,4,1,0,65,0,0
263440,-100,4,1,0,65,0,0
268597,-83.3333333333333,4,1,0,65,0,0
269063,-76.9230769230769,4,1,0,65,0,0
269298,-80,4,1,0,65,0,0
269534,-90.9090909090909,4,1,0,65,0,0
269593,-92.5925925925926,4,1,0,65,0,0
269710,-94.3396226415094,4,1,0,65,0,0
269886,-87.719298245614,4,1,0,65,0,0
270235,-98.0392156862745,4,1,0,65,0,0
270472,-90.9090909090909,4,1,0,65,0,0
270940,-100,4,1,0,65,0,0
276800,-100,4,1,0,65,0,0
277034,-96.1538461538461,4,1,0,65,0,0
277386,-91.743119266055,4,1,0,65,0,0
277737,-98.0392156862745,4,1,0,65,0,0
277972,-89.2857142857143,4,1,0,65,0,0
278440,-100,4,1,0,65,0,0
281604,-96.1538461538461,4,1,0,65,0,0
281956,-93.4579439252336,4,1,0,65,0,0
282190,-90.9090909090909,4,1,0,65,0,0
282425,-88.4955752212389,4,1,0,65,0,0
282659,-86.2068965517241,4,1,0,65,0,0
282893,-84.0336134453781,4,1,0,65,0,0
283128,-81.9672131147541,4,1,0,65,0,0
283245,-81.3008130081301,4,1,0,65,0,0
283362,-80.6451612903226,4,1,0,65,0,0
283479,-80,4,1,0,65,0,0
283597,-79.3650793650794,4,1,0,65,0,0
283831,-75.7575757575758,4,1,0,65,0,0
284065,-80,4,1,0,65,0,0
284182,-81.9672131147541,4,1,0,65,0,0
284300,-84.0336134453781,4,1,0,65,0,0
284417,-86.2068965517241,4,1,0,65,0,0
284651,-90.0900900900901,4,1,0,65,0,0
284768,-92.5925925925926,4,1,0,65,0,0
285003,-97.0873786407767,4,1,0,65,0,0
285237,-102.040816326531,4,1,0,65,0,0
285469,-95.2380952380952,4,1,0,50,0,0
285879,-104.166666666667,4,1,0,50,0,0
286230,-113.636363636364,4,1,0,50,0,0
286347,-115.606936416185,4,1,0,50,0,0
286582,-119.047619047619,4,1,0,50,0,0
286816,-123.456790123457,4,1,0,50,0,0
287051,-128.205128205128,4,1,0,50,0,0
287285,-133.333333333333,4,1,0,50,0,0
287754,-104.166666666667,4,1,0,50,0,0
287988,-111.731843575419,4,1,0,50,0,0
288105,-113.636363636364,4,1,0,50,0,0
288222,-115.606936416185,4,1,0,50,0,0
288457,-119.047619047619,4,1,0,50,0,0
288691,-123.456790123457,4,1,0,50,0,0
288926,-128.205128205128,4,1,0,50,0,0
289160,-133.333333333333,4,1,0,50,0,0
289629,-104.166666666667,4,1,0,50,0,0
289863,-111.731843575419,4,1,0,50,0,0
289980,-113.636363636364,4,1,0,50,0,0
290097,-115.606936416185,4,1,0,50,0,0
290332,-119.047619047619,4,1,0,50,0,0
290566,-123.456790123457,4,1,0,50,0,0
290801,-128.205128205128,4,1,0,50,0,0
291035,-133.333333333333,4,1,0,50,0,0
291504,-104.166666666667,4,1,0,50,0,0
291855,-113.636363636364,4,1,0,50,0,0
291972,-115.606936416185,4,1,0,50,0,0
292207,-119.047619047619,4,1,0,50,0,0
292441,-123.456790123457,4,1,0,50,0,0
292915,-95.2380952380952,4,1,0,50,0,0
293384,-104.166666666667,4,1,0,50,0,0
293735,-113.636363636364,4,1,0,50,0,0
293852,-115.606936416185,4,1,0,50,0,0
294087,-119.047619047619,4,1,0,50,0,0
294321,-123.456790123457,4,1,0,50,0,0
294556,-128.205128205128,4,1,0,50,0,0
294790,-133.333333333333,4,1,0,50,0,0
295259,-104.166666666667,4,1,0,50,0,0
295493,-111.731843575419,4,1,0,50,0,0
295610,-113.636363636364,4,1,0,50,0,0
295727,-115.606936416185,4,1,0,50,0,0
295962,-119.047619047619,4,1,0,50,0,0
296196,-123.456790123457,4,1,0,50,0,0
296431,-128.205128205128,4,1,0,50,0,0
296665,-100,4,1,0,50,0,0
297134,-104.166666666667,4,1,0,50,0,0
297368,-111.731843575419,4,1,0,50,0,0
297485,-113.636363636364,4,1,0,50,0,0
297602,-115.606936416185,4,1,0,50,0,0
297837,-119.047619047619,4,1,0,50,0,0
298071,-123.456790123457,4,1,0,50,0,0
298306,-128.205128205128,4,1,0,50,0,0
298540,-125,4,1,0,50,0,0
298657,-123.456790123457,4,1,0,50,0,0
298774,-121.951219512195,4,1,0,50,0,0
299009,-119.047619047619,4,1,0,50,0,0
299126,-117.647058823529,4,1,0,50,0,0
299243,-116.279069767442,4,1,0,50,0,0
299360,-114.942528735632,4,1,0,50,0,0
299477,-113.636363636364,4,1,0,50,0,0
299712,-117.647058823529,4,1,0,50,0,0
299946,-121.951219512195,4,1,0,50,0,0
300181,-125,4,1,0,20,0,0

[HitObjects]
256,192,474,5,4,0:0:0:0:
256,192,942,5,8,0:0:0:0:
256,192,1294,5,0,0:0:0:0:
256,192,1411,5,8,0:0:0:0:
256,192,1645,5,8,0:0:0:0:
256,192,1880,5,0,0:0:0:0:
256,192,2114,5,8,0:0:0:0:
256,192,2349,5,0,0:0:0:0:
256,192,2817,5,8,0:0:0:0:
256,192,3052,5,0,0:0:0:0:
256,192,3169,5,0,0:0:0:0:
256,192,3286,5,8,0:0:0:0:
256,192,3520,5,8,0:0:0:0:
256,192,3755,5,0,0:0:0:0:
256,192,3989,5,0,0:0:0:0:
256,192,4224,5,0,0:0:0:0:
256,192,4692,5,8,0:0:0:0:
256,192,4927,5,0,0:0:0:0:
256,192,5044,5,0,0:0:0:0:
256,192,5161,5,8,0:0:0:0:
256,192,5395,5,8,0:0:0:0:
256,192,5630,5,0,0:0:0:0:
256,192,5864,5,8,0:0:0:0:
256,192,6099,5,8,0:0:0:0:
256,192,6567,5,8,0:0:0:0:
256,192,6919,5,0,0:0:0:0:
256,192,7036,5,8,0:0:0:0:
256,192,7270,5,8,0:0:0:0:
256,192,7505,5,0,0:0:0:0:
256,192,7974,5,4,0:0:0:0:
256,192,8442,5,8,0:0:0:0:
256,192,8794,5,0,0:0:0:0:
256,192,8911,5,8,0:0:0:0:
256,192,9145,5,8,0:0:0:0:
256,192,9380,5,0,0:0:0:0:
256,192,9614,5,8,0:0:0:0:
256,192,9849,5,0,0:0:0:0:
256,192,10317,5,8,0:0:0:0:
256,192,10552,5,0,0:0:0:0:
256,192,10669,5,0,0:0:0:0:
256,192,10786,5,8,0:0:0:0:
256,192,11020,5,8,0:0:0:0:
256,192,11255,5,0,0:0:0:0:
256,192,11489,5,0,0:0:0:0:
256,192,11724,5,12,0:0:0:0:
256,192,12192,5,8,0:0:0:0:
256,192,12427,5,0,0:0:0:0:
256,192,12544,5,0,0:0:0:0:
256,192,12661,5,8,0:0:0:0:
256,192,12895,5,8,0:0:0:0:
256,192,13130,5,0,0:0:0:0:
256,192,13364,5,8,0:0:0:0:
256,192,13599,5,8,0:0:0:0:
256,192,13716,5,8,0:0:0:0:
256,192,13833,5,0,0:0:0:0:
256,192,14067,5,8,0:0:0:0:
256,192,14184,5,8,0:0:0:0:
256,192,14302,5,0,0:0:0:0:
256,192,14419,5,0,0:0:0:0:
256,192,14536,5,8,0:0:0:0:
256,192,14770,5,8,0:0:0:0:
256,192,15005,5,0,0:0:0:0:
256,192,15474,5,4,0:0:0:0:
256,192,15708,5,8,0:0:0:0:
256,192,15942,5,0,0:0:0:0:
256,192,16177,5,8,0:0:0:0:
256,192,16411,5,0,0:0:0:0:
256,192,16645,5,8,0:0:0:0:
256,192,16880,5,0,0:0:0:0:
256,192,17114,5,8,0:0:0:0:
256,192,17231,5,8,0:0:0:0:
256,192,17349,5,0,0:0:0:0:
256,192,17583,5,8,0:0:0:0:
256,192,17817,5,0,0:0:0:0:
256,192,18052,5,8,0:0:0:0:
256,192,18286,5,0,0:0:0:0:
256,192,18520,5,8,0:0:0:0:
256,192,18755,5,0,0:0:0:0:
256,192,18989,5,0,0:0:0:0:
256,192,19106,5,0,0:0:0:0:
256,192,19224,5,0,0:0:0:0:
256,192,19458,5,8,0:0:0:0:
256,192,19692,5,0,0:0:0:0:
256,192,19927,5,8,0:0:0:0:
256,192,20161,5,0,0:0:0:0:
256,192,20395,5,8,0:0:0:0:
256,192,20630,5,0,0:0:0:0:
256,192,20864,5,8,0:0:0:0:
256,192,20981,5,8,0:0:0:0:
256,192,21099,5,0,0:0:0:0:
256,192,21333,5,8,0:0:0:0:
256,192,21567,5,0,0:0:0:0:
256,192,21802,5,8,0:0:0:0:
256,192,22036,5,0,0:0:0:0:
256,192,22270,5,8,0:0:0:0:
256,192,22388,5,8,0:0:0:0:
256,192,22505,5,0,0:0:0:0:
256,192,22739,5,0,0:0:0:0:
256,192,22856,5,0,0:0:0:0:
256,192,22974,5,12,0:0:0:0:
256,192,23208,5,8,0:0:0:0:
256,192,23442,5,0,0:0:0:0:
256,192,23677,5,8,0:0:0:0:
256,192,23911,5,0,0:0:0:0:
256,192,24145,5,8,0:0:0:0:
256,192,24380,5,0,0:0:0:0:
256,192,24614,5,8,0:0:0:0:
256,192,24731,5,8,0:0:0:0:
256,192,24849,5,0,0:0:0:0:
256,192,25083,5,8,0:0:0:0:
256,192,25317,5,0,0:0:0:0:
256,192,25552,5,8,0:0:0:0:
256,192,25786,5,0,0:0:0:0:
256,192,26020,5,8,0:0:0:0:
256,192,26255,5,0,0:0:0:0:
256,192,26489,5,0,0:0:0:0:
256,192,26606,5,0,0:0:0:0:
256,192,26724,5,12,0:0:0:0:
256,192,26958,5,8,0:0:0:0:
256,192,27192,5,0,0:0:0:0:
256,192,27427,5,8,0:0:0:0:
256,192,27661,5,0,0:0:0:0:
256,192,27895,5,8,0:0:0:0:
256,192,28130,5,0,0:0:0:0:
256,192,28364,5,8,0:0:0:0:
256,192,28481,5,8,0:0:0:0:
256,192,28599,5,0,0:0:0:0:
256,192,28833,5,8,0:0:0:0:
256,192,29067,5,0,0:0:0:0:
256,192,29302,5,8,0:0:0:0:
256,192,29419,5,8,0:0:0:0:
256,192,29536,5,0,0:0:0:0:
256,192,29770,5,8,0:0:0:0:
256,192,30005,5,0,0:0:0:0:
256,192,30474,5,4,0:0:0:0:
256,192,30942,5,8,0:0:0:0:
256,192,31411,5,0,0:0:0:0:
256,192,31645,5,8,0:0:0:0:
256,192,32114,5,0,0:0:0:0:
256,192,32349,5,0,0:0:0:0:
256,192,32583,5,0,0:0:0:0:
256,192,32817,5,8,0:0:0:0:
256,192,33286,5,0,0:0:0:0:
256,192,33520,5,8,0:0:0:0:
256,192,33989,5,0,0:0:0:0:
256,192,34224,5,0,0:0:0:0:
256,192,34692,5,8,0:0:0:0:
256,192,35161,5,0,0:0:0:0:
256,192,35395,5,8,0:0:0:0:
256,192,35864,5,0,0:0:0:0:
256,192,36099,5,0,0:0:0:0:
256,192,36333,5,0,0:0:0:0:
256,192,36567,5,8,0:0:0:0:
256,192,37036,5,0,0:0:0:0:
256,192,37270,5,8,0:0:0:0:
256,192,37505,5,0,0:0:0:0:
256,192,37974,5,4,0:0:0:0:
256,192,38208,5,8,0:0:0:0:
256,192,38325,5,8,0:0:0:0:
256,192,38442,5,0,0:0:0:0:
256,192,38677,5,0,0:0:0:0:
256,192,38794,5,0,0:0:0:0:
256,192,38911,5,8,0:0:0:0:
256,192,39145,5,0,0:0:0:0:
256,192,39263,5,0,0:0:0:0:
256,192,39380,5,8,0:0:0:0:
256,192,39497,5,0,0:0:0:0:
256,192,39614,5,8,0:0:0:0:
256,192,39731,5,8,0:0:0:0:
256,192,39849,5,0,0:0:0:0:
256,192,40083,5,0,0:0:0:0:
256,192,40200,5,0,0:0:0:0:
256,192,40317,5,8,0:0:0:0:
256,192,40552,5,8,0:0:0:0:
256,192,40669,5,0,0:0:0:0:
256,192,40786,5,0,0:0:0:0:
256,192,41020,5,8,0:0:0:0:
256,192,41138,5,0,0:0:0:0:
256,192,41255,5,8,0:0:0:0:
256,192,41294,5,8,0:0:0:0:
256,192,41489,5,0,0:0:0:0:
256,192,41606,5,8,0:0:0:0:
256,192,41724,5,0,0:0:0:0:
256,192,41958,5,0,0:0:0:0:
256,192,42075,5,0,0:0:0:0:
256,192,42192,5,8,0:0:0:0:
256,192,42309,5,0,0:0:0:0:
256,192,42544,5,8,0:0:0:0:
256,192,42661,5,0,0:0:0:0:
256,192,42895,5,8,0:0:0:0:
256,192,43013,5,0,0:0:0:0:
256,192,43130,5,8,0:0:0:0:
256,192,43247,5,8,0:0:0:0:
256,192,43364,5,0,0:0:0:0:
256,192,43481,5,0,0:0:0:0:
256,192,43599,5,8,0:0:0:0:
256,192,43833,5,8,0:0:0:0:
256,192,43950,5,0,0:0:0:0:
256,192,44067,5,0,0:0:0:0:
256,192,44302,5,8,0:0:0:0:
256,192,44419,5,8,0:0:0:0:
256,192,44536,5,0,0:0:0:0:
256,192,44770,5,8,0:0:0:0:
256,192,44888,5,0,0:0:0:0:
256,192,45005,5,8,0:0:0:0:
256,192,45044,5,8,0:0:0:0:
256,192,45239,5,0,0:0:0:0:
256,192,45356,5,0,0:0:0:0:
256,192,45474,5,8,0:0:0:0:
256,192,45942,5,0,0:0:0:0:
256,192,46177,5,8,0:0:0:0:
256,192,46645,5,0,0:0:0:0:
256,192,46880,5,8,0:0:0:0:
256,192,47114,5,8,0:0:0:0:
256,192,47349,5,0,0:0:0:0:
256,192,47817,5,0,0:0:0:0:
256,192,48052,5,8,0:0:0:0:
256,192,48520,5,0,0:0:0:0:
256,192,48755,5,8,0:0:0:0:
256,192,48989,5,0,0:0:0:0:
256,192,49224,5,0,0:0:0:0:
256,192,49692,5,0,0:0:0:0:
256,192,49927,5,8,0:0:0:0:
256,192,50395,5,0,0:0:0:0:
256,192,50630,5,8,0:0:0:0:
256,192,50864,5,8,0:0:0:0:
256,192,51099,5,0,0:0:0:0:
256,192,51333,5,0,0:0:0:0:
256,192,51567,5,0,0:0:0:0:
256,192,51802,5,8,0:0:0:0:
256,192,52270,5,0,0:0:0:0:
256,192,52505,5,8,0:0:0:0:
256,192,52739,5,0,0:0:0:0:
256,192,52974,5,4,0:0:0:0:
256,192,53442,5,0,0:0:0:0:
256,192,53677,5,8,0:0:0:0:
256,192,54145,5,0,0:0:0:0:
256,192,54380,5,8,0:0:0:0:
256,192,54614,5,8,0:0:0:0:
256,192,54849,5,0,0:0:0:0:
256,192,55317,5,0,0:0:0:0:
256,192,55552,5,8,0:0:0:0:
256,192,56020,5,0,0:0:0:0:
256,192,56255,5,8,0:0:0:0:
256,192,56489,5,0,0:0:0:0:
256,192,56606,5,8,0:0:0:0:
256,192,56724,5,0,0:0:0:0:
256,192,56958,5,0,0:0:0:0:
256,192,57192,5,0,0:0:0:0:
256,192,57427,5,8,0:0:0:0:
256,192,57895,5,0,0:0:0:0:
256,192,58130,5,8,0:0:0:0:
256,192,58364,5,8,0:0:0:0:
256,192,58599,5,0,0:0:0:0:
256,192,58833,5,0,0:0:0:0:
256,192,59067,5,0,0:0:0:0:
256,192,59302,5,8,0:0:0:0:
256,192,59536,5,0,0:0:0:0:
256,192,59653,5,0,0:0:0:0:
256,192,59770,5,8,0:0:0:0:
256,192,59888,5,0,0:0:0:0:
256,192,60005,5,8,0:0:0:0:
256,192,60122,5,8,0:0:0:0:
256,192,60239,5,0,0:0:0:0:
256,192,60356,5,0,0:0:0:0:
256,192,60474,5,12,0:0:0:0:
256,192,60708,5,8,0:0:0:0:
256,192,60825,5,8,0:0:0:0:
256,192,60942,5,0,0:0:0:0:
256,192,61177,5,8,0:0:0:0:
256,192,61294,5,0,0:0:0:0:
256,192,61411,5,8,0:0:0:0:
256,192,61645,5,8,0:0:0:0:
256,192,61763,5,8,0:0:0:0:
256,192,61880,5,0,0:0:0:0:
256,192,61997,5,0,0:0:0:0:
256,192,62114,5,8,0:0:0:0:
256,192,62231,5,8,0:0:0:0:
256,192,62349,5,0,0:0:0:0:
256,192,62583,5,0,0:0:0:0:
256,192,62700,5,0,0:0:0:0:
256,192,62817,5,8,0:0:0:0:
256,192,63052,5,8,0:0:0:0:
256,192,63169,5,0,0:0:0:0:
256,192,63286,5,0,0:0:0:0:
256,192,63520,5,8,0:0:0:0:
256,192,63638,5,0,0:0:0:0:
256,192,63755,5,8,0:0:0:0:
256,192,63794,5,8,0:0:0:0:
256,192,63989,5,0,0:0:0:0:
256,192,64106,5,8,0:0:0:0:
256,192,64224,5,0,0:0:0:0:
256,192,64458,5,0,0:0:0:0:
256,192,64575,5,0,0:0:0:0:
256,192,64692,5,8,0:0:0:0:
256,192,64927,5,8,0:0:0:0:
256,192,65044,5,8,0:0:0:0:
256,192,65161,5,0,0:0:0:0:
256,192,65395,5,8,0:0:0:0:
256,192,65513,5,0,0:0:0:0:
256,192,65630,5,8,0:0:0:0:
256,192,65747,5,8,0:0:0:0:
256,192,65864,5,0,0:0:0:0:
256,192,65981,5,0,0:0:0:0:
256,192,66099,5,8,0:0:0:0:
256,192,66333,5,8,0:0:0:0:
256,192,66450,5,0,0:0:0:0:
256,192,66567,5,0,0:0:0:0:
256,192,66802,5,8,0:0:0:0:
256,192,66919,5,8,0:0:0:0:
256,192,67036,5,0,0:0:0:0:
256,192,67153,5,0,0:0:0:0:
256,192,67270,5,8,0:0:0:0:
256,192,67388,5,8,0:0:0:0:
256,192,67505,5,0,0:0:0:0:
256,192,67544,5,0,0:0:0:0:
256,192,67739,5,0,0:0:0:0:
256,192,67974,5,12,0:0:0:0:
256,192,68208,5,8,0:0:0:0:
256,192,68325,5,8,0:0:0:0:
256,192,68442,5,0,0:0:0:0:
256,192,68677,5,8,0:0:0:0:
256,192,68794,5,0,0:0:0:0:
256,192,68911,5,8,0:0:0:0:
256,192,69145,5,8,0:0:0:0:
256,192,69263,5,0,0:0:0:0:
256,192,69380,5,0,0:0:0:0:
256,192,69497,5,0,0:0:0:0:
256,192,69614,5,8,0:0:0:0:
256,192,69731,5,8,0:0:0:0:
256,192,69849,5,0,0:0:0:0:
256,192,70083,5,0,0:0:0:0:
256,192,70200,5,0,0:0:0:0:
256,192,70317,5,8,0:0:0:0:
256,192,70552,5,8,0:0:0:0:
256,192,70669,5,0,0:0:0:0:
256,192,70786,5,0,0:0:0:0:
256,192,71020,5,8,0:0:0:0:
256,192,71138,5,0,0:0:0:0:
256,192,71255,5,8,0:0:0:0:
256,192,71294,5,8,0:0:0:0:
256,192,71489,5,0,0:0:0:0:
256,192,71606,5,8,0:0:0:0:
256,192,71724,5,0,0:0:0:0:
256,192,71958,5,0,0:0:0:0:
256,192,72075,5,0,0:0:0:0:
256,192,72192,5,8,0:0:0:0:
256,192,72427,5,8,0:0:0:0:
256,192,72544,5,8,0:0:0:0:
256,192,72661,5,0,0:0:0:0:
256,192,72778,5,0,0:0:0:0:
256,192,72895,5,8,0:0:0:0:
256,192,73013,5,0,0:0:0:0:
256,192,73130,5,8,0:0:0:0:
256,192,73364,5,0,0:0:0:0:
256,192,73481,5,0,0:0:0:0:
256,192,73599,5,8,0:0:0:0:
256,192,73833,5,8,0:0:0:0:
256,192,73950,5,0,0:0:0:0:
256,192,74067,5,0,0:0:0:0:
256,192,74302,5,8,0:0:0:0:
256,192,74419,5,8,0:0:0:0:
256,192,74536,5,0,0:0:0:0:
256,192,74653,5,0,0:0:0:0:
256,192,74770,5,8,0:0:0:0:
256,192,74888,5,0,0:0:0:0:
256,192,75005,5,8,0:0:0:0:
256,192,75044,5,8,0:0:0:0:
256,192,75239,5,0,0:0:0:0:
256,192,75474,5,12,0:0:0:0:
256,192,75708,5,8,0:0:0:0:
256,192,75825,5,8,0:0:0:0:
256,192,75942,5,0,0:0:0:0:
256,192,76177,5,0,0:0:0:0:
256,192,76411,5,8,0:0:0:0:
256,192,76645,5,0,0:0:0:0:
256,192,76880,5,8,0:0:0:0:
256,192,77349,5,12,0:0:0:0:
256,192,77583,5,8,0:0:0:0:
256,192,77700,5,8,0:0:0:0:
256,192,77817,5,0,0:0:0:0:
256,192,78052,5,0,0:0:0:0:
256,192,78286,5,8,0:0:0:0:
256,192,78520,5,8,0:0:0:0:
256,192,78755,5,0,0:0:0:0:
256,192,79224,5,12,0:0:0:0:
256,192,79458,5,8,0:0:0:0:
256,192,79575,5,8,0:0:0:0:
256,192,79692,5,0,0:0:0:0:
256,192,79927,5,0,0:0:0:0:
256,192,80161,5,8,0:0:0:0:
256,192,80395,5,8,0:0:0:0:
256,192,80630,5,0,0:0:0:0:
256,192,80747,5,0,0:0:0:0:
256,192,80864,5,8,0:0:0:0:
256,192,80923,5,0,0:0:0:0:
256,192,80981,5,0,0:0:0:0:
256,192,81040,5,0,0:0:0:0:
256,192,81099,5,8,0:0:0:0:
256,192,81333,5,8,0:0:0:0:
256,192,81567,5,0,0:0:0:0:
256,192,82036,5,12,0:0:0:0:
256,192,82974,5,12,0:0:0:0:
256,192,83208,5,8,0:0:0:0:
256,192,83442,5,0,0:0:0:0:
256,192,83677,5,0,0:0:0:0:
256,192,83911,5,0,0:0:0:0:
256,192,84145,5,8,0:0:0:0:
256,192,84380,5,8,0:0:0:0:
256,192,84849,5,8,0:0:0:0:
256,192,85083,5,8,0:0:0:0:
256,192,85200,5,8,0:0:0:0:
256,192,85317,5,0,0:0:0:0:
256,192,85552,5,0,0:0:0:0:
256,192,85669,5,0,0:0:0:0:
256,192,85786,5,8,0:0:0:0:
256,192,86020,5,8,0:0:0:0:
256,192,86255,5,0,0:0:0:0:
256,192,86724,5,12,0:0:0:0:
256,192,86958,5,8,0:0:0:0:
256,192,87192,5,0,0:0:0:0:
256,192,87427,5,0,0:0:0:0:
256,192,87544,5,0,0:0:0:0:
256,192,87661,5,0,0:0:0:0:
256,192,87895,5,8,0:0:0:0:
256,192,88130,5,0,0:0:0:0:
256,192,88364,5,8,0:0:0:0:
256,192,88481,5,0,0:0:0:0:
256,192,88599,5,8,0:0:0:0:
256,192,88833,5,8,0:0:0:0:
256,192,88950,5,8,0:0:0:0:
256,192,89067,5,0,0:0:0:0:
256,192,89536,1,0,0:0:0:0:
256,192,89614,1,0,0:0:0:0:
256,192,89692,1,0,0:0:0:0:
256,192,89770,1,0,0:0:0:0:
256,192,89849,1,0,0:0:0:0:
256,192,89927,1,0,0:0:0:0:
256,192,90005,1,0,0:0:0:0:
256,192,90083,1,0,0:0:0:0:
256,192,90161,1,0,0:0:0:0:
256,192,90239,1,0,0:0:0:0:
256,192,90317,1,0,0:0:0:0:
256,192,90395,1,0,0:0:0:0:
256,192,90474,1,12,0:0:0:0:
256,192,90708,5,0,0:0:0:0:
256,192,90825,5,0,0:0:0:0:
256,192,90942,5,8,0:0:0:0:
256,192,91059,5,0,0:0:0:0:
256,192,91177,5,8,0:0:0:0:
256,192,91294,5,8,0:0:0:0:
256,192,91411,5,8,0:0:0:0:
256,192,91528,5,0,0:0:0:0:
256,192,91587,5,0,0:0:0:0:
256,192,91645,5,8,0:0:0:0:
256,192,91880,5,8,0:0:0:0:
256,192,91997,5,8,0:0:0:0:
256,192,92114,5,0,0:0:0:0:
256,192,92231,5,8,0:0:0:0:
256,192,92349,5,0,0:0:0:0:
256,192,92583,5,8,0:0:0:0:
256,192,92700,5,0,0:0:0:0:
256,192,92817,5,8,0:0:0:0:
256,192,92934,5,0,0:0:0:0:
256,192,92993,5,0,0:0:0:0:
256,192,93052,5,8,0:0:0:0:
256,192,93169,5,8,0:0:0:0:
256,192,93286,5,0,0:0:0:0:
256,192,93364,5,0,0:0:0:0:
256,192,93442,5,0,0:0:0:0:
256,192,93520,5,0,0:0:0:0:
256,192,93638,5,0,0:0:0:0:
256,192,93755,5,8,0:0:0:0:
256,192,93872,5,8,0:0:0:0:
256,192,93989,5,0,0:0:0:0:
256,192,94048,5,0,0:0:0:0:
256,192,94106,5,8,0:0:0:0:
256,192,94224,5,4,0:0:0:0:
256,192,94458,5,0,0:0:0:0:
256,192,94575,5,0,0:0:0:0:
256,192,94692,5,8,0:0:0:0:
256,192,94809,5,0,0:0:0:0:
256,192,94927,5,8,0:0:0:0:
256,192,95044,5,0,0:0:0:0:
256,192,95161,5,8,0:0:0:0:
256,192,95220,5,8,0:0:0:0:
256,192,95278,5,0,0:0:0:0:
256,192,95337,5,0,0:0:0:0:
256,192,95395,5,0,0:0:0:0:
256,192,95513,5,0,0:0:0:0:
256,192,95630,5,8,0:0:0:0:
256,192,95708,5,0,0:0:0:0:
256,192,95864,5,0,0:0:0:0:
256,192,95981,5,8,0:0:0:0:
256,192,96099,5,0,0:0:0:0:
256,192,96216,5,8,0:0:0:0:
256,192,96333,5,8,0:0:0:0:
256,192,96450,5,8,0:0:0:0:
256,192,96567,5,0,0:0:0:0:
256,192,96684,5,8,0:0:0:0:
256,192,96802,5,0,0:0:0:0:
256,192,96919,5,0,0:0:0:0:
256,192,97036,5,0,0:0:0:0:
256,192,97212,5,0,0:0:0:0:
256,192,97388,5,0,0:0:0:0:
256,192,97505,5,8,0:0:0:0:
256,192,97739,5,0,0:0:0:0:
256,192,97974,5,12,0:0:0:0:
256,192,98208,5,12,0:0:0:0:
256,192,98442,5,0,0:0:0:0:
256,192,98559,5,0,0:0:0:0:
256,192,98677,5,8,0:0:0:0:
256,192,98794,5,8,0:0:0:0:
256,192,98911,5,0,0:0:0:0:
256,192,99028,5,0,0:0:0:0:
256,192,99145,5,8,0:0:0:0:
256,192,99380,5,0,0:0:0:0:
256,192,99497,5,8,0:0:0:0:
256,192,99614,5,0,0:0:0:0:
256,192,99731,5,0,0:0:0:0:
256,192,99849,5,8,0:0:0:0:
256,192,99966,5,8,0:0:0:0:
256,192,100083,5,0,0:0:0:0:
256,192,100200,5,0,0:0:0:0:
256,192,100317,5,8,0:0:0:0:
256,192,100474,5,8,0:0:0:0:
256,192,100630,5,8,0:0:0:0:
256,192,100786,5,4,0:0:0:0:
256,192,101020,5,4,0:0:0:0:
256,192,101255,5,8,0:0:0:0:
256,192,101411,5,8,0:0:0:0:
256,192,101489,5,0,0:0:0:0:
256,192,101567,5,0,0:0:0:0:
256,192,101645,5,0,0:0:0:0:
256,192,101724,5,12,0:0:0:0:
256,192,101958,5,0,0:0:0:0:
256,192,102075,5,0,0:0:0:0:
256,192,102192,5,8,0:0:0:0:
256,192,102309,5,0,0:0:0:0:
256,192,102427,5,8,0:0:0:0:
256,192,102544,5,8,0:0:0:0:
256,192,102661,5,0,0:0:0:0:
256,192,102720,5,0,0:0:0:0:
256,192,102778,5,0,0:0:0:0:
256,192,102837,5,0,0:0:0:0:
256,192,102895,5,8,0:0:0:0:
256,192,103013,5,0,0:0:0:0:
256,192,103071,5,0,0:0:0:0:
256,192,103130,5,8,0:0:0:0:
256,192,103247,5,8,0:0:0:0:
256,192,103364,5,0,0:0:0:0:
256,192,103481,5,8,0:0:0:0:
256,192,103599,5,0,0:0:0:0:
256,192,103716,5,0,0:0:0:0:
256,192,103833,5,8,0:0:0:0:
256,192,103950,5,0,0:0:0:0:
256,192,104067,5,0,0:0:0:0:
256,192,104184,5,8,0:0:0:0:
256,192,104302,5,8,0:0:0:0:
256,192,104419,5,0,0:0:0:0:
256,192,104536,5,0,0:0:0:0:
256,192,104712,5,0,0:0:0:0:
256,192,104888,5,0,0:0:0:0:
256,192,105005,5,0,0:0:0:0:
256,192,105181,5,0,0:0:0:0:
256,192,105356,5,0,0:0:0:0:
256,192,105474,5,12,0:0:0:0:
256,192,105708,5,0,0:0:0:0:
256,192,105825,5,0,0:0:0:0:
256,192,105942,5,0,0:0:0:0:
256,192,106177,5,0,0:0:0:0:
256,192,106294,5,0,0:0:0:0:
256,192,106411,5,8,0:0:0:0:
256,192,106645,5,0,0:0:0:0:
256,192,106763,5,0,0:0:0:0:
256,192,106880,5,8,0:0:0:0:
256,192,106997,5,0,0:0:0:0:
256,192,107114,5,8,0:0:0:0:
256,192,107231,5,8,0:0:0:0:
256,192,107349,5,0,0:0:0:0:
256,192,107583,5,0,0:0:0:0:
256,192,107700,5,0,0:0:0:0:
256,192,107817,5,8,0:0:0:0:
256,192,108052,5,8,0:0:0:0:
256,192,108169,5,0,0:0:0:0:
256,192,108286,5,0,0:0:0:0:
256,192,108520,5,8,0:0:0:0:
256,192,108638,5,0,0:0:0:0:
256,192,108755,5,8,0:0:0:0:
256,192,108794,5,8,0:0:0:0:
256,192,108989,5,0,0:0:0:0:
256,192,109106,5,8,0:0:0:0:
256,192,109224,5,0,0:0:0:0:
256,192,109458,5,0,0:0:0:0:
256,192,109575,5,0,0:0:0:0:
256,192,109692,5,8,0:0:0:0:
256,192,109809,5,0,0:0:0:0:
256,192,110044,5,8,0:0:0:0:
256,192,110161,5,0,0:0:0:0:
256,192,110395,5,8,0:0:0:0:
256,192,110513,5,0,0:0:0:0:
256,192,110630,5,8,0:0:0:0:
256,192,110747,5,8,0:0:0:0:
256,192,110864,5,0,0:0:0:0:
256,192,110981,5,0,0:0:0:0:
256,192,111099,5,8,0:0:0:0:
256,192,111333,5,8,0:0:0:0:
256,192,111450,5,0,0:0:0:0:
256,192,111567,5,0,0:0:0:0:
256,192,111802,5,8,0:0:0:0:
256,192,111919,5,8,0:0:0:0:
256,192,112036,5,0,0:0:0:0:
256,192,112153,5,0,0:0:0:0:
256,192,112270,5,8,0:0:0:0:
256,192,112388,5,0,0:0:0:0:
256,192,112505,5,8,0:0:0:0:
256,192,112544,5,8,0:0:0:0:
256,192,112739,5,0,0:0:0:0:
256,192,112974,5,12,0:0:0:0:
256,192,113208,5,8,0:0:0:0:
256,192,113325,5,8,0:0:0:0:
256,192,113442,5,0,0:0:0:0:
256,192,113677,5,0,0:0:0:0:
256,192,113794,5,0,0:0:0:0:
256,192,113911,5,8,0:0:0:0:
256,192,114145,5,0,0:0:0:0:
256,192,114263,5,0,0:0:0:0:
256,192,114380,5,8,0:0:0:0:
256,192,114497,5,0,0:0:0:0:
256,192,114614,5,8,0:0:0:0:
256,192,114731,5,8,0:0:0:0:
256,192,114849,5,0,0:0:0:0:
256,192,115083,5,0,0:0:0:0:
256,192,115200,5,0,0:0:0:0:
256,192,115317,5,8,0:0:0:0:
256,192,115552,5,8,0:0:0:0:
256,192,115669,5,8,0:0:0:0:
256,192,115786,5,0,0:0:0:0:
256,192,116020,5,8,0:0:0:0:
256,192,116138,5,0,0:0:0:0:
256,192,116255,5,8,0:0:0:0:
256,192,116294,5,8,0:0:0:0:
256,192,116489,5,0,0:0:0:0:
256,192,116606,5,8,0:0:0:0:
256,192,116724,5,0,0:0:0:0:
256,192,116958,5,0,0:0:0:0:
256,192,117075,5,0,0:0:0:0:
256,192,117192,5,8,0:0:0:0:
256,192,117309,5,8,0:0:0:0:
256,192,117544,5,8,0:0:0:0:
256,192,117661,5,0,0:0:0:0:
256,192,117895,5,8,0:0:0:0:
256,192,118013,5,0,0:0:0:0:
256,192,118130,5,8,0:0:0:0:
256,192,118247,5,8,0:0:0:0:
256,192,118364,5,0,0:0:0:0:
256,192,118481,5,0,0:0:0:0:
256,192,118599,5,8,0:0:0:0:
256,192,118833,5,8,0:0:0:0:
256,192,118950,5,0,0:0:0:0:
256,192,119009,5,0,0:0:0:0:
256,192,119067,5,8,0:0:0:0:
256,192,119302,5,8,0:0:0:0:
256,192,119419,5,8,0:0:0:0:
256,192,119536,5,0,0:0:0:0:
256,192,119653,5,0,0:0:0:0:
256,192,119770,5,8,0:0:0:0:
256,192,119888,5,0,0:0:0:0:
256,192,120005,5,8,0:0:0:0:
256,192,120044,5,8,0:0:0:0:
256,192,120239,5,0,0:0:0:0:
256,192,120474,5,12,0:0:0:0:
256,192,121880,5,8,0:0:0:0:
256,192,122349,5,0,0:0:0:0:
256,192,123286,5,0,0:0:0:0:
256,192,123403,5,0,0:0:0:0:
256,192,123520,5,8,0:0:0:0:
256,192,123755,5,0,0:0:0:0:
256,192,123989,5,0,0:0:0:0:
256,192,124224,5,8,0:0:0:0:
256,192,124927,5,0,0:0:0:0:
256,192,125161,5,8,0:0:0:0:
256,192,125630,5,0,0:0:0:0:
256,192,126099,5,0,0:0:0:0:
256,192,126567,5,8,0:0:0:0:
256,192,126802,5,0,0:0:0:0:
256,192,127036,5,0,0:0:0:0:
256,192,127153,5,0,0:0:0:0:
256,192,127270,5,0,0:0:0:0:
256,192,127505,5,8,0:0:0:0:
256,192,127739,5,8,0:0:0:0:
256,192,127974,5,0,0:0:0:0:
256,192,128442,5,0,0:0:0:0:
256,192,128677,5,0,0:0:0:0:
256,192,128911,5,8,0:0:0:0:
256,192,129380,5,0,0:0:0:0:
256,192,129849,5,8,0:0:0:0:
256,192,130786,5,0,0:0:0:0:
256,192,130903,5,0,0:0:0:0:
256,192,131020,5,0,0:0:0:0:
256,192,131255,5,8,0:0:0:0:
256,192,131489,5,8,0:0:0:0:
256,192,131724,5,0,0:0:0:0:
256,192,133130,5,0,0:0:0:0:
256,192,133599,5,8,0:0:0:0:
256,192,134067,5,8,0:0:0:0:
256,192,134536,5,0,0:0:0:0:
256,192,135005,5,0,0:0:0:0:
256,192,135239,5,0,0:0:0:0:
256,192,135474,5,12,0:0:0:0:
256,192,135942,5,8,0:0:0:0:
256,192,136411,5,0,0:0:0:0:
256,192,136645,5,8,0:0:0:0:
256,192,136763,5,0,0:0:0:0:
256,192,136880,5,8,0:0:0:0:
256,192,137114,5,8,0:0:0:0:
256,192,137231,5,8,0:0:0:0:
256,192,137349,5,0,0:0:0:0:
256,192,137583,5,0,0:0:0:0:
256,192,137817,5,8,0:0:0:0:
256,192,138052,5,8,0:0:0:0:
256,192,138169,5,8,0:0:0:0:
256,192,138286,5,0,0:0:0:0:
256,192,138520,5,8,0:0:0:0:
256,192,138638,5,8,0:0:0:0:
256,192,138755,5,8,0:0:0:0:
256,192,138989,5,8,0:0:0:0:
256,192,139106,5,8,0:0:0:0:
256,192,139224,5,0,0:0:0:0:
256,192,139458,5,0,0:0:0:0:
256,192,139692,5,8,0:0:0:0:
256,192,139927,5,0,0:0:0:0:
256,192,140044,5,0,0:0:0:0:
256,192,140161,5,8,0:0:0:0:
256,192,140395,5,8,0:0:0:0:
256,192,140513,5,0,0:0:0:0:
256,192,140630,5,8,0:0:0:0:
256,192,140864,5,8,0:0:0:0:
256,192,140981,5,8,0:0:0:0:
256,192,141099,5,0,0:0:0:0:
256,192,141333,5,0,0:0:0:0:
256,192,141567,5,8,0:0:0:0:
256,192,141802,5,8,0:0:0:0:
256,192,141919,5,8,0:0:0:0:
256,192,142036,5,0,0:0:0:0:
256,192,142270,5,0,0:0:0:0:
256,192,142388,5,0,0:0:0:0:
256,192,142505,5,8,0:0:0:0:
256,192,142739,5,8,0:0:0:0:
256,192,142856,5,0,0:0:0:0:
256,192,142974,5,0,0:0:0:0:
256,192,143208,5,0,0:0:0:0:
256,192,143442,5,8,0:0:0:0:
256,192,143677,5,0,0:0:0:0:
256,192,143794,5,0,0:0:0:0:
256,192,143911,5,8,0:0:0:0:
256,192,144145,5,8,0:0:0:0:
256,192,144263,5,0,0:0:0:0:
256,192,144380,5,8,0:0:0:0:
256,192,144614,5,8,0:0:0:0:
256,192,144731,5,8,0:0:0:0:
256,192,144849,5,0,0:0:0:0:
256,192,145083,5,0,0:0:0:0:
256,192,145317,5,8,0:0:0:0:
256,192,145552,5,8,0:0:0:0:
256,192,145669,5,8,0:0:0:0:
256,192,145786,5,0,0:0:0:0:
256,192,146020,5,0,0:0:0:0:
256,192,146138,5,0,0:0:0:0:
256,192,146255,5,8,0:0:0:0:
256,192,146489,5,8,0:0:0:0:
256,192,146606,5,8,0:0:0:0:
256,192,146724,5,0,0:0:0:0:
256,192,147192,5,0,0:0:0:0:
256,192,147661,5,0,0:0:0:0:
256,192,148130,5,8,0:0:0:0:
256,192,148247,5,8,0:0:0:0:
256,192,148364,5,0,0:0:0:0:
256,192,148481,5,0,0:0:0:0:
256,192,148599,5,0,0:0:0:0:
256,192,148833,5,0,0:0:0:0:
256,192,149067,5,8,0:0:0:0:
256,192,149302,5,8,0:0:0:0:
256,192,149536,5,8,0:0:0:0:
256,192,149653,5,8,0:0:0:0:
256,192,149770,5,0,0:0:0:0:
256,192,149888,5,8,0:0:0:0:
256,192,150005,5,0,0:0:0:0:
256,192,150083,5,0,0:0:0:0:
256,192,150161,5,0,0:0:0:0:
256,192,150239,5,0,0:0:0:0:
256,192,150317,5,0,0:0:0:0:
256,192,150395,5,0,0:0:0:0:
256,192,150474,5,12,0:0:0:0:
256,192,150708,5,8,0:0:0:0:
256,192,150825,5,8,0:0:0:0:
256,192,150942,5,0,0:0:0:0:
256,192,151059,5,0,0:0:0:0:
256,192,151177,5,8,0:0:0:0:
256,192,151411,5,8,0:0:0:0:
256,192,151645,5,8,0:0:0:0:
256,192,151763,5,8,0:0:0:0:
256,192,151880,5,0,0:0:0:0:
256,192,152114,5,0,0:0:0:0:
256,192,152231,5,8,0:0:0:0:
256,192,152349,5,0,0:0:0:0:
256,192,152583,5,0,0:0:0:0:
256,192,152700,5,0,0:0:0:0:
256,192,152817,5,8,0:0:0:0:
256,192,153052,5,8,0:0:0:0:
256,192,153169,5,0,0:0:0:0:
256,192,153286,5,0,0:0:0:0:
256,192,153520,5,8,0:0:0:0:
256,192,153755,5,0,0:0:0:0:
256,192,153989,5,0,0:0:0:0:
256,192,154106,5,0,0:0:0:0:
256,192,154224,5,8,0:0:0:0:
256,192,154458,5,0,0:0:0:0:
256,192,154575,5,8,0:0:0:0:
256,192,154692,5,0,0:0:0:0:
256,192,154809,5,0,0:0:0:0:
256,192,154927,5,8,0:0:0:0:
256,192,155161,5,0,0:0:0:0:
256,192,155395,5,8,0:0:0:0:
256,192,155513,5,8,0:0:0:0:
256,192,155630,5,0,0:0:0:0:
256,192,155864,5,0,0:0:0:0:
256,192,155981,5,0,0:0:0:0:
256,192,156099,5,8,0:0:0:0:
256,192,156333,5,0,0:0:0:0:
256,192,156567,5,8,0:0:0:0:
256,192,156802,5,0,0:0:0:0:
256,192,157270,5,8,0:0:0:0:
256,192,157446,5,0,0:0:0:0:
256,192,157505,5,0,0:0:0:0:
256,192,157739,5,8,0:0:0:0:
256,192,157974,5,4,0:0:0:0:
256,192,158208,5,8,0:0:0:0:
256,192,158325,5,8,0:0:0:0:
256,192,158442,5,0,0:0:0:0:
256,192,158559,5,0,0:0:0:0:
256,192,158677,5,8,0:0:0:0:
256,192,158911,5,8,0:0:0:0:
256,192,159145,5,8,0:0:0:0:
256,192,159263,5,8,0:0:0:0:
256,192,159380,5,0,0:0:0:0:
256,192,159614,5,0,0:0:0:0:
256,192,159731,5,8,0:0:0:0:
256,192,159849,5,0,0:0:0:0:
256,192,160083,5,0,0:0:0:0:
256,192,160200,5,0,0:0:0:0:
256,192,160317,5,8,0:0:0:0:
256,192,160552,5,8,0:0:0:0:
256,192,160669,5,8,0:0:0:0:
256,192,160786,5,0,0:0:0:0:
256,192,161020,5,8,0:0:0:0:
256,192,161255,5,8,0:0:0:0:
256,192,161489,5,0,0:0:0:0:
256,192,161606,5,0,0:0:0:0:
256,192,161724,5,8,0:0:0:0:
256,192,161958,5,0,0:0:0:0:
256,192,162075,5,8,0:0:0:0:
256,192,162192,5,0,0:0:0:0:
256,192,162309,5,0,0:0:0:0:
256,192,162427,5,8,0:0:0:0:
256,192,162661,5,0,0:0:0:0:
256,192,162895,5,8,0:0:0:0:
256,192,163013,5,8,0:0:0:0:
256,192,163130,5,0,0:0:0:0:
256,192,163364,5,0,0:0:0:0:
256,192,163599,5,12,0:0:0:0:
256,192,163833,5,0,0:0:0:0:
256,192,163950,5,0,0:0:0:0:
256,192,164067,5,8,0:0:0:0:
256,192,164184,5,0,0:0:0:0:
256,192,164302,5,12,0:0:0:0:
256,192,164536,5,8,0:0:0:0:
256,192,164653,5,0,0:0:0:0:
256,192,164712,5,0,0:0:0:0:
256,192,164770,5,8,0:0:0:0:
256,192,165005,5,12,0:0:0:0:
256,192,165239,5,0,0:0:0:0:
256,192,165474,5,12,0:0:0:0:
256,192,165708,5,8,0:0:0:0:
256,192,165825,5,8,0:0:0:0:
256,192,165942,5,0,0:0:0:0:
256,192,166059,5,0,0:0:0:0:
256,192,166177,5,8,0:0:0:0:
256,192,166411,5,8,0:0:0:0:
256,192,166645,5,8,0:0:0:0:
256,192,166763,5,8,0:0:0:0:
256,192,166880,5,0,0:0:0:0:
256,192,167114,5,0,0:0:0:0:
256,192,167231,5,8,0:0:0:0:
256,192,167349,5,0,0:0:0:0:
256,192,167583,5,0,0:0:0:0:
256,192,167700,5,0,0:0:0:0:
256,192,167817,5,8,0:0:0:0:
256,192,168052,5,8,0:0:0:0:
256,192,168169,5,0,0:0:0:0:
256,192,168286,5,0,0:0:0:0:
256,192,168520,5,8,0:0:0:0:
256,192,168755,5,0,0:0:0:0:
256,192,168989,5,0,0:0:0:0:
256,192,169106,5,0,0:0:0:0:
256,192,169224,5,8,0:0:0:0:
256,192,169458,5,8,0:0:0:0:
256,192,169575,5,8,0:0:0:0:
256,192,169692,5,0,0:0:0:0:
256,192,169809,5,0,0:0:0:0:
256,192,169927,5,8,0:0:0:0:
256,192,170161,5,0,0:0:0:0:
256,192,170395,5,8,0:0:0:0:
256,192,170513,5,0,0:0:0:0:
256,192,170630,5,8,0:0:0:0:
256,192,170864,5,0,0:0:0:0:
256,192,170981,5,0,0:0:0:0:
256,192,171099,5,8,0:0:0:0:
256,192,171333,5,0,0:0:0:0:
256,192,171567,5,8,0:0:0:0:
256,192,171802,5,0,0:0:0:0:
256,192,171919,5,0,0:0:0:0:
256,192,172036,5,8,0:0:0:0:
256,192,172270,5,8,0:0:0:0:
256,192,172446,5,0,0:0:0:0:
256,192,172505,5,0,0:0:0:0:
256,192,172739,5,8,0:0:0:0:
256,192,172974,5,4,0:0:0:0:
256,192,173208,5,8,0:0:0:0:
256,192,173325,5,8,0:0:0:0:
256,192,173442,5,0,0:0:0:0:
256,192,173559,5,0,0:0:0:0:
256,192,173677,5,8,0:0:0:0:
256,192,173911,5,8,0:0:0:0:
256,192,174145,5,8,0:0:0:0:
256,192,174263,5,8,0:0:0:0:
256,192,174380,5,0,0:0:0:0:
256,192,174614,5,0,0:0:0:0:
256,192,174731,5,8,0:0:0:0:
256,192,174849,5,0,0:0:0:0:
256,192,175083,5,0,0:0:0:0:
256,192,175200,5,0,0:0:0:0:
256,192,175317,5,8,0:0:0:0:
256,192,175434,5,0,0:0:0:0:
256,192,175552,5,8,0:0:0:0:
256,192,175669,5,8,0:0:0:0:
256,192,175786,5,0,0:0:0:0:
256,192,176020,5,0,0:0:0:0:
256,192,176255,5,8,0:0:0:0:
256,192,176665,5,0,0:0:0:0:
256,192,176724,5,8,0:0:0:0:
256,192,176958,5,0,0:0:0:0:
256,192,177192,5,0,0:0:0:0:
256,192,177427,5,0,0:0:0:0:
256,192,177661,5,0,0:0:0:0:
256,192,177895,5,0,0:0:0:0:
256,192,178130,5,8,0:0:0:0:
256,192,178247,5,8,0:0:0:0:
256,192,178364,5,0,0:0:0:0:
256,192,178481,5,0,0:0:0:0:
256,192,178599,5,8,0:0:0:0:
256,192,178833,5,0,0:0:0:0:
256,192,179067,5,8,0:0:0:0:
256,192,179302,5,8,0:0:0:0:
256,192,179536,5,0,0:0:0:0:
256,192,179770,5,0,0:0:0:0:
256,192,180005,5,8,0:0:0:0:
256,192,180239,5,8,0:0:0:0:
256,192,180474,5,4,0:0:0:0:
256,192,180825,5,8,0:0:0:0:
256,192,180942,5,0,0:0:0:0:
256,192,181294,5,8,0:0:0:0:
256,192,181411,5,0,0:0:0:0:
256,192,181528,5,0,0:0:0:0:
256,192,181645,5,8,0:0:0:0:
256,192,181880,5,8,0:0:0:0:
256,192,182114,5,0,0:0:0:0:
256,192,182349,5,8,0:0:0:0:
256,192,182700,5,0,0:0:0:0:
256,192,182817,5,8,0:0:0:0:
256,192,183169,5,8,0:0:0:0:
256,192,183286,5,0,0:0:0:0:
256,192,183403,5,0,0:0:0:0:
256,192,183520,5,8,0:0:0:0:
256,192,183755,5,8,0:0:0:0:
256,192,183989,5,8,0:0:0:0:
256,192,184106,5,8,0:0:0:0:
256,192,184224,5,0,0:0:0:0:
256,192,184458,5,0,0:0:0:0:
256,192,184692,5,8,0:0:0:0:
256,192,185044,5,8,0:0:0:0:
256,192,185161,5,0,0:0:0:0:
256,192,185278,5,0,0:0:0:0:
256,192,185395,5,8,0:0:0:0:
256,192,185630,5,8,0:0:0:0:
256,192,185747,5,0,0:0:0:0:
256,192,185864,5,8,0:0:0:0:
256,192,186099,5,0,0:0:0:0:
256,192,186450,5,8,0:0:0:0:
256,192,186567,5,0,0:0:0:0:
256,192,186802,5,8,0:0:0:0:
256,192,186919,5,8,0:0:0:0:
256,192,187036,5,0,0:0:0:0:
256,192,187153,5,0,0:0:0:0:
256,192,187270,5,8,0:0:0:0:
256,192,187388,5,0,0:0:0:0:
256,192,187505,5,8,0:0:0:0:
256,192,187739,5,0,0:0:0:0:
256,192,187856,5,0,0:0:0:0:
256,192,187974,5,12,0:0:0:0:
256,192,188208,5,8,0:0:0:0:
256,192,188325,5,8,0:0:0:0:
256,192,188442,5,0,0:0:0:0:
256,192,188677,5,0,0:0:0:0:
256,192,188794,5,0,0:0:0:0:
256,192,188911,5,8,0:0:0:0:
256,192,189145,5,0,0:0:0:0:
256,192,189380,5,8,0:0:0:0:
256,192,189849,5,12,0:0:0:0:
256,192,190083,5,8,0:0:0:0:
256,192,190200,5,8,0:0:0:0:
256,192,190317,5,0,0:0:0:0:
256,192,190552,5,0,0:0:0:0:
256,192,190669,5,0,0:0:0:0:
256,192,190786,5,8,0:0:0:0:
256,192,191020,5,8,0:0:0:0:
256,192,191255,5,0,0:0:0:0:
256,192,191724,5,12,0:0:0:0:
256,192,191958,5,8,0:0:0:0:
256,192,192075,5,8,0:0:0:0:
256,192,192192,5,0,0:0:0:0:
256,192,192427,5,0,0:0:0:0:
256,192,192544,5,0,0:0:0:0:
256,192,192661,5,8,0:0:0:0:
256,192,192895,5,8,0:0:0:0:
256,192,193130,5,0,0:0:0:0:
256,192,193247,5,8,0:0:0:0:
256,192,193364,5,0,0:0:0:0:
256,192,193599,5,8,0:0:0:0:
256,192,193833,5,8,0:0:0:0:
256,192,194067,5,0,0:0:0:0:
256,192,194126,5,0,0:0:0:0:
256,192,194536,5,4,0:0:0:0:
256,192,195005,5,8,0:0:0:0:
256,192,195474,5,4,0:0:0:0:
256,192,195708,5,8,0:0:0:0:
256,192,195825,5,8,0:0:0:0:
256,192,195942,5,0,0:0:0:0:
256,192,196177,5,8,0:0:0:0:
256,192,196294,5,8,0:0:0:0:
256,192,196411,5,8,0:0:0:0:
256,192,196528,5,0,0:0:0:0:
256,192,196587,5,0,0:0:0:0:
256,192,196645,5,8,0:0:0:0:
256,192,196763,5,0,0:0:0:0:
256,192,196821,5,0,0:0:0:0:
256,192,196880,5,8,0:0:0:0:
256,192,196997,5,8,0:0:0:0:
256,192,197114,5,0,0:0:0:0:
256,192,197231,5,8,0:0:0:0:
256,192,197349,5,0,0:0:0:0:
256,192,197466,5,0,0:0:0:0:
256,192,197583,5,8,0:0:0:0:
256,192,197700,5,0,0:0:0:0:
256,192,197817,5,8,0:0:0:0:
256,192,197934,5,0,0:0:0:0:
256,192,197993,5,0,0:0:0:0:
256,192,198052,5,8,0:0:0:0:
256,192,198169,5,8,0:0:0:0:
256,192,198286,5,0,0:0:0:0:
256,192,198364,5,0,0:0:0:0:
256,192,198442,5,0,0:0:0:0:
256,192,198520,5,0,0:0:0:0:
256,192,198599,5,0,0:0:0:0:
256,192,198677,5,0,0:0:0:0:
256,192,198755,5,8,0:0:0:0:
256,192,198872,5,0,0:0:0:0:
256,192,199106,5,8,0:0:0:0:
256,192,199224,5,4,0:0:0:0:
256,192,199458,5,8,0:0:0:0:
256,192,199575,5,8,0:0:0:0:
256,192,199692,5,0,0:0:0:0:
256,192,199809,5,0,0:0:0:0:
256,192,199927,5,8,0:0:0:0:
256,192,200044,5,8,0:0:0:0:
256,192,200161,5,0,0:0:0:0:
256,192,200220,5,0,0:0:0:0:
256,192,200278,5,0,0:0:0:0:
256,192,200337,5,0,0:0:0:0:
256,192,200395,5,8,0:0:0:0:
256,192,200513,5,0,0:0:0:0:
256,192,200630,5,8,0:0:0:0:
256,192,200747,5,8,0:0:0:0:
256,192,200864,5,0,0:0:0:0:
256,192,200981,5,8,0:0:0:0:
256,192,201099,5,0,0:0:0:0:
256,192,201216,5,0,0:0:0:0:
256,192,201333,5,8,0:0:0:0:
256,192,201450,5,8,0:0:0:0:
256,192,201567,5,0,0:0:0:0:
256,192,201684,5,8,0:0:0:0:
256,192,201802,5,0,0:0:0:0:
256,192,201919,5,0,0:0:0:0:
256,192,202036,5,8,0:0:0:0:
256,192,202212,5,0,0:0:0:0:
256,192,202388,5,0,0:0:0:0:
256,192,202505,5,8,0:0:0:0:
256,192,202739,5,0,0:0:0:0:
256,192,202974,5,12,0:0:0:0:
256,192,203208,5,8,0:0:0:0:
256,192,203325,5,8,0:0:0:0:
256,192,203442,5,0,0:0:0:0:
256,192,203559,5,0,0:0:0:0:
256,192,203677,5,8,0:0:0:0:
256,192,203794,5,0,0:0:0:0:
256,192,203911,5,0,0:0:0:0:
256,192,204028,5,8,0:0:0:0:
256,192,204145,5,8,0:0:0:0:
256,192,204263,5,0,0:0:0:0:
256,192,204380,5,8,0:0:0:0:
256,192,204497,5,0,0:0:0:0:
256,192,204614,5,8,0:0:0:0:
256,192,204731,5,8,0:0:0:0:
256,192,204849,5,0,0:0:0:0:
256,192,204966,5,8,0:0:0:0:
256,192,205083,5,8,0:0:0:0:
256,192,205200,5,0,0:0:0:0:
256,192,205317,5,8,0:0:0:0:
256,192,205434,5,0,0:0:0:0:
256,192,205552,5,0,0:0:0:0:
256,192,205669,5,8,0:0:0:0:
256,192,205786,5,0,0:0:0:0:
256,192,205903,5,8,0:0:0:0:
256,192,206020,5,8,0:0:0:0:
256,192,206138,5,0,0:0:0:0:
256,192,206255,5,8,0:0:0:0:
256,192,206333,5,8,0:0:0:0:
256,192,206411,5,8,0:0:0:0:
256,192,206489,5,0,0:0:0:0:
256,192,206567,5,0,0:0:0:0:
256,192,206645,5,0,0:0:0:0:
256,192,206724,5,8,0:0:0:0:
256,192,206841,5,8,0:0:0:0:
256,192,206958,5,0,0:0:0:0:
256,192,207075,5,0,0:0:0:0:
256,192,207192,5,8,0:0:0:0:
256,192,207309,5,0,0:0:0:0:
256,192,207427,5,8,0:0:0:0:
256,192,207544,5,8,0:0:0:0:
256,192,207661,5,0,0:0:0:0:
256,192,207720,5,0,0:0:0:0:
256,192,207778,5,0,0:0:0:0:
256,192,207895,5,8,0:0:0:0:
256,192,208013,5,0,0:0:0:0:
256,192,208071,5,0,0:0:0:0:
256,192,208130,5,8,0:0:0:0:
256,192,208247,5,0,0:0:0:0:
256,192,208364,5,8,0:0:0:0:
256,192,208481,5,8,0:0:0:0:
256,192,208599,5,0,0:0:0:0:
256,192,208716,5,8,0:0:0:0:
256,192,208833,5,8,0:0:0:0:
256,192,208950,5,8,0:0:0:0:
256,192,209067,5,0,0:0:0:0:
256,192,209184,5,8,0:0:0:0:
256,192,209302,5,8,0:0:0:0:
256,192,209419,5,0,0:0:0:0:
256,192,209536,5,0,0:0:0:0:
256,192,209712,5,0,0:0:0:0:
256,192,209888,5,0,0:0:0:0:
256,192,210005,5,0,0:0:0:0:
256,192,210181,5,0,0:0:0:0:
256,192,210356,5,0,0:0:0:0:
256,192,210474,5,12,0:0:0:0:
256,192,210708,5,8,0:0:0:0:
256,192,210825,5,0,0:0:0:0:
256,192,210884,5,0,0:0:0:0:
256,192,210942,5,8,0:0:0:0:
256,192,211059,5,8,0:0:0:0:
256,192,211118,5,0,0:0:0:0:
256,192,211177,5,8,0:0:0:0:
256,192,211294,5,8,0:0:0:0:
256,192,211411,5,0,0:0:0:0:
256,192,211470,5,8,0:0:0:0:
256,192,211528,5,8,0:0:0:0:
256,192,211587,5,8,0:0:0:0:
256,192,211645,5,0,0:0:0:0:
256,192,211763,5,8,0:0:0:0:
256,192,211821,5,8,0:0:0:0:
256,192,211880,5,0,0:0:0:0:
256,192,211958,5,8,0:0:0:0:
256,192,212036,5,8,0:0:0:0:
256,192,212114,5,0,0:0:0:0:
256,192,212192,5,8,0:0:0:0:
256,192,212270,5,8,0:0:0:0:
256,192,212349,5,0,0:0:0:0:
256,192,212466,5,8,0:0:0:0:
256,192,212524,5,8,0:0:0:0:
256,192,212583,5,0,0:0:0:0:
256,192,212700,5,8,0:0:0:0:
256,192,212759,5,0,0:0:0:0:
256,192,212817,5,8,0:0:0:0:
256,192,212934,5,8,0:0:0:0:
256,192,212993,5,8,0:0:0:0:
256,192,213052,5,0,0:0:0:0:
256,192,213169,5,8,0:0:0:0:
256,192,213286,5,8,0:0:0:0:
256,192,213345,5,8,0:0:0:0:
256,192,213403,5,0,0:0:0:0:
256,192,213462,5,0,0:0:0:0:
256,192,213520,5,8,0:0:0:0:
256,192,213638,5,8,0:0:0:0:
256,192,213696,5,8,0:0:0:0:
256,192,213755,5,0,0:0:0:0:
256,192,213833,5,0,0:0:0:0:
256,192,213911,5,0,0:0:0:0:
256,192,213989,5,0,0:0:0:0:
256,192,214067,5,0,0:0:0:0:
256,192,214145,5,0,0:0:0:0:
256,192,214224,5,8,0:0:0:0:
256,192,214341,5,8,0:0:0:0:
256,192,214458,5,0,0:0:0:0:
256,192,214575,5,8,0:0:0:0:
256,192,214634,5,0,0:0:0:0:
256,192,214692,5,8,0:0:0:0:
256,192,214809,5,8,0:0:0:0:
256,192,214868,5,8,0:0:0:0:
256,192,214927,5,0,0:0:0:0:
256,192,215044,5,8,0:0:0:0:
256,192,215161,5,0,0:0:0:0:
256,192,215220,5,0,0:0:0:0:
256,192,215278,5,8,0:0:0:0:
256,192,215337,5,8,0:0:0:0:
256,192,215395,5,0,0:0:0:0:
256,192,215454,5,0,0:0:0:0:
256,192,215513,5,8,0:0:0:0:
256,192,215571,5,8,0:0:0:0:
256,192,215630,5,0,0:0:0:0:
256,192,215708,5,8,0:0:0:0:
256,192,215786,5,8,0:0:0:0:
256,192,215864,5,0,0:0:0:0:
256,192,215942,5,8,0:0:0:0:
256,192,216020,5,8,0:0:0:0:
256,192,216099,5,0,0:0:0:0:
256,192,216216,5,8,0:0:0:0:
256,192,216274,5,0,0:0:0:0:
256,192,216333,5,8,0:0:0:0:
256,192,216450,5,8,0:0:0:0:
256,192,216509,5,8,0:0:0:0:
256,192,216567,5,0,0:0:0:0:
256,192,216684,5,8,0:0:0:0:
256,192,216743,5,0,0:0:0:0:
256,192,216802,5,0,0:0:0:0:
256,192,216919,5,8,0:0:0:0:
256,192,217036,5,0,0:0:0:0:
256,192,217095,5,0,0:0:0:0:
256,192,217153,5,8,0:0:0:0:
256,192,217212,5,8,0:0:0:0:
256,192,217270,5,0,0:0:0:0:
256,192,217388,5,8,0:0:0:0:
256,192,217446,5,8,0:0:0:0:
256,192,217505,5,0,0:0:0:0:
256,192,217583,5,8,0:0:0:0:
256,192,217661,5,8,0:0:0:0:
256,192,217739,5,0,0:0:0:0:
256,192,217817,5,0,0:0:0:0:
256,192,217895,5,0,0:0:0:0:
256,192,217974,5,8,0:0:0:0:
256,192,218208,5,8,0:0:0:0:
256,192,218442,5,0,0:0:0:0:
256,192,218559,5,0,0:0:0:0:
256,192,218677,5,8,0:0:0:0:
256,192,218794,5,0,0:0:0:0:
256,192,218911,5,0,0:0:0:0:
256,192,219028,5,0,0:0:0:0:
256,192,219145,5,8,0:0:0:0:
256,192,219380,5,0,0:0:0:0:
256,192,219497,5,8,0:0:0:0:
256,192,219614,5,0,0:0:0:0:
256,192,219731,5,0,0:0:0:0:
256,192,219849,5,0,0:0:0:0:
256,192,219966,5,0,0:0:0:0:
256,192,220083,5,8,0:0:0:0:
256,192,220317,5,0,0:0:0:0:
256,192,220434,5,0,0:0:0:0:
256,192,220552,5,8,0:0:0:0:
256,192,220669,5,0,0:0:0:0:
256,192,220786,5,0,0:0:0:0:
256,192,220903,5,0,0:0:0:0:
256,192,221020,5,8,0:0:0:0:
256,192,221255,5,8,0:0:0:0:
256,192,221333,5,8,0:0:0:0:
256,192,221411,5,8,0:0:0:0:
256,192,221489,5,0,0:0:0:0:
256,192,221567,5,0,0:0:0:0:
256,192,221645,5,0,0:0:0:0:
256,192,221724,5,8,0:0:0:0:
256,192,221958,5,0,0:0:0:0:
256,192,222075,5,0,0:0:0:0:
256,192,222192,5,8,0:0:0:0:
256,192,222427,5,8,0:0:0:0:
256,192,222544,5,8,0:0:0:0:
256,192,222661,5,0,0:0:0:0:
256,192,222720,5,0,0:0:0:0:
256,192,222778,5,0,0:0:0:0:
256,192,222895,5,8,0:0:0:0:
256,192,222954,5,0,0:0:0:0:
256,192,223013,5,0,0:0:0:0:
256,192,223071,5,0,0:0:0:0:
256,192,223130,5,8,0:0:0:0:
256,192,223247,5,8,0:0:0:0:
256,192,223364,5,0,0:0:0:0:
256,192,223481,5,8,0:0:0:0:
256,192,223599,5,0,0:0:0:0:
256,192,223716,5,0,0:0:0:0:
256,192,223833,5,8,0:0:0:0:
256,192,223950,5,0,0:0:0:0:
256,192,224067,5,0,0:0:0:0:
256,192,224184,5,8,0:0:0:0:
256,192,224302,5,8,0:0:0:0:
256,192,224419,5,0,0:0:0:0:
256,192,224536,5,0,0:0:0:0:
256,192,224712,5,0,0:0:0:0:
256,192,224888,5,0,0:0:0:0:
256,192,225005,5,0,0:0:0:0:
256,192,225181,5,0,0:0:0:0:
256,192,225356,5,0,0:0:0:0:
256,192,225474,5,12,0:0:0:0:
256,192,225942,5,8,0:0:0:0:
256,192,226411,5,0,0:0:0:0:
256,192,226645,5,8,0:0:0:0:
256,192,227114,5,0,0:0:0:0:
256,192,227349,5,0,0:0:0:0:
256,192,227583,5,0,0:0:0:0:
256,192,227817,5,8,0:0:0:0:
256,192,228286,5,0,0:0:0:0:
256,192,228520,5,8,0:0:0:0:
256,192,228989,5,0,0:0:0:0:
256,192,229224,5,8,0:0:0:0:
256,192,229692,5,8,0:0:0:0:
256,192,230161,5,0,0:0:0:0:
256,192,230395,5,8,0:0:0:0:
256,192,230864,5,0,0:0:0:0:
256,192,231099,5,0,0:0:0:0:
256,192,231333,5,0,0:0:0:0:
256,192,231567,5,8,0:0:0:0:
256,192,232036,5,0,0:0:0:0:
256,192,232270,5,8,0:0:0:0:
256,192,232505,5,0,0:0:0:0:
256,192,232974,5,4,0:0:0:0:
256,192,233208,5,8,0:0:0:0:
256,192,233442,5,8,0:0:0:0:
256,192,233559,5,0,0:0:0:0:
256,192,233911,5,8,0:0:0:0:
256,192,234145,5,8,0:0:0:0:
256,192,234380,5,8,0:0:0:0:
256,192,234497,5,0,0:0:0:0:
256,192,234731,5,0,0:0:0:0:
256,192,234849,5,8,0:0:0:0:
256,192,235083,5,0,0:0:0:0:
256,192,235200,5,0,0:0:0:0:
256,192,235317,5,8,0:0:0:0:
256,192,235552,5,8,0:0:0:0:
256,192,235786,5,0,0:0:0:0:
256,192,236020,5,8,0:0:0:0:
256,192,236255,5,8,0:0:0:0:
256,192,236372,5,0,0:0:0:0:
256,192,236724,5,8,0:0:0:0:
256,192,236958,5,8,0:0:0:0:
256,192,237192,5,8,0:0:0:0:
256,192,237309,5,8,0:0:0:0:
256,192,237544,5,8,0:0:0:0:
256,192,237661,5,0,0:0:0:0:
256,192,237778,5,0,0:0:0:0:
256,192,237895,5,8,0:0:0:0:
256,192,238130,5,8,0:0:0:0:
256,192,238247,5,8,0:0:0:0:
256,192,238364,5,0,0:0:0:0:
256,192,238481,5,8,0:0:0:0:
256,192,238599,5,0,0:0:0:0:
256,192,238833,5,0,0:0:0:0:
256,192,238950,5,0,0:0:0:0:
256,192,239067,5,8,0:0:0:0:
256,192,239184,5,0,0:0:0:0:
256,192,239302,5,8,0:0:0:0:
256,192,239536,5,0,0:0:0:0:
256,192,239653,5,0,0:0:0:0:
256,192,239770,5,8,0:0:0:0:
256,192,239888,5,0,0:0:0:0:
256,192,240005,5,8,0:0:0:0:
256,192,240122,5,0,0:0:0:0:
256,192,240239,5,8,0:0:0:0:
256,192,240356,5,0,0:0:0:0:
256,192,240474,5,12,0:0:0:0:
256,192,240708,5,0,0:0:0:0:
256,192,240825,5,0,0:0:0:0:
256,192,240942,5,0,0:0:0:0:
256,192,241177,5,0,0:0:0:0:
256,192,241294,5,0,0:0:0:0:
256,192,241411,5,8,0:0:0:0:
256,192,241645,5,0,0:0:0:0:
256,192,241763,5,0,0:0:0:0:
256,192,241880,5,8,0:0:0:0:
256,192,241997,5,0,0:0:0:0:
256,192,242114,5,8,0:0:0:0:
256,192,242231,5,8,0:0:0:0:
256,192,242349,5,0,0:0:0:0:
256,192,242583,5,0,0:0:0:0:
256,192,242700,5,0,0:0:0:0:
256,192,242817,5,8,0:0:0:0:
256,192,243052,5,8,0:0:0:0:
256,192,243169,5,0,0:0:0:0:
256,192,243286,5,0,0:0:0:0:
256,192,243520,5,8,0:0:0:0:
256,192,243638,5,0,0:0:0:0:
256,192,243755,5,8,0:0:0:0:
256,192,243794,5,8,0:0:0:0:
256,192,243989,5,0,0:0:0:0:
256,192,244106,5,8,0:0:0:0:
256,192,244224,5,0,0:0:0:0:
256,192,244458,5,0,0:0:0:0:
256,192,244575,5,0,0:0:0:0:
256,192,244692,5,8,0:0:0:0:
256,192,244809,5,0,0:0:0:0:
256,192,245044,5,8,0:0:0:0:
256,192,245161,5,0,0:0:0:0:
256,192,245395,5,8,0:0:0:0:
256,192,245513,5,0,0:0:0:0:
256,192,245630,5,8,0:0:0:0:
256,192,245747,5,8,0:0:0:0:
256,192,245864,5,0,0:0:0:0:
256,192,245981,5,0,0:0:0:0:
256,192,246099,5,8,0:0:0:0:
256,192,246333,5,8,0:0:0:0:
256,192,246450,5,0,0:0:0:0:
256,192,246567,5,0,0:0:0:0:
256,192,246802,5,8,0:0:0:0:
256,192,246919,5,8,0:0:0:0:
256,192,247036,5,0,0:0:0:0:
256,192,247153,5,0,0:0:0:0:
256,192,247270,5,8,0:0:0:0:
256,192,247388,5,0,0:0:0:0:
256,192,247505,5,8,0:0:0:0:
256,192,247544,5,8,0:0:0:0:
256,192,247739,5,0,0:0:0:0:
256,192,247974,5,12,0:0:0:0:
256,192,248208,5,8,0:0:0:0:
256,192,248325,5,8,0:0:0:0:
256,192,248442,5,0,0:0:0:0:
256,192,248677,5,0,0:0:0:0:
256,192,248794,5,0,0:0:0:0:
256,192,248911,5,8,0:0:0:0:
256,192,249145,5,0,0:0:0:0:
256,192,249263,5,0,0:0:0:0:
256,192,249380,5,8,0:0:0:0:
256,192,249497,5,0,0:0:0:0:
256,192,249614,5,8,0:0:0:0:
256,192,249731,5,8,0:0:0:0:
256,192,249849,5,0,0:0:0:0:
256,192,250083,5,0,0:0:0:0:
256,192,250200,5,0,0:0:0:0:
256,192,250317,5,8,0:0:0:0:
256,192,250552,5,8,0:0:0:0:
256,192,250669,5,8,0:0:0:0:
256,192,250786,5,0,0:0:0:0:
256,192,251020,5,8,0:0:0:0:
256,192,251138,5,0,0:0:0:0:
256,192,251255,5,8,0:0:0:0:
256,192,251294,5,8,0:0:0:0:
256,192,251489,5,0,0:0:0:0:
256,192,251606,5,8,0:0:0:0:
256,192,251724,5,0,0:0:0:0:
256,192,251958,5,0,0:0:0:0:
256,192,252075,5,0,0:0:0:0:
256,192,252192,5,8,0:0:0:0:
256,192,252309,5,8,0:0:0:0:
256,192,252544,5,8,0:0:0:0:
256,192,252661,5,0,0:0:0:0:
256,192,252895,5,8,0:0:0:0:
256,192,253013,5,0,0:0:0:0:
256,192,253130,5,8,0:0:0:0:
256,192,253247,5,8,0:0:0:0:
256,192,253364,5,0,0:0:0:0:
256,192,253481,5,0,0:0:0:0:
256,192,253599,5,8,0:0:0:0:
256,192,253833,5,8,0:0:0:0:
256,192,253950,5,8,0:0:0:0:
256,192,254067,5,0,0:0:0:0:
256,192,254302,5,8,0:0:0:0:
256,192,254419,5,8,0:0:0:0:
256,192,254536,5,0,0:0:0:0:
256,192,254653,5,0,0:0:0:0:
256,192,254770,5,8,0:0:0:0:
256,192,254888,5,0,0:0:0:0:
256,192,255005,5,8,0:0:0:0:
256,192,255044,5,8,0:0:0:0:
256,192,255239,5,0,0:0:0:0:
256,192,255474,5,12,0:0:0:0:
256,192,255942,5,8,0:0:0:0:
256,192,256294,5,0,0:0:0:0:
256,192,256411,5,0,0:0:0:0:
256,192,256645,5,0,0:0:0:0:
256,192,256880,5,8,0:0:0:0:
256,192,257114,5,0,0:0:0:0:
256,192,257349,5,0,0:0:0:0:
256,192,257817,5,8,0:0:0:0:
256,192,258052,5,8,0:0:0:0:
256,192,258169,5,0,0:0:0:0:
256,192,258286,5,0,0:0:0:0:
256,192,258520,5,0,0:0:0:0:
256,192,258755,5,8,0:0:0:0:
256,192,258989,5,8,0:0:0:0:
256,192,259106,5,8,0:0:0:0:
256,192,259224,5,0,0:0:0:0:
256,192,259458,5,0,0:0:0:0:
256,192,259692,5,8,0:0:0:0:
256,192,259927,5,0,0:0:0:0:
256,192,260044,5,0,0:0:0:0:
256,192,260161,5,0,0:0:0:0:
256,192,260395,5,8,0:0:0:0:
256,192,260630,5,8,0:0:0:0:
256,192,260864,5,0,0:0:0:0:
256,192,261099,5,0,0:0:0:0:
256,192,261567,5,8,0:0:0:0:
256,192,261802,5,0,0:0:0:0:
256,192,262036,5,0,0:0:0:0:
256,192,262153,5,0,0:0:0:0:
256,192,262270,5,8,0:0:0:0:
256,192,262446,5,0,0:0:0:0:
256,192,262505,5,8,0:0:0:0:
256,192,262739,5,8,0:0:0:0:
256,192,262974,5,4,0:0:0:0:
256,192,263442,5,8,0:0:0:0:
256,192,263794,5,0,0:0:0:0:
256,192,263911,5,0,0:0:0:0:
256,192,264145,5,8,0:0:0:0:
256,192,264380,5,8,0:0:0:0:
256,192,264614,5,0,0:0:0:0:
256,192,264849,5,0,0:0:0:0:
256,192,265317,5,8,0:0:0:0:
256,192,265552,5,8,0:0:0:0:
256,192,265669,5,0,0:0:0:0:
256,192,265786,5,0,0:0:0:0:
256,192,266020,5,0,0:0:0:0:
256,192,266255,5,8,0:0:0:0:
256,192,266489,5,8,0:0:0:0:
256,192,266606,5,0,0:0:0:0:
256,192,266724,5,12,0:0:0:0:
256,192,266958,5,0,0:0:0:0:
256,192,267192,5,8,0:0:0:0:
256,192,267427,5,0,0:0:0:0:
256,192,267544,5,0,0:0:0:0:
256,192,267661,5,0,0:0:0:0:
256,192,267895,5,8,0:0:0:0:
256,192,268130,5,8,0:0:0:0:
256,192,268364,5,0,0:0:0:0:
256,192,268599,5,4,0:0:0:0:
256,192,269067,5,8,0:0:0:0:
256,192,269302,5,4,0:0:0:0:
256,192,269536,5,0,0:0:0:0:
256,192,269653,5,0,0:0:0:0:
256,192,269770,5,8,0:0:0:0:
256,192,269946,5,0,0:0:0:0:
256,192,270005,5,8,0:0:0:0:
256,192,270239,5,8,0:0:0:0:
256,192,270474,5,4,0:0:0:0:
256,192,270942,5,8,0:0:0:0:
256,192,271294,5,0,0:0:0:0:
256,192,271411,5,0,0:0:0:0:
256,192,271645,5,0,0:0:0:0:
256,192,271880,5,8,0:0:0:0:
256,192,272114,5,0,0:0:0:0:
256,192,272349,5,0,0:0:0:0:
256,192,272817,5,8,0:0:0:0:
256,192,273052,5,8,0:0:0:0:
256,192,273169,5,0,0:0:0:0:
256,192,273286,5,0,0:0:0:0:
256,192,273520,5,0,0:0:0:0:
256,192,273755,5,8,0:0:0:0:
256,192,273989,5,8,0:0:0:0:
256,192,274106,5,8,0:0:0:0:
256,192,274224,5,0,0:0:0:0:
256,192,274458,5,0,0:0:0:0:
256,192,274692,5,8,0:0:0:0:
256,192,274927,5,0,0:0:0:0:
256,192,275044,5,0,0:0:0:0:
256,192,275161,5,0,0:0:0:0:
256,192,275395,5,8,0:0:0:0:
256,192,275630,5,8,0:0:0:0:
256,192,275864,5,0,0:0:0:0:
256,192,276099,5,0,0:0:0:0:
256,192,276567,5,8,0:0:0:0:
256,192,276802,5,0,0:0:0:0:
256,192,277036,5,0,0:0:0:0:
256,192,277153,5,0,0:0:0:0:
256,192,277270,5,8,0:0:0:0:
256,192,277446,5,0,0:0:0:0:
256,192,277505,5,8,0:0:0:0:
256,192,277739,5,8,0:0:0:0:
256,192,277974,5,4,0:0:0:0:
256,192,278442,5,8,0:0:0:0:
256,192,278794,5,0,0:0:0:0:
256,192,278911,5,0,0:0:0:0:
256,192,279145,5,8,0:0:0:0:
256,192,279380,5,8,0:0:0:0:
256,192,279614,5,0,0:0:0:0:
256,192,279849,5,0,0:0:0:0:
256,192,280317,5,8,0:0:0:0:
256,192,280552,5,8,0:0:0:0:
256,192,280669,5,0,0:0:0:0:
256,192,280786,5,0,0:0:0:0:
256,192,281020,5,0,0:0:0:0:
256,192,281255,5,8,0:0:0:0:
256,192,281489,5,0,0:0:0:0:
256,192,281665,5,0,0:0:0:0:
256,192,281724,5,0,0:0:0:0:
256,192,281958,5,0,0:0:0:0:
256,192,282192,5,8,0:0:0:0:
256,192,282427,5,0,0:0:0:0:
256,192,282661,5,0,0:0:0:0:
256,192,282895,5,0,0:0:0:0:
256,192,283130,5,8,0:0:0:0:
256,192,283247,5,8,0:0:0:0:
256,192,283364,5,0,0:0:0:0:
256,192,283481,5,0,0:0:0:0:
256,192,283599,5,0,0:0:0:0:
256,192,283833,5,8,0:0:0:0:
256,192,284067,5,8,0:0:0:0:
256,192,284184,5,8,0:0:0:0:
256,192,284302,5,0,0:0:0:0:
256,192,284419,5,0,0:0:0:0:
256,192,284653,5,0,0:0:0:0:
256,192,284770,5,8,0:0:0:0:
256,192,285005,5,8,0:0:0:0:
256,192,285239,5,8,0:0:0:0:
256,192,285474,5,4,0:0:0:0:
256,192,285942,5,8,0:0:0:0:
256,192,286294,5,0,0:0:0:0:
256,192,286411,5,8,0:0:0:0:
256,192,286645,5,8,0:0:0:0:
256,192,286880,5,0,0:0:0:0:
256,192,287114,5,8,0:0:0:0:
256,192,287349,5,0,0:0:0:0:
256,192,287817,5,8,0:0:0:0:
256,192,288052,5,0,0:0:0:0:
256,192,288169,5,0,0:0:0:0:
256,192,288286,5,8,0:0:0:0:
256,192,288520,5,8,0:0:0:0:
256,192,288755,5,0,0:0:0:0:
256,192,288989,5,0,0:0:0:0:
256,192,289224,5,0,0:0:0:0:
256,192,289692,5,8,0:0:0:0:
256,192,289927,5,0,0:0:0:0:
256,192,290044,5,0,0:0:0:0:
256,192,290161,5,8,0:0:0:0:
256,192,290395,5,8,0:0:0:0:
256,192,290630,5,0,0:0:0:0:
256,192,290864,5,8,0:0:0:0:
256,192,291099,5,8,0:0:0:0:
256,192,291567,5,8,0:0:0:0:
256,192,291919,5,0,0:0:0:0:
256,192,292036,5,8,0:0:0:0:
256,192,292270,5,8,0:0:0:0:
256,192,292505,5,0,0:0:0:0:
256,192,292974,5,4,0:0:0:0:
256,192,293442,5,8,0:0:0:0:
256,192,293794,5,0,0:0:0:0:
256,192,293911,5,8,0:0:0:0:
256,192,294145,5,8,0:0:0:0:
256,192,294380,5,0,0:0:0:0:
256,192,294614,5,8,0:0:0:0:
256,192,294849,5,0,0:0:0:0:
256,192,295317,5,8,0:0:0:0:
256,192,295552,5,0,0:0:0:0:
256,192,295669,5,0,0:0:0:0:
256,192,295786,5,8,0:0:0:0:
256,192,296020,5,8,0:0:0:0:
256,192,296255,5,0,0:0:0:0:
256,192,296489,5,0,0:0:0:0:
256,192,296724,5,12,0:0:0:0:
256,192,297192,5,8,0:0:0:0:
256,192,297427,5,0,0:0:0:0:
256,192,297544,5,0,0:0:0:0:
256,192,297661,5,8,0:0:0:0:
256,192,297895,5,8,0:0:0:0:
256,192,298130,5,0,0:0:0:0:
256,192,298364,5,8,0:0:0:0:
256,192,298599,5,8,0:0:0:0:
256,192,298716,5,8,0:0:0:0:
256,192,298833,5,0,0:0:0:0:
256,192,299067,5,8,0:0:0:0:
256,192,299184,5,8,0:0:0:0:
256,192,299302,5,0,0:0:0:0:
256,192,299419,5,0,0:0:0:0:
256,192,299536,5,8,0:0:0:0:
256,192,299770,5,8,0:0:0:0:
256,192,300005,5,0,0:0:0:0:
256,192,300239,12,0,300942,0:0:0:0:
