osu file format v14

[General]
AudioFilename: audio.mp3
AudioLeadIn: 0
PreviewTime: 251721
Countdown: 0
SampleSet: Soft
StackLeniency: 0.7
Mode: 3
LetterboxInBreaks: 0
SpecialStyle: 0
WidescreenStoryboard: 0

[Editor]
DistanceSpacing: 0.8
BeatDivisor: 4
GridSize: 8
TimelineZoom: 3.399998

[Metadata]
Title:Kishinjou set 07 ~ Magical Storm
TitleUnicode:Kishinjou set 07 〜 マジカルストーム
Artist:Rin
ArtistUnicode:凛
Creator:AyeAries
Version:Stormy Praetor
Source:東方輝針城 ~ Double Dealing Character.
Tags:- Aries - -_Aries_- FAMoss ZUN osu! Mappers' Guild featured artist FA ハウスリミックス Electronic Video Game 東方project KLTH-0009 touhou マジカルストーム Kuroneko Lounge クロネコラウンジ DJ Ginsuke Ocelot SiSTEMA Function Phantom Thinktec Instrumental House
BeatmapID:1866816
BeatmapSetID:893195

[Difficulty]
HPDrainRate:9
CircleSize:4
OverallDifficulty:8
ApproachRate:5
SliderMultiplier:1.4
SliderTickRate:1

[Events]
//Background and Video events
0,0,"bg.jpg",0,0
//Break Periods
//Storyboard Layer 0 (Background)
//Storyboard Layer 1 (Fail)
//Storyboard Layer 2 (Pass)
//Storyboard Layer 3 (Foreground)
//Storyboard Layer 4 (Overlay)
//Storyboard Sound Samples
Sample,30471,0,"C#5S_Db5S.wav",70
Sample,32346,0,"G5S.wav",70
Sample,32346,0,"E5S.wav",70
Sample,34221,0,"C5S.wav",70
Sample,36096,0,"F#5S_Gb5S.wav",70
Sample,39846,0,"A#5S_Bb5S.wav",70
Sample,43596,0,"A5S.wav",70
Sample,82971,0,"G5S.wav",70
Sample,84846,0,"C#6S_Db6S_s.wav",70
Sample,84846,0,"A6S_s.wav",70
Sample,85197,0,"F#6S_Gb6S_s.wav",70
Sample,85197,0,"A6S_s.wav",70
Sample,85549,0,"F#6S_Gb6S_s.wav",70
Sample,85549,0,"C#7S_Db7S_s.wav",70
Sample,85783,0,"C#6S_Db6S_s.wav",70
Sample,85783,0,"A6S_s.wav",70
Sample,86721,0,"C#5S_Db5S.wav",70
Sample,94221,0,"G#6S_Ab6S.wav",70
Sample,96096,0,"F#6S_Gb6S.wav",70
Sample,97033,0,"B6S.wav",70
Sample,97971,0,"C#6S_Db6S_s.wav",70
Sample,101252,0,"B3S_s.wav",70
Sample,128439,0,"G#5S_Ab5S_s.wav",70
Sample,128439,0,"C#6S_Db6S_s.wav",70
Sample,129377,0,"E5S_s.wav",70
Sample,129377,0,"B5S_s.wav",70
Sample,130314,0,"D#5S_Eb5S_s.wav",70
Sample,130314,0,"G#5S_Ab5S_s.wav",70
Sample,131252,0,"G#5S_Ab5S_s.wav",70
Sample,131252,0,"D#6S_Eb6S_s.wav",70
Sample,131721,0,"F6S.wav",70
Sample,131721,0,"D#6S_Eb6S.wav",70
Sample,136408,0,"F5S_s.wav",70
Sample,138283,0,"F5S_s.wav",70
Sample,139221,0,"C#5S_Db5S_s.wav",70
Sample,139221,0,"C#6S_Db6S.wav",70
Sample,141096,0,"B5S_s.wav",70
Sample,142971,0,"G#5S_Ab5S_s.wav",70
Sample,146721,0,"C#6S_Db6S.wav",70
Sample,150471,0,"C6S_s.wav",70
Sample,151408,0,"G#6S_Ab6S.wav",70
Sample,151408,0,"D#7S_Eb7S.wav",70
Sample,152814,0,"D#6S_Eb6S_s.wav",70
Sample,152814,0,"C7S_s.wav",70
Sample,153283,0,"D#5S_Eb5S.wav",70
Sample,153283,0,"F5S_s.wav",70
Sample,154221,0,"E5S.wav",70
Sample,154221,0,"E6S.wav",70
Sample,156096,0,"F#6S_Gb6S.wav",70
Sample,157971,0,"C#6S_Db6S.wav",70
Sample,158908,0,"G#5S_Ab5S.wav",70
Sample,158908,0,"C#6S_Db6S.wav",70
Sample,159846,0,"F#5S_Gb5S.wav",70
Sample,160783,0,"F#5S_Gb5S.wav",70
Sample,221721,0,"C#5S_Db5S.wav",70
Sample,223596,0,"G5S.wav",70
Sample,223596,0,"E5S.wav",70
Sample,225471,0,"C5S.wav",70
Sample,227346,0,"F#5S_Gb5S.wav",70
Sample,231096,0,"A#5S_Bb5S.wav",70
Sample,234846,0,"A5S.wav",70
Sample,236721,0,"C#5S_Db5S.wav",70
Sample,238596,0,"E5S.wav",70
Sample,238596,0,"G5S.wav",70
Sample,240471,0,"C5S.wav",70
Sample,242346,0,"F#5S_Gb5S.wav",70
Sample,246096,0,"A#5S_Bb5S.wav",70
Sample,249846,0,"A5S.wav",70

[TimingPoints]
471,468.75,4,2,1,20,1,0
15471,-100,4,2,1,30,0,0
30471,-100,4,2,1,20,0,0
45471,-100,4,2,1,50,0,1
75471,-100,4,2,1,50,0,0
101721,-100,4,2,1,30,0,0
105471,-100,4,2,1,40,0,0
109221,-100,4,2,1,50,0,0
116721,-100,4,2,1,30,0,0
120471,-100,4,2,1,40,0,0
124221,-100,4,2,1,50,0,0
131838,-100,4,2,1,20,0,0
157971,-100,4,2,1,30,0,0
159846,-100,4,2,1,40,0,0
191721,-100,4,2,1,40,0,1
220783,-100,4,2,1,40,0,0
221721,-100,4,2,1,20,0,0
232971,-100,4,2,1,30,0,0
244221,-100,4,2,1,40,0,0
251721,-100,4,2,1,50,0,1
281721,-100,4,2,1,40,0,0
292971,-100,4,2,1,30,0,0
304221,-100,4,2,1,20,0,0

[HitObjects]
64,192,471,5,2,0:0:0:0:
320,192,471,1,0,0:0:0:0:
448,192,588,1,0,0:0:0:0:
448,192,705,1,0,0:0:0:0:
64,192,822,128,0,939:0:0:0:0:
320,192,939,1,2,0:0:0:0:
448,192,939,1,0,0:0:0:0:
192,192,1056,1,0,0:0:0:0:
192,192,1174,1,0,0:0:0:0:
320,192,1291,1,0,0:0:0:0:
64,192,1408,1,2,0:0:0:0:
192,192,1408,1,0,0:0:0:0:
448,192,1525,1,0,0:0:0:0:
448,192,1642,1,0,0:0:0:0:
192,192,1760,1,0,0:0:0:0:
320,192,1877,1,2,0:0:0:0:
448,192,1877,1,0,0:0:0:0:
64,192,1994,1,0,0:0:0:0:
64,192,2111,1,0,0:0:0:0:
320,192,2228,1,0,0:0:0:0:
64,192,2346,1,2,0:0:0:0:
192,192,2346,1,0,0:0:0:0:
448,192,2463,1,0,0:0:0:0:
448,192,2580,1,0,0:0:0:0:
64,192,2697,128,0,2814:0:0:0:0:
192,192,2814,1,2,0:0:0:0:
448,192,2814,1,0,0:0:0:0:
320,192,2931,1,0,0:0:0:0:
320,192,3049,1,0,0:0:0:0:
192,192,3166,1,0,0:0:0:0:
320,192,3283,1,2,0:0:0:0:
448,192,3283,1,0,0:0:0:0:
320,192,3400,128,0,3517:0:0:0:0:
448,192,3400,128,0,3517:0:0:0:0:
64,192,3517,1,0,0:0:0:0:
320,192,3635,128,0,3752:0:0:0:0:
448,192,3635,128,0,3752:0:0:0:0:
64,192,3752,1,2,0:0:0:0:
192,192,3752,1,0,0:0:0:0:
64,192,3869,1,0,0:0:0:0:
320,192,3986,128,0,4103:0:0:0:0:
448,192,3986,128,0,4103:0:0:0:0:
64,192,4103,1,0,0:0:0:0:
192,192,4221,1,2,0:0:0:0:
448,192,4221,1,0,0:0:0:0:
64,192,4338,1,0,0:0:0:0:
64,192,4455,1,0,0:0:0:0:
448,192,4572,128,0,4689:0:0:0:0:
64,192,4689,1,2,0:0:0:0:
192,192,4689,1,0,0:0:0:0:
320,192,4806,1,0,0:0:0:0:
320,192,4924,1,0,0:0:0:0:
192,192,5041,1,0,0:0:0:0:
320,192,5158,1,2,0:0:0:0:
448,192,5158,1,0,0:0:0:0:
64,192,5275,1,0,0:0:0:0:
64,192,5392,1,0,0:0:0:0:
320,192,5510,1,0,0:0:0:0:
64,192,5627,1,2,0:0:0:0:
192,192,5627,1,0,0:0:0:0:
448,192,5744,1,0,0:0:0:0:
448,192,5861,1,0,0:0:0:0:
192,192,5978,1,0,0:0:0:0:
320,192,6096,1,2,0:0:0:0:
448,192,6096,1,0,0:0:0:0:
64,192,6213,1,0,0:0:0:0:
64,192,6330,1,0,0:0:0:0:
448,192,6447,128,0,6564:0:0:0:0:
64,192,6564,1,2,0:0:0:0:
320,192,6564,1,0,0:0:0:0:
192,192,6681,1,0,0:0:0:0:
192,192,6799,1,0,0:0:0:0:
320,192,6916,1,0,0:0:0:0:
64,192,7033,1,2,0:0:0:0:
192,192,7033,1,0,0:0:0:0:
64,192,7150,128,0,7267:0:0:0:0:
192,192,7150,128,0,7267:0:0:0:0:
448,192,7267,1,0,0:0:0:0:
64,192,7385,128,0,7502:0:0:0:0:
192,192,7385,128,0,7502:0:0:0:0:
320,192,7502,1,2,0:0:0:0:
448,192,7502,1,0,0:0:0:0:
448,192,7619,1,0,0:0:0:0:
64,192,7736,128,0,7853:0:0:0:0:
192,192,7736,128,0,7853:0:0:0:0:
448,192,7853,1,0,0:0:0:0:
64,192,7971,1,2,0:0:0:0:
320,192,7971,1,0,0:0:0:0:
448,192,8088,1,0,0:0:0:0:
448,192,8205,1,0,0:0:0:0:
64,192,8322,128,0,8439:0:0:0:0:
320,192,8439,1,2,0:0:0:0:
448,192,8439,1,0,0:0:0:0:
192,192,8556,1,0,0:0:0:0:
192,192,8674,1,0,0:0:0:0:
320,192,8791,1,0,0:0:0:0:
64,192,8908,1,2,0:0:0:0:
192,192,8908,1,0,0:0:0:0:
448,192,9025,1,0,0:0:0:0:
448,192,9142,1,0,0:0:0:0:
192,192,9260,1,0,0:0:0:0:
320,192,9377,1,2,0:0:0:0:
448,192,9377,1,0,0:0:0:0:
64,192,9494,1,0,0:0:0:0:
64,192,9611,1,0,0:0:0:0:
320,192,9728,1,0,0:0:0:0:
64,192,9846,1,2,0:0:0:0:
192,192,9846,1,0,0:0:0:0:
448,192,9963,1,0,0:0:0:0:
448,192,10080,1,0,0:0:0:0:
64,192,10197,128,0,10314:0:0:0:0:
192,192,10314,1,2,0:0:0:0:
448,192,10314,1,0,0:0:0:0:
320,192,10431,1,0,0:0:0:0:
320,192,10549,1,0,0:0:0:0:
192,192,10666,1,0,0:0:0:0:
320,192,10783,1,2,0:0:0:0:
448,192,10783,1,0,0:0:0:0:
320,192,10900,128,0,11017:0:0:0:0:
448,192,10900,128,0,11017:0:0:0:0:
64,192,11017,1,0,0:0:0:0:
320,192,11135,128,0,11252:0:0:0:0:
448,192,11135,128,0,11252:0:0:0:0:
64,192,11252,1,2,0:0:0:0:
192,192,11252,1,0,0:0:0:0:
64,192,11369,1,0,0:0:0:0:
320,192,11486,128,0,11603:0:0:0:0:
448,192,11486,128,0,11603:0:0:0:0:
64,192,11603,1,0,0:0:0:0:
192,192,11721,1,2,0:0:0:0:
448,192,11721,1,0,0:0:0:0:
64,192,11838,1,0,0:0:0:0:
64,192,11955,1,0,0:0:0:0:
448,192,12072,128,0,12189:0:0:0:0:
64,192,12189,1,2,0:0:0:0:
192,192,12189,1,0,0:0:0:0:
320,192,12306,1,0,0:0:0:0:
320,192,12424,1,0,0:0:0:0:
192,192,12541,1,0,0:0:0:0:
320,192,12658,1,2,0:0:0:0:
448,192,12658,1,0,0:0:0:0:
64,192,12775,1,0,0:0:0:0:
64,192,12892,1,0,0:0:0:0:
320,192,13010,1,0,0:0:0:0:
64,192,13127,1,2,0:0:0:0:
192,192,13127,1,0,0:0:0:0:
448,192,13244,1,0,0:0:0:0:
448,192,13361,1,0,0:0:0:0:
192,192,13478,1,0,0:0:0:0:
320,192,13596,1,2,0:0:0:0:
448,192,13596,1,0,0:0:0:0:
64,192,13713,1,0,0:0:0:0:
64,192,13830,1,0,0:0:0:0:
448,192,13947,128,0,14064:0:0:0:0:
64,192,14064,1,2,0:0:0:0:
320,192,14064,1,0,0:0:0:0:
192,192,14181,1,0,0:0:0:0:
192,192,14299,1,0,0:0:0:0:
320,192,14416,1,0,0:0:0:0:
64,192,14533,1,2,0:0:0:0:
192,192,14533,1,0,0:0:0:0:
64,192,14650,128,0,14767:0:0:0:0:
192,192,14650,128,0,14767:0:0:0:0:
448,192,14767,1,0,0:0:0:0:
64,192,14885,128,0,15002:0:0:0:0:
192,192,14885,128,0,15002:0:0:0:0:
448,192,15002,1,0,0:0:0:0:
448,192,15119,1,0,0:0:0:0:
64,192,15236,128,0,15353:0:0:0:0:
192,192,15236,128,0,15353:0:0:0:0:
320,192,15353,1,0,0:0:0:0:
64,192,15471,1,2,0:0:0:0:
192,192,15471,1,4,0:0:0:0:
448,192,15471,1,0,0:0:0:0:
320,192,15588,1,0,0:0:0:0:
320,192,15705,1,0,0:0:0:0:
192,192,15822,128,0,15939:0:0:0:0:
320,192,15939,1,2,0:0:0:0:
448,192,15939,1,0,0:0:0:0:
64,192,16056,1,0,0:0:0:0:
64,192,16174,1,0,0:0:0:0:
448,192,16174,1,0,0:0:0:0:
320,192,16291,1,0,0:0:0:0:
64,192,16408,1,2,0:0:0:0:
192,192,16408,1,0,0:0:0:0:
448,192,16525,1,0,0:0:0:0:
448,192,16642,1,0,0:0:0:0:
64,192,16760,128,0,16877:0:0:0:0:
320,192,16877,1,2,0:0:0:0:
448,192,16877,1,0,0:0:0:0:
192,192,16994,1,0,0:0:0:0:
320,192,17111,1,0,0:0:0:0:
64,192,17111,1,0,0:0:0:0:
64,192,17228,1,0,0:0:0:0:
320,192,17346,1,2,0:0:0:0:
448,192,17346,1,0,0:0:0:0:
192,192,17463,1,0,0:0:0:0:
192,192,17580,1,0,0:0:0:0:
320,192,17697,128,0,17814:0:0:0:0:
64,192,17814,1,2,0:0:0:0:
192,192,17814,1,0,0:0:0:0:
448,192,17931,1,0,0:0:0:0:
192,192,18049,1,0,0:0:0:0:
448,192,18049,1,0,0:0:0:0:
320,192,18166,1,0,0:0:0:0:
64,192,18283,1,2,0:0:0:0:
192,192,18283,1,0,0:0:0:0:
64,192,18400,128,0,18517:0:0:0:0:
192,192,18400,128,0,18517:0:0:0:0:
448,192,18517,1,0,0:0:0:0:
64,192,18635,128,0,18752:0:0:0:0:
192,192,18635,128,0,18752:0:0:0:0:
320,192,18752,1,2,0:0:0:0:
448,192,18752,1,0,0:0:0:0:
448,192,18869,1,0,0:0:0:0:
64,192,18986,128,0,19103:0:0:0:0:
192,192,18986,128,0,19103:0:0:0:0:
448,192,19103,1,0,0:0:0:0:
64,192,19221,1,2,0:0:0:0:
320,192,19221,1,0,0:0:0:0:
192,192,19338,1,0,0:0:0:0:
192,192,19455,1,0,0:0:0:0:
448,192,19455,1,0,0:0:0:0:
320,192,19572,128,0,19689:0:0:0:0:
192,192,19689,1,2,0:0:0:0:
64,192,19689,1,0,0:0:0:0:
448,192,19806,1,0,0:0:0:0:
448,192,19924,1,0,0:0:0:0:
64,192,19924,1,0,0:0:0:0:
192,192,20041,1,0,0:0:0:0:
448,192,20158,1,2,0:0:0:0:
320,192,20158,1,0,0:0:0:0:
64,192,20275,1,0,0:0:0:0:
64,192,20392,1,0,0:0:0:0:
320,192,20392,1,0,0:0:0:0:
448,192,20510,128,0,20627:0:0:0:0:
192,192,20627,1,2,0:0:0:0:
64,192,20627,1,0,0:0:0:0:
320,192,20744,1,0,0:0:0:0:
448,192,20861,1,0,0:0:0:0:
64,192,20861,1,0,0:0:0:0:
448,192,20978,1,0,0:0:0:0:
192,192,21096,1,2,0:0:0:0:
64,192,21096,1,0,0:0:0:0:
320,192,21213,1,0,0:0:0:0:
320,192,21330,1,0,0:0:0:0:
64,192,21330,1,0,0:0:0:0:
192,192,21447,128,0,21564:0:0:0:0:
448,192,21564,1,2,0:0:0:0:
320,192,21564,1,0,0:0:0:0:
64,192,21681,1,0,0:0:0:0:
320,192,21799,1,0,0:0:0:0:
64,192,21799,1,0,0:0:0:0:
192,192,21916,1,0,0:0:0:0:
320,192,22033,1,2,0:0:0:0:
448,192,22033,1,0,0:0:0:0:
320,192,22150,128,0,22267:0:0:0:0:
448,192,22150,128,0,22267:0:0:0:0:
64,192,22267,1,0,0:0:0:0:
320,192,22385,128,0,22502:0:0:0:0:
448,192,22385,128,0,22502:0:0:0:0:
64,192,22502,1,2,0:0:0:0:
192,192,22502,1,0,0:0:0:0:
64,192,22619,1,0,0:0:0:0:
320,192,22736,128,0,22853:0:0:0:0:
448,192,22736,128,0,22853:0:0:0:0:
64,192,22853,1,0,0:0:0:0:
192,192,22971,1,2,0:0:0:0:
448,192,22971,1,0,0:0:0:0:
320,192,23088,1,0,0:0:0:0:
320,192,23205,1,0,0:0:0:0:
64,192,23205,1,0,0:0:0:0:
192,192,23322,128,0,23439:0:0:0:0:
320,192,23439,1,2,0:0:0:0:
448,192,23439,1,0,0:0:0:0:
64,192,23556,1,0,0:0:0:0:
64,192,23674,1,0,0:0:0:0:
448,192,23674,1,0,0:0:0:0:
320,192,23791,1,0,0:0:0:0:
64,192,23908,1,2,0:0:0:0:
192,192,23908,1,0,0:0:0:0:
448,192,24025,1,0,0:0:0:0:
448,192,24142,1,0,0:0:0:0:
192,192,24142,1,0,0:0:0:0:
64,192,24260,128,0,24377:0:0:0:0:
320,192,24377,1,2,0:0:0:0:
448,192,24377,1,0,0:0:0:0:
192,192,24494,1,0,0:0:0:0:
64,192,24611,1,0,0:0:0:0:
448,192,24611,1,0,0:0:0:0:
64,192,24728,1,0,0:0:0:0:
320,192,24846,1,2,0:0:0:0:
448,192,24846,1,0,0:0:0:0:
192,192,24963,1,0,0:0:0:0:
192,192,25080,1,0,0:0:0:0:
448,192,25080,1,0,0:0:0:0:
320,192,25197,128,0,25314:0:0:0:0:
64,192,25314,1,2,0:0:0:0:
192,192,25314,1,0,0:0:0:0:
448,192,25431,1,0,0:0:0:0:
192,192,25549,1,0,0:0:0:0:
448,192,25549,1,0,0:0:0:0:
320,192,25666,1,0,0:0:0:0:
64,192,25783,1,2,0:0:0:0:
192,192,25783,1,0,0:0:0:0:
64,192,25900,128,0,26017:0:0:0:0:
192,192,25900,128,0,26017:0:0:0:0:
448,192,26017,1,0,0:0:0:0:
64,192,26135,128,0,26252:0:0:0:0:
192,192,26135,128,0,26252:0:0:0:0:
320,192,26252,1,2,0:0:0:0:
448,192,26252,1,0,0:0:0:0:
448,192,26369,1,0,0:0:0:0:
64,192,26486,128,0,26603:0:0:0:0:
192,192,26486,128,0,26603:0:0:0:0:
448,192,26603,1,0,0:0:0:0:
64,192,26721,1,2,0:0:0:0:
320,192,26721,1,0,0:0:0:0:
192,192,26838,1,0,0:0:0:0:
192,192,26955,1,0,0:0:0:0:
448,192,26955,1,0,0:0:0:0:
320,192,27072,128,0,27189:0:0:0:0:
192,192,27189,1,2,0:0:0:0:
64,192,27189,1,0,0:0:0:0:
448,192,27306,1,0,0:0:0:0:
448,192,27424,1,0,0:0:0:0:
64,192,27424,1,0,0:0:0:0:
192,192,27541,1,0,0:0:0:0:
448,192,27658,1,2,0:0:0:0:
320,192,27658,1,0,0:0:0:0:
64,192,27775,1,0,0:0:0:0:
64,192,27892,1,0,0:0:0:0:
320,192,27892,1,0,0:0:0:0:
448,192,28010,128,0,28127:0:0:0:0:
192,192,28127,1,2,0:0:0:0:
64,192,28127,1,0,0:0:0:0:
320,192,28244,1,0,0:0:0:0:
448,192,28361,1,0,0:0:0:0:
64,192,28361,1,0,0:0:0:0:
448,192,28478,1,0,0:0:0:0:
192,192,28596,1,2,0:0:0:0:
64,192,28596,1,0,0:0:0:0:
320,192,28713,1,0,0:0:0:0:
320,192,28830,1,0,0:0:0:0:
64,192,28830,1,0,0:0:0:0:
192,192,28947,128,0,29064:0:0:0:0:
448,192,29064,1,2,0:0:0:0:
320,192,29064,1,0,0:0:0:0:
64,192,29181,1,0,0:0:0:0:
448,192,29299,1,0,0:0:0:0:
64,192,29299,1,0,0:0:0:0:
320,192,29416,1,0,0:0:0:0:
64,192,29533,1,2,0:0:0:0:
192,192,29533,1,4,0:0:0:0:
448,192,29533,1,0,0:0:0:0:
64,192,29767,1,0,0:0:0:50:S.wav
320,192,29767,1,0,0:0:0:0:
448,192,29767,1,0,0:0:0:0:
64,192,30002,1,0,0:0:0:50:S1.wav
192,192,30002,1,0,0:0:0:0:
320,192,30119,1,0,0:0:0:50:S2.wav
448,192,30119,1,0,0:0:0:0:
64,192,30353,1,0,0:0:0:50:S1.wav
192,192,30353,1,0,0:0:0:0:
64,192,30471,1,6,0:0:0:0:
320,192,30471,1,0,0:0:0:70:E5S.wav
448,192,30471,128,0,32346:0:0:0:70:C#4S_Db4S_s.wav
64,192,30939,1,0,0:0:0:0:
192,192,31096,1,0,0:0:0:0:
320,192,31252,1,0,0:0:0:0:
64,192,31408,1,2,0:0:0:0:
192,192,31408,1,0,0:0:0:0:
64,192,31877,1,0,0:0:0:0:
192,192,32033,1,0,0:0:0:0:
320,192,32189,1,0,0:0:0:0:
64,192,32346,128,2,34221:0:0:0:0:
192,192,32346,1,0,0:0:0:70:E4S_s.wav
448,192,32814,1,0,0:0:0:0:
320,192,32971,1,0,0:0:0:0:
192,192,33127,1,0,0:0:0:0:
320,192,33283,1,2,0:0:0:0:
448,192,33283,1,0,0:0:0:0:
448,192,33752,1,0,0:0:0:0:
320,192,33908,1,0,0:0:0:0:
192,192,34064,1,0,0:0:0:0:
192,192,34221,1,6,0:0:0:0:
320,192,34221,128,0,36096:0:0:0:70:C4S_s.wav
448,192,34221,1,0,0:0:0:70:D#5S_Eb5S.wav
64,192,34689,1,0,0:0:0:0:
192,192,34846,1,0,0:0:0:0:
448,192,35002,1,0,0:0:0:0:
64,192,35158,1,2,0:0:0:0:
192,192,35158,1,0,0:0:0:0:
64,192,35627,1,0,0:0:0:0:
192,192,35783,1,0,0:0:0:0:
448,192,35939,1,0,0:0:0:0:
64,192,36096,1,2,0:0:0:0:
192,192,36096,128,0,37971:0:0:0:70:D#5S_Eb5S.wav
448,192,36564,1,0,0:0:0:0:
320,192,36721,1,0,0:0:0:0:
64,192,36877,1,0,0:0:0:0:
320,192,37033,1,2,0:0:0:0:
448,192,37033,1,0,0:0:0:0:
448,192,37502,1,0,0:0:0:0:
320,192,37658,1,0,0:0:0:0:
64,192,37814,1,0,0:0:0:0:
64,192,37971,1,6,0:0:0:0:
320,192,37971,1,0,0:0:0:70:E5S.wav
448,192,37971,128,0,39846:0:0:0:70:G5S.wav
64,192,38439,1,0,0:0:0:0:
192,192,38596,1,0,0:0:0:0:
320,192,38752,1,0,0:0:0:0:
64,192,38908,1,2,0:0:0:0:
192,192,38908,1,0,0:0:0:0:
320,192,39377,1,0,0:0:0:0:
64,192,39533,1,0,0:0:0:0:
192,192,39689,1,0,0:0:0:0:
64,192,39846,1,2,0:0:0:0:
320,192,39846,128,0,41721:0:0:0:70:G5S.wav
64,192,40314,1,0,0:0:0:0:
192,192,40471,1,0,0:0:0:0:
448,192,40627,1,0,0:0:0:0:
64,192,40783,1,2,0:0:0:0:
192,192,40783,1,0,0:0:0:0:
448,192,41252,1,0,0:0:0:0:
192,192,41408,1,0,0:0:0:0:
64,192,41564,1,0,0:0:0:0:
64,192,41721,1,6,0:0:0:0:
192,192,41721,128,0,43596:0:0:0:70:F#5S_Gb5S.wav
448,192,41721,1,0,0:0:0:70:D#5S_Eb5S.wav
448,192,42189,1,0,0:0:0:0:
320,192,42346,1,0,0:0:0:0:
64,192,42502,1,0,0:0:0:0:
320,192,42658,1,2,0:0:0:0:
448,192,42658,1,0,0:0:0:0:
64,192,43127,1,0,0:0:0:0:
448,192,43283,1,0,0:0:0:0:
320,192,43439,1,0,0:0:0:0:
64,192,43596,128,2,44533:0:0:0:0:
448,192,43596,1,0,0:0:0:70:F#5S_Gb5S.wav
448,192,44064,1,0,0:0:0:0:
320,192,44221,1,0,0:0:0:0:
192,192,44377,1,0,0:0:0:0:
192,192,44533,1,0,0:0:0:50:S.wav
320,192,44533,1,0,0:0:0:0:
448,192,44533,1,0,0:0:0:0:
64,192,44767,1,0,0:0:0:50:S.wav
320,192,44767,1,0,0:0:0:0:
448,192,44767,1,0,0:0:0:0:
192,192,45002,1,0,0:0:0:50:S1.wav
64,192,45002,1,0,0:0:0:0:
448,192,45119,1,0,0:0:0:50:S2.wav
320,192,45119,1,0,0:0:0:0:
192,192,45353,1,0,0:0:0:50:S1.wav
64,192,45353,1,0,0:0:0:0:
448,192,45471,128,2,45939:0:0:0:0:
320,192,45471,1,4,0:0:0:0:
64,192,45471,128,0,45588:0:0:0:70:C#6S_Db6S_s.wav
192,192,45588,128,0,45705:0:0:0:0:
320,192,45705,128,0,45822:0:0:0:0:
64,192,45822,128,0,45939:0:0:0:0:
320,192,45939,1,2,0:0:0:0:
192,192,45939,128,8,46174:0:0:0:0:
448,192,46056,128,0,46174:0:0:0:0:
64,192,46174,128,0,46408:0:0:0:0:
320,192,46291,128,0,46408:0:0:0:0:
448,192,46408,128,2,46642:0:0:0:0:
192,192,46408,1,0,0:0:0:0:
192,192,46525,128,0,46642:0:0:0:0:
64,192,46642,128,0,46877:0:0:0:0:
320,192,46760,128,0,46877:0:0:0:0:
448,192,46877,1,2,0:0:0:0:
192,192,46877,128,0,47111:0:0:0:0:
448,192,46994,128,0,47111:0:0:0:0:
320,192,47111,128,0,47346:0:0:0:0:
192,192,47228,128,0,47346:0:0:0:0:
448,192,47346,128,2,47463:0:0:0:0:
64,192,47346,128,0,47814:0:0:0:70:E6S_s.wav
320,192,47463,128,0,47580:0:0:0:0:
192,192,47580,128,0,47697:0:0:0:0:
448,192,47697,128,0,47814:0:0:0:0:
320,192,47814,128,2,48049:0:0:0:0:
192,192,47814,1,8,0:0:0:0:
64,192,47931,128,0,48049:0:0:0:0:
448,192,48049,128,0,48283:0:0:0:0:
192,192,48166,128,0,48283:0:0:0:0:
320,192,48283,1,2,0:0:0:0:
64,192,48283,128,0,48517:0:0:0:0:
320,192,48400,128,0,48517:0:0:0:0:
448,192,48517,128,0,48752:0:0:0:0:
192,192,48635,128,0,48752:0:0:0:0:
320,192,48752,128,2,48986:0:0:0:0:
64,192,48752,1,0,0:0:0:0:
64,192,48869,128,0,48986:0:0:0:0:
192,192,48986,128,0,49221:0:0:0:0:
320,192,49103,128,0,49221:0:0:0:0:
448,192,49221,128,2,49689:0:0:0:0:
64,192,49221,128,0,49338:0:0:0:70:C6S_s.wav
192,192,49338,128,0,49455:0:0:0:0:
320,192,49455,128,0,49572:0:0:0:0:
64,192,49572,128,0,49689:0:0:0:0:
320,192,49689,1,2,0:0:0:0:
192,192,49689,128,8,49924:0:0:0:0:
448,192,49806,128,0,49924:0:0:0:0:
64,192,49924,128,0,50158:0:0:0:0:
320,192,50041,128,0,50158:0:0:0:0:
448,192,50158,128,2,50392:0:0:0:0:
192,192,50158,1,0,0:0:0:0:
192,192,50275,128,0,50392:0:0:0:0:
64,192,50392,128,0,50627:0:0:0:0:
320,192,50510,128,0,50627:0:0:0:0:
448,192,50627,1,2,0:0:0:0:
192,192,50627,128,0,50861:0:0:0:0:
448,192,50744,128,0,50861:0:0:0:0:
320,192,50861,128,0,51096:0:0:0:0:
192,192,50978,128,0,51096:0:0:0:0:
448,192,51096,128,2,51213:0:0:0:0:
64,192,51096,128,0,51564:0:0:0:70:D#6S_Eb6S_s.wav
320,192,51213,128,0,51330:0:0:0:0:
192,192,51330,128,0,51447:0:0:0:0:
448,192,51447,128,0,51564:0:0:0:0:
320,192,51564,128,2,51799:0:0:0:0:
192,192,51564,1,8,0:0:0:0:
64,192,51681,128,0,51799:0:0:0:0:
448,192,51799,128,0,52033:0:0:0:0:
192,192,51916,128,0,52033:0:0:0:0:
320,192,52033,1,2,0:0:0:0:
64,192,52033,128,0,52267:0:0:0:0:
320,192,52150,128,0,52267:0:0:0:0:
448,192,52267,128,0,52502:0:0:0:0:
192,192,52385,128,0,52502:0:0:0:0:
320,192,52502,128,2,52736:0:0:0:0:
64,192,52502,1,0,0:0:0:0:
64,192,52619,128,0,52736:0:0:0:0:
448,192,52736,128,0,52853:0:0:0:0:
192,192,52853,128,0,52971:0:0:0:0:
448,192,52971,128,2,53439:0:0:0:0:
320,192,52971,1,4,0:0:0:0:
64,192,52971,128,0,53088:0:0:0:70:E6S_s.wav
192,192,53088,128,0,53205:0:0:0:0:
320,192,53205,128,0,53322:0:0:0:0:
64,192,53322,128,0,53439:0:0:0:0:
320,192,53439,1,2,0:0:0:0:
192,192,53439,128,8,53674:0:0:0:0:
448,192,53556,128,0,53674:0:0:0:0:
64,192,53674,128,0,53908:0:0:0:0:
320,192,53791,128,0,53908:0:0:0:0:
448,192,53908,128,2,54142:0:0:0:0:
192,192,53908,1,0,0:0:0:0:
192,192,54025,128,0,54142:0:0:0:0:
64,192,54142,128,0,54377:0:0:0:0:
320,192,54260,128,0,54377:0:0:0:0:
448,192,54377,1,2,0:0:0:0:
192,192,54377,128,0,54611:0:0:0:0:
448,192,54494,128,0,54611:0:0:0:0:
320,192,54611,128,0,54846:0:0:0:0:
192,192,54728,128,0,54846:0:0:0:0:
448,192,54846,128,2,54963:0:0:0:0:
64,192,54846,128,0,55314:0:0:0:70:G6S_s.wav
320,192,54963,128,0,55080:0:0:0:0:
192,192,55080,128,0,55197:0:0:0:0:
448,192,55197,128,0,55314:0:0:0:0:
320,192,55314,128,2,55549:0:0:0:0:
192,192,55314,1,8,0:0:0:0:
64,192,55431,128,0,55549:0:0:0:0:
448,192,55549,128,0,55783:0:0:0:0:
192,192,55666,128,0,55783:0:0:0:0:
320,192,55783,1,2,0:0:0:0:
64,192,55783,128,0,56017:0:0:0:0:
320,192,55900,128,0,56017:0:0:0:0:
448,192,56017,128,0,56252:0:0:0:0:
192,192,56135,128,0,56252:0:0:0:0:
320,192,56252,128,2,56486:0:0:0:0:
64,192,56252,1,0,0:0:0:0:
64,192,56369,128,0,56486:0:0:0:0:
192,192,56486,128,0,56721:0:0:0:0:
320,192,56603,128,0,56721:0:0:0:0:
448,192,56721,128,2,57189:0:0:0:0:
64,192,56721,128,0,56838:0:0:0:70:D#6S_Eb6S_s.wav
192,192,56838,128,0,56955:0:0:0:0:
320,192,56955,128,0,57072:0:0:0:0:
64,192,57072,128,0,57189:0:0:0:0:
320,192,57189,1,8,0:0:0:0:
192,192,57189,128,2,57424:0:0:0:0:
448,192,57306,128,0,57424:0:0:0:0:
64,192,57424,128,0,57658:0:0:0:0:
320,192,57541,128,0,57658:0:0:0:0:
448,192,57658,128,2,57892:0:0:0:0:
192,192,57658,1,0,0:0:0:0:
192,192,57775,128,0,57892:0:0:0:0:
64,192,57892,128,0,58127:0:0:0:0:
320,192,58010,128,0,58127:0:0:0:0:
448,192,58127,1,2,0:0:0:0:
192,192,58127,128,0,58361:0:0:0:0:
448,192,58244,128,0,58361:0:0:0:0:
320,192,58361,128,0,58596:0:0:0:0:
192,192,58478,128,0,58596:0:0:0:0:
448,192,58596,128,2,58713:0:0:0:0:
64,192,58596,128,0,59064:0:0:0:70:F#6S_Gb6S_s.wav
320,192,58713,128,0,58830:0:0:0:0:
192,192,58830,128,0,58947:0:0:0:0:
448,192,58947,128,0,59064:0:0:0:0:
320,192,59064,128,8,59299:0:0:0:0:
192,192,59064,1,2,0:0:0:0:
64,192,59181,128,0,59299:0:0:0:0:
448,192,59299,128,0,59533:0:0:0:0:
192,192,59416,128,0,59533:0:0:0:0:
320,192,59533,1,2,0:0:0:0:
64,192,59533,128,0,59767:0:0:0:0:
320,192,59650,128,0,59767:0:0:0:0:
448,192,59767,128,0,59885:0:0:0:0:
192,192,59885,128,0,60002:0:0:0:0:
320,192,60002,128,0,60119:0:0:0:0:
64,192,60002,128,0,60119:0:0:0:0:
448,192,60119,128,0,60236:0:0:0:0:
192,192,60236,128,0,60353:0:0:0:0:
320,192,60353,128,0,60471:0:0:0:0:
448,192,60471,128,2,60822:0:0:0:0:
192,192,60471,1,4,0:0:0:0:
64,192,60471,128,0,60705:0:0:0:70:C#6S_Db6S_s.wav
320,192,60588,128,0,60705:0:0:0:0:
192,192,60705,128,0,60939:0:0:0:0:
64,192,60822,128,0,60939:0:0:0:0:
448,192,60939,1,2,0:0:0:0:
320,192,60939,128,8,61174:0:0:0:0:
192,192,61056,128,0,61174:0:0:0:0:
448,192,61174,128,0,61408:0:0:0:0:
64,192,61291,128,0,61408:0:0:0:0:
320,192,61408,128,2,61642:0:0:0:0:
192,192,61408,1,0,0:0:0:0:
448,192,61525,128,0,61760:0:0:0:0:
192,192,61642,128,0,61877:0:0:0:0:
320,192,61760,128,0,61994:0:0:0:0:
448,192,61877,1,2,0:0:0:0:
64,192,61877,128,0,62228:0:0:0:0:
192,192,61994,128,0,62228:0:0:0:0:
320,192,62111,128,0,62346:0:0:0:0:
448,192,62228,128,0,62346:0:0:0:0:
64,192,62346,128,0,62697:0:0:0:70:E6S_s.wav
192,192,62346,128,2,62580:0:0:0:0:
448,192,62463,128,0,62580:0:0:0:0:
320,192,62580,128,0,62814:0:0:0:0:
448,192,62697,128,0,62814:0:0:0:0:
192,192,62814,128,2,63049:0:0:0:0:
64,192,62814,1,8,0:0:0:0:
320,192,62931,128,0,63049:0:0:0:0:
64,192,63049,128,0,63283:0:0:0:0:
192,192,63166,128,0,63283:0:0:0:0:
320,192,63283,1,2,0:0:0:0:
448,192,63283,128,0,63517:0:0:0:0:
320,192,63400,128,0,63635:0:0:0:0:
192,192,63517,128,0,63752:0:0:0:0:
64,192,63635,128,0,63752:0:0:0:0:
448,192,63752,128,0,63869:0:0:0:0:
320,192,63752,128,0,63869:0:0:0:0:
64,192,63869,128,0,63986:0:0:0:0:
320,192,63986,128,0,64103:0:0:0:0:
192,192,64103,128,0,64221:0:0:0:0:
64,192,64221,128,0,64572:0:0:0:70:C6S_s.wav
448,192,64221,128,2,64455:0:0:0:0:
192,192,64338,128,0,64455:0:0:0:0:
320,192,64455,128,0,64689:0:0:0:0:
448,192,64572,128,0,64689:0:0:0:0:
192,192,64689,128,2,64924:0:0:0:0:
64,192,64689,1,8,0:0:0:0:
320,192,64806,128,0,64924:0:0:0:0:
64,192,64924,128,0,65158:0:0:0:0:
448,192,65041,128,0,65158:0:0:0:0:
320,192,65158,1,2,0:0:0:0:
192,192,65158,128,0,65392:0:0:0:0:
64,192,65275,128,0,65510:0:0:0:0:
320,192,65392,128,0,65627:0:0:0:0:
192,192,65510,128,0,65744:0:0:0:0:
448,192,65627,128,2,65978:0:0:0:0:
64,192,65627,1,0,0:0:0:0:
320,192,65744,128,0,65978:0:0:0:0:
192,192,65861,128,0,66096:0:0:0:0:
64,192,65978,128,0,66096:0:0:0:0:
448,192,66096,128,2,66447:0:0:0:0:
320,192,66096,128,0,66330:0:0:0:70:D#6S_Eb6S_s.wav
64,192,66213,128,0,66330:0:0:0:0:
192,192,66330,128,0,66564:0:0:0:0:
64,192,66447,128,0,66564:0:0:0:0:
448,192,66564,1,2,0:0:0:0:
320,192,66564,128,8,66799:0:0:0:0:
192,192,66681,128,0,66799:0:0:0:0:
448,192,66799,128,0,67033:0:0:0:0:
320,192,66916,128,0,67033:0:0:0:0:
64,192,67033,128,2,67267:0:0:0:0:
192,192,67033,1,0,0:0:0:0:
192,192,67150,128,0,67385:0:0:0:0:
320,192,67267,128,0,67502:0:0:0:0:
448,192,67385,128,0,67502:0:0:0:0:
64,192,67502,128,0,67619:0:0:0:0:
192,192,67502,128,0,67619:0:0:0:0:
448,192,67619,128,0,67736:0:0:0:0:
192,192,67736,128,0,67853:0:0:0:0:
320,192,67853,128,0,67971:0:0:0:0:
448,192,67971,128,2,68322:0:0:0:0:
192,192,67971,1,4,0:0:0:0:
64,192,67971,128,0,68205:0:0:0:70:E6S_s.wav
320,192,68088,128,0,68205:0:0:0:0:
192,192,68205,128,0,68439:0:0:0:0:
64,192,68322,128,0,68439:0:0:0:0:
448,192,68439,1,2,0:0:0:0:
320,192,68439,128,8,68674:0:0:0:0:
192,192,68556,128,0,68674:0:0:0:0:
448,192,68674,128,0,68908:0:0:0:0:
64,192,68791,128,0,68908:0:0:0:0:
320,192,68908,128,2,69142:0:0:0:0:
192,192,68908,1,0,0:0:0:0:
448,192,69025,128,0,69260:0:0:0:0:
192,192,69142,128,0,69377:0:0:0:0:
320,192,69260,128,0,69494:0:0:0:0:
448,192,69377,1,2,0:0:0:0:
64,192,69377,128,0,69728:0:0:0:0:
192,192,69494,128,0,69728:0:0:0:0:
320,192,69611,128,0,69846:0:0:0:0:
448,192,69728,128,0,69846:0:0:0:0:
64,192,69846,128,0,70197:0:0:0:70:G6S_s.wav
192,192,69846,128,2,70080:0:0:0:0:
448,192,69963,128,0,70080:0:0:0:0:
320,192,70080,128,0,70314:0:0:0:0:
448,192,70197,128,0,70314:0:0:0:0:
192,192,70314,128,2,70549:0:0:0:0:
64,192,70314,1,8,0:0:0:0:
320,192,70431,128,0,70549:0:0:0:0:
64,192,70549,128,0,70783:0:0:0:0:
192,192,70666,128,0,70783:0:0:0:0:
320,192,70783,1,2,0:0:0:0:
448,192,70783,128,0,71017:0:0:0:0:
320,192,70900,128,0,71135:0:0:0:0:
192,192,71017,128,0,71252:0:0:0:0:
64,192,71135,128,0,71252:0:0:0:0:
448,192,71252,128,0,71369:0:0:0:0:
320,192,71252,128,0,71369:0:0:0:0:
64,192,71369,128,0,71486:0:0:0:0:
320,192,71486,128,0,71603:0:0:0:0:
192,192,71603,128,0,71721:0:0:0:0:
64,192,71721,128,0,72072:0:0:0:70:D#6S_Eb6S_s.wav
448,192,71721,128,2,71955:0:0:0:0:
192,192,71838,128,0,71955:0:0:0:0:
320,192,71955,128,0,72189:0:0:0:0:
448,192,72072,128,0,72189:0:0:0:0:
192,192,72189,128,8,72424:0:0:0:0:
64,192,72189,1,2,0:0:0:0:
320,192,72306,128,0,72424:0:0:0:0:
64,192,72424,128,0,72658:0:0:0:0:
448,192,72541,128,0,72658:0:0:0:0:
192,192,72658,128,0,72892:0:0:0:0:
320,192,72658,1,2,0:0:0:0:
64,192,72775,128,0,73010:0:0:0:0:
320,192,72892,128,0,73127:0:0:0:0:
192,192,73010,128,0,73244:0:0:0:0:
448,192,73127,128,2,73478:0:0:0:0:
64,192,73127,1,0,0:0:0:0:
320,192,73244,128,0,73478:0:0:0:0:
192,192,73361,128,0,73596:0:0:0:0:
64,192,73478,128,0,73596:0:0:0:0:
448,192,73596,128,2,73830:0:0:0:0:
320,192,73596,128,0,73713:0:0:0:70:F#6S_Gb6S_s.wav
64,192,73713,128,0,73830:0:0:0:0:
192,192,73830,128,2,74064:0:0:0:0:
320,192,73830,128,0,73947:0:0:0:0:
448,192,73947,128,0,74064:0:0:0:0:
320,192,74064,128,2,74299:0:0:0:0:
64,192,74064,128,8,74181:0:0:0:0:
192,192,74181,128,0,74299:0:0:0:0:
64,192,74299,128,2,74533:0:0:0:0:
448,192,74299,128,0,74416:0:0:0:0:
320,192,74416,128,0,74533:0:0:0:0:
448,192,74533,128,2,74767:0:0:0:0:
192,192,74533,128,0,74650:0:0:0:0:
64,192,74650,128,0,74767:0:0:0:0:
320,192,74767,128,8,75002:0:0:0:0:
192,192,74767,128,2,74885:0:0:0:0:
448,192,74885,128,0,75002:0:0:0:0:
192,192,75002,1,2,0:0:0:0:
64,192,75002,1,0,0:0:0:0:
448,192,75080,1,2,0:0:0:0:
320,192,75080,1,0,0:0:0:0:
64,192,75158,1,0,0:0:0:0:
192,192,75158,1,2,0:0:0:0:
192,192,75236,1,2,0:0:0:0:
64,192,75236,1,0,0:0:0:0:
448,192,75314,1,2,0:0:0:0:
320,192,75314,1,0,0:0:0:0:
64,192,75392,1,0,0:0:0:0:
192,192,75392,1,2,0:0:0:0:
64,192,75471,128,2,75822:0:0:0:0:
192,192,75471,128,4,75822:0:0:0:0:
320,192,75471,1,0,0:0:0:0:
448,192,75471,1,0,0:0:0:0:
64,192,75939,128,0,76291:0:0:0:70:C#5S_Db5S_s.wav
320,192,75939,128,0,76291:0:0:0:70:C#6S_Db6S_s.wav
448,192,75939,128,0,76291:0:0:0:70:G#5S_Ab5S_s.wav
192,192,76408,128,0,76760:0:0:0:0:
320,192,76408,128,2,76760:0:0:0:0:
192,192,76877,128,0,77228:0:0:0:70:F#5S_Gb5S_s.wav
64,192,76877,128,0,77228:0:0:0:70:C6S_s.wav
448,192,76877,128,0,77228:0:0:0:70:C5S_s.wav
192,192,77346,1,4,0:0:0:0:
64,192,77346,1,2,0:0:0:0:
320,192,77346,128,0,77697:0:0:0:0:
448,192,77346,128,0,77697:0:0:0:0:
64,192,77814,128,0,78166:0:0:0:70:C#6S_Db6S_s.wav
192,192,77814,128,0,78166:0:0:0:70:G#5S_Ab5S_s.wav
320,192,77814,128,0,78166:0:0:0:70:C#5S_Db5S_s.wav
64,192,78283,128,2,78635:0:0:0:0:
448,192,78283,128,0,78635:0:0:0:0:
192,192,78752,128,0,79103:0:0:0:70:A5S_s.wav
320,192,78752,128,0,79103:0:0:0:70:D#6S_Eb6S_s.wav
448,192,78752,128,0,79103:0:0:0:70:D#5S_Eb5S_s.wav
320,192,79221,1,0,0:0:0:0:
448,192,79221,1,0,0:0:0:0:
192,192,79221,128,4,79572:0:0:0:0:
64,192,79221,128,2,79572:0:0:0:0:
64,192,79689,128,0,80041:0:0:0:70:E6S_s.wav
320,192,79689,128,0,80041:0:0:0:70:A5S_s.wav
448,192,79689,128,0,80041:0:0:0:70:E5S_s.wav
320,192,80158,128,0,80510:0:0:0:0:
192,192,80158,128,2,80510:0:0:0:0:
64,192,80627,128,0,80978:0:0:0:70:A5S_s.wav
192,192,80627,128,0,80978:0:0:0:70:D#6S_Eb6S_s.wav
448,192,80627,128,0,80978:0:0:0:70:D#5S_Eb5S_s.wav
192,192,81096,1,4,0:0:0:0:
64,192,81096,1,2,0:0:0:0:
320,192,81096,128,0,81447:0:0:0:0:
448,192,81096,128,0,81447:0:0:0:0:
64,192,81564,128,0,81916:0:0:0:70:A5S_s.wav
192,192,81564,128,0,81916:0:0:0:70:E6S_s.wav
320,192,81564,128,0,81916:0:0:0:70:E5S_s.wav
64,192,82033,128,2,82385:0:0:0:0:
448,192,82033,128,0,82385:0:0:0:0:
192,192,82502,128,0,82853:0:0:0:70:B5S_s.wav
320,192,82502,128,0,82853:0:0:0:70:F#6S_Gb6S_s.wav
448,192,82502,128,0,82853:0:0:0:70:F#5S_Gb5S_s.wav
64,192,82971,1,2,0:0:0:0:
192,192,82971,1,0,0:0:0:70:G6S.wav
448,192,82971,1,0,0:0:0:70:D6S.wav
320,192,83127,1,0,0:0:0:30:S1.wav
448,192,83127,1,0,0:0:0:0:
448,192,83283,1,0,0:0:0:0:
320,192,83283,1,0,0:0:0:30:S1.wav
64,192,83439,1,0,0:0:0:40:S1.wav
320,192,83439,1,0,0:0:0:0:
448,192,83596,1,0,0:0:0:0:
192,192,83596,1,0,0:0:0:40:S1.wav
192,192,83752,1,0,0:0:0:50:S1.wav
448,192,83752,1,0,0:0:0:0:
64,192,83908,1,0,0:0:0:50:S3.wav
320,192,83908,1,0,0:0:0:70:A#6S_Bb6S.wav
448,192,83908,1,0,0:0:0:0:
64,192,84064,1,0,0:0:0:50:S3.wav
192,192,84064,1,0,0:0:0:0:
64,192,84221,1,0,0:0:0:50:S3.wav
192,192,84221,1,0,0:0:0:0:
192,192,84377,1,0,0:0:0:50:S3.wav
448,192,84377,1,0,0:0:0:0:
64,192,84533,1,0,0:0:0:50:S3.wav
320,192,84533,1,0,0:0:0:0:
320,192,84689,1,0,0:0:0:50:S3.wav
64,192,84689,1,0,0:0:0:0:
64,192,84846,1,6,0:0:0:0:
192,192,84846,1,0,0:0:0:70:F#6S_Gb6S_s.wav
448,192,84846,1,0,0:0:0:70:C#7S_Db7S_s.wav
64,192,85197,1,6,0:0:0:0:
448,192,85197,1,0,0:0:0:70:C#6S_Db6S_s.wav
192,192,85197,1,0,0:0:0:70:C#7S_Db7S_s.wav
64,192,85549,1,6,0:0:0:0:
192,192,85549,1,0,0:0:0:70:C#6S_Db6S_s.wav
448,192,85549,1,0,0:0:0:70:A6S_s.wav
64,192,85783,1,2,0:0:0:0:
192,192,85783,1,0,0:0:0:70:C#7S_Db7S_s.wav
448,192,85783,1,0,0:0:0:70:F#6S_Gb6S_s.wav
320,192,86017,1,0,0:0:0:50:S.wav
448,192,86017,1,0,0:0:0:0:
64,192,86252,1,0,0:0:0:50:S1.wav
192,192,86252,1,0,0:0:0:70:C5S_s.wav
448,192,86369,1,0,0:0:0:50:S2.wav
320,192,86369,1,0,0:0:0:0:
320,192,86603,1,0,0:0:0:50:S2.wav
448,192,86603,1,0,0:0:0:0:
64,192,86721,128,6,87189:0:0:0:0:
192,192,86721,1,0,0:0:0:70:C#6S_Db6S.wav
448,192,86721,1,0,0:0:0:70:C#6S_Db6S_s.wav
320,192,86838,1,0,0:0:0:0:
448,192,86955,1,0,0:0:0:0:
192,192,87072,1,0,0:0:0:0:
192,192,87189,1,2,0:0:0:0:
320,192,87189,1,8,0:0:0:0:
448,192,87189,1,0,0:0:0:0:
320,192,87424,1,0,0:0:0:0:
448,192,87541,1,0,0:0:0:0:
64,192,87658,1,2,0:0:0:0:
192,192,87658,1,0,0:0:0:0:
448,192,87775,1,0,0:0:0:0:
192,192,87892,1,0,0:0:0:0:
320,192,88010,1,0,0:0:0:0:
64,192,88127,1,2,0:0:0:0:
192,192,88127,1,8,0:0:0:0:
448,192,88127,1,0,0:0:0:0:
320,192,88244,1,0,0:0:0:0:
64,192,88361,1,0,0:0:0:0:
192,192,88478,1,0,0:0:0:0:
64,192,88596,1,2,0:0:0:0:
448,192,88596,128,0,89064:0:0:0:70:C#6S_Db6S_s.wav
320,192,88713,1,0,0:0:0:0:
192,192,88830,1,0,0:0:0:0:
64,192,88947,1,0,0:0:0:0:
64,192,89064,1,2,0:0:0:0:
192,192,89064,1,8,0:0:0:0:
320,192,89064,1,0,0:0:0:0:
64,192,89299,1,0,0:0:0:0:
192,192,89416,1,0,0:0:0:0:
320,192,89533,1,2,0:0:0:0:
448,192,89533,1,0,0:0:0:0:
64,192,89650,1,0,0:0:0:0:
320,192,89767,1,0,0:0:0:0:
192,192,89885,1,0,0:0:0:0:
64,192,90002,1,2,0:0:0:0:
320,192,90002,1,8,0:0:0:0:
448,192,90002,1,0,0:0:0:0:
192,192,90119,1,0,0:0:0:0:
448,192,90236,1,0,0:0:0:0:
320,192,90353,1,0,0:0:0:0:
64,192,90353,1,2,0:0:0:0:
64,192,90471,128,2,90939:0:0:0:0:
192,192,90471,1,0,0:0:0:70:C#6S_Db6S_s.wav
448,192,90588,1,0,0:0:0:0:
320,192,90705,1,0,0:0:0:0:
192,192,90822,1,0,0:0:0:0:
192,192,90939,1,2,0:0:0:0:
320,192,90939,1,8,0:0:0:0:
448,192,90939,1,0,0:0:0:0:
448,192,91174,1,0,0:0:0:0:
320,192,91291,1,0,0:0:0:0:
64,192,91408,1,2,0:0:0:0:
192,192,91408,1,0,0:0:0:0:
448,192,91525,1,0,0:0:0:0:
192,192,91642,1,0,0:0:0:0:
320,192,91760,1,0,0:0:0:0:
64,192,91877,1,2,0:0:0:0:
192,192,91877,1,8,0:0:0:0:
448,192,91877,1,0,0:0:0:0:
320,192,91994,1,0,0:0:0:0:
64,192,92111,1,0,0:0:0:0:
192,192,92228,1,0,0:0:0:0:
64,192,92346,1,2,0:0:0:0:
448,192,92346,128,0,92814:0:0:0:70:C#6S_Db6S_s.wav
320,192,92463,1,0,0:0:0:0:
192,192,92580,1,0,0:0:0:0:
64,192,92697,1,0,0:0:0:0:
64,192,92814,1,2,0:0:0:0:
192,192,92814,1,8,0:0:0:0:
320,192,92814,1,0,0:0:0:0:
320,192,93049,1,0,0:0:0:0:
64,192,93166,1,0,0:0:0:0:
448,192,93283,128,0,93342:0:0:0:70:C#6S_Db6S_s.wav
320,192,93283,128,2,93342:0:0:0:0:
192,192,93400,128,0,93459:0:0:0:0:
64,192,93400,128,0,93459:0:0:0:0:
320,192,93517,128,0,93576:0:0:0:0:
448,192,93517,128,0,93576:0:0:0:0:
192,192,93635,128,0,93693:0:0:0:0:
448,192,93635,128,0,93693:0:0:0:0:
448,192,93752,128,8,93810:0:0:0:0:
64,192,93752,128,2,93810:0:0:0:0:
192,192,93869,128,0,93928:0:0:0:0:
320,192,93869,128,0,93928:0:0:0:0:
64,192,93986,128,0,94045:0:0:0:0:
448,192,93986,128,0,94045:0:0:0:0:
64,192,94103,128,2,94162:0:0:0:0:
320,192,94103,128,0,94162:0:0:0:0:
64,192,94221,1,2,0:0:0:0:
192,192,94221,1,0,0:0:0:70:C#6S_Db6S_s.wav
448,192,94338,1,0,0:0:0:0:
64,192,94455,1,0,0:0:0:0:
192,192,94572,1,0,0:0:0:0:
64,192,94689,1,2,0:0:0:0:
320,192,94689,1,8,0:0:0:0:
448,192,94689,1,0,0:0:0:0:
192,192,94806,1,0,0:0:0:0:
448,192,94924,1,0,0:0:0:0:
320,192,95041,1,0,0:0:0:0:
64,192,95158,1,2,0:0:0:0:
192,192,95158,1,0,0:0:0:0:
448,192,95275,1,0,0:0:0:0:
64,192,95392,1,0,0:0:0:0:
192,192,95510,1,0,0:0:0:0:
64,192,95627,1,2,0:0:0:0:
320,192,95627,1,8,0:0:0:0:
448,192,95627,1,0,0:0:0:0:
192,192,95744,1,0,0:0:0:0:
448,192,95861,1,0,0:0:0:0:
320,192,95978,1,0,0:0:0:0:
64,192,96096,1,2,0:0:0:0:
192,192,96096,1,0,0:0:0:70:C#6S_Db6S_s.wav
448,192,96213,1,0,0:0:0:0:
64,192,96330,1,0,0:0:0:0:
320,192,96447,1,0,0:0:0:0:
64,192,96564,1,2,0:0:0:0:
192,192,96564,1,8,0:0:0:0:
448,192,96564,1,0,0:0:0:0:
320,192,96681,1,0,0:0:0:0:
192,192,96799,1,0,0:0:0:0:
64,192,96916,1,0,0:0:0:0:
320,192,97033,1,2,0:0:0:0:
448,192,97033,1,0,0:0:0:70:D#6S_Eb6S_s.wav
192,192,97150,1,0,0:0:0:0:
448,192,97267,1,0,0:0:0:0:
320,192,97385,1,0,0:0:0:0:
64,192,97502,1,2,0:0:0:0:
192,192,97502,1,8,0:0:0:0:
448,192,97502,1,0,0:0:0:0:
320,192,97619,1,0,0:0:0:0:
64,192,97736,1,2,0:0:0:0:
448,192,97736,1,0,0:0:0:0:
192,192,97853,1,0,0:0:0:0:
320,192,97971,1,2,0:0:0:0:
448,192,97971,1,0,0:0:0:70:G#6S_Ab6S.wav
64,192,98088,1,0,0:0:0:0:
320,192,98205,1,0,0:0:0:0:
192,192,98322,1,0,0:0:0:0:
64,192,98439,1,8,0:0:0:0:
320,192,98439,1,2,0:0:0:0:
448,192,98439,1,0,0:0:0:0:
192,192,98556,1,0,0:0:0:0:
448,192,98674,128,0,98732:0:0:0:0:
64,192,98674,128,0,98732:0:0:0:70:G#6S_Ab6S.wav
192,192,98791,128,0,98849:0:0:0:0:
320,192,98791,128,0,98849:0:0:0:0:
320,192,98908,128,2,98967:0:0:0:0:
448,192,98908,128,0,98967:0:0:0:0:
192,192,99025,128,0,99084:0:0:0:0:
64,192,99025,128,0,99084:0:0:0:0:
64,192,99142,128,0,99201:0:0:0:0:
448,192,99142,128,0,99201:0:0:0:0:
320,192,99260,128,0,99318:0:0:0:0:
192,192,99260,128,0,99318:0:0:0:0:
64,192,99377,128,10,99435:0:0:0:0:
448,192,99377,128,0,99435:0:0:0:70:D#6S_Eb6S_s.wav
320,192,99494,128,0,99553:0:0:0:0:
448,192,99494,128,0,99553:0:0:0:0:
192,192,99611,128,0,99670:0:0:0:0:
64,192,99611,128,0,99670:0:0:0:0:
320,192,99728,128,0,99787:0:0:0:0:
448,192,99728,128,0,99787:0:0:0:0:
448,192,99846,128,0,99904:0:0:0:0:
64,192,99846,128,2,99904:0:0:0:0:
320,192,99963,128,0,100021:0:0:0:0:
192,192,99963,128,0,100021:0:0:0:0:
192,192,100080,128,0,100138:0:0:0:0:
64,192,100080,128,0,100138:0:0:0:0:
320,192,100197,128,0,100256:0:0:0:0:
448,192,100197,128,0,100256:0:0:0:0:
448,192,100314,128,0,100373:0:0:0:70:B3S_s.wav
192,192,100314,128,10,100373:0:0:0:0:
320,192,100431,128,0,100490:0:0:0:0:
64,192,100431,128,0,100490:0:0:0:0:
192,192,100549,128,0,100607:0:0:0:0:
320,192,100549,128,0,100607:0:0:0:0:
448,192,100666,128,0,100724:0:0:0:0:
64,192,100666,128,0,100724:0:0:0:0:
192,192,100783,1,0,0:0:0:70:E5S_s.wav
64,192,100783,1,0,0:0:0:70:B3S_s.wav
448,192,100900,1,0,0:0:0:0:
320,192,101017,1,0,0:0:0:0:
320,192,101135,1,0,0:0:0:0:
64,192,101252,1,2,0:0:0:0:
448,192,101252,1,0,0:0:0:70:F#5S_Gb5S_s.wav
64,192,101486,1,2,0:0:0:0:
448,192,101486,1,0,0:0:0:0:
64,192,101721,128,2,103127:0:0:0:0:
192,192,101721,128,4,102658:0:0:0:0:
320,192,101721,1,0,0:0:0:70:G#5S_Ab5S.wav
448,192,101721,1,0,0:0:0:0:
448,192,102658,128,0,103127:0:0:0:0:
192,192,103127,128,0,103596:0:0:0:70:C#6S_Db6S_s.wav
320,192,103127,1,0,0:0:0:0:
64,192,103596,1,2,0:0:0:0:
320,192,103596,128,0,104533:0:0:0:70:D#6S_Eb6S.wav
448,192,103596,128,0,104533:0:0:0:0:
64,192,104533,128,0,105002:0:0:0:70:D#6S_Eb6S_s.wav
192,192,104533,128,0,104885:0:0:0:0:
448,192,104885,128,0,105236:0:0:0:70:C#6S_Db6S_s.wav
320,192,104885,1,0,0:0:0:0:
192,192,105002,1,0,0:0:0:0:
192,192,105236,128,0,105471:0:0:0:70:D#6S_Eb6S_s.wav
64,192,105471,128,2,106174:0:0:0:0:
320,192,105471,1,0,0:0:0:70:E6S.wav
448,192,105471,128,0,106408:0:0:0:0:
192,192,106174,128,0,106877:0:0:0:70:F#6S_Gb6S.wav
320,192,106174,1,0,0:0:0:0:
320,192,106408,128,0,106877:0:0:0:0:
448,192,106877,128,0,107346:0:0:0:70:E6S_s.wav
64,192,106877,1,0,0:0:0:0:
64,192,107346,128,2,108283:0:0:0:0:
192,192,107346,128,0,108283:0:0:0:70:D#6S_Eb6S.wav
320,192,107346,1,0,0:0:0:0:
448,192,108283,128,0,108752:0:0:0:70:D#6S_Eb6S_s.wav
320,192,108283,128,0,108635:0:0:0:0:
64,192,108635,128,0,108986:0:0:0:70:B5S_s.wav
192,192,108635,1,0,0:0:0:0:
320,192,108752,1,0,0:0:0:0:
448,192,108986,128,0,109221:0:0:0:70:F#5S_Gb5S_s.wav
64,192,109221,1,4,0:0:0:0:
192,192,109221,1,2,0:0:0:0:
320,192,109221,1,0,0:0:0:70:G#5S_Ab5S.wav
64,192,109338,1,0,0:0:0:0:
192,192,109455,1,0,0:0:0:0:
320,192,109455,1,0,0:0:0:0:
448,192,109572,1,0,0:0:0:0:
64,192,109689,1,8,0:0:0:0:
192,192,109689,1,2,0:0:0:0:
448,192,109689,1,0,0:0:0:0:
320,192,109806,1,0,0:0:0:0:
64,192,109924,1,0,0:0:0:0:
448,192,109924,1,0,0:0:0:0:
192,192,110041,1,0,0:0:0:0:
320,192,110158,1,2,0:0:0:0:
64,192,110158,1,0,0:0:0:0:
320,192,110275,1,0,0:0:0:0:
192,192,110392,1,0,0:0:0:0:
448,192,110392,1,0,0:0:0:0:
64,192,110510,1,0,0:0:0:0:
64,192,110627,1,8,0:0:0:0:
320,192,110627,1,2,0:0:0:0:
448,192,110627,1,0,0:0:0:0:
192,192,110744,1,0,0:0:0:0:
448,192,110861,1,0,0:0:0:0:
64,192,110861,1,0,0:0:0:0:
320,192,110978,1,0,0:0:0:0:
448,192,111096,1,2,0:0:0:0:
192,192,111096,1,0,0:0:0:0:
192,192,111213,1,0,0:0:0:0:
64,192,111330,1,0,0:0:0:0:
320,192,111330,1,0,0:0:0:0:
448,192,111447,1,0,0:0:0:0:
64,192,111564,1,8,0:0:0:0:
192,192,111564,1,2,0:0:0:0:
448,192,111564,1,0,0:0:0:0:
320,192,111681,1,0,0:0:0:0:
448,192,111799,1,0,0:0:0:0:
64,192,111799,1,0,0:0:0:0:
192,192,111916,1,0,0:0:0:0:
64,192,112033,1,2,0:0:0:0:
320,192,112033,1,0,0:0:0:0:
320,192,112150,1,0,0:0:0:0:
448,192,112267,1,0,0:0:0:0:
192,192,112267,1,0,0:0:0:0:
192,192,112385,1,0,0:0:0:0:
64,192,112502,1,8,0:0:0:0:
320,192,112502,1,2,0:0:0:0:
448,192,112502,1,0,0:0:0:0:
192,192,112619,1,0,0:0:0:0:
448,192,112736,1,0,0:0:0:0:
64,192,112736,1,0,0:0:0:0:
320,192,112853,1,0,0:0:0:0:
192,192,112971,1,0,0:0:0:0:
64,192,112971,1,2,0:0:0:0:
64,192,113088,1,0,0:0:0:0:
192,192,113205,1,0,0:0:0:0:
320,192,113205,1,0,0:0:0:0:
448,192,113322,1,0,0:0:0:0:
64,192,113439,1,8,0:0:0:0:
192,192,113439,1,2,0:0:0:0:
448,192,113439,1,0,0:0:0:0:
320,192,113556,1,0,0:0:0:0:
64,192,113674,1,0,0:0:0:0:
448,192,113674,1,0,0:0:0:0:
192,192,113791,1,0,0:0:0:0:
64,192,113908,1,2,0:0:0:0:
320,192,113908,1,0,0:0:0:0:
320,192,114025,1,0,0:0:0:0:
64,192,114142,1,0,0:0:0:0:
192,192,114142,1,0,0:0:0:0:
448,192,114260,1,0,0:0:0:0:
64,192,114377,1,8,0:0:0:0:
192,192,114377,1,2,0:0:0:0:
448,192,114377,1,0,0:0:0:0:
320,192,114494,1,0,0:0:0:0:
448,192,114611,1,0,0:0:0:0:
64,192,114611,1,0,0:0:0:0:
192,192,114728,1,0,0:0:0:0:
64,192,114846,1,2,0:0:0:0:
320,192,114846,1,0,0:0:0:0:
64,192,114963,1,0,0:0:0:0:
192,192,115080,1,0,0:0:0:0:
320,192,115080,1,0,0:0:0:0:
448,192,115197,1,0,0:0:0:0:
64,192,115314,1,8,0:0:0:0:
192,192,115314,1,2,0:0:0:0:
448,192,115314,1,0,0:0:0:0:
320,192,115431,1,0,0:0:0:0:
64,192,115549,1,0,0:0:0:0:
448,192,115549,1,0,0:0:0:0:
192,192,115666,1,0,0:0:0:0:
64,192,115783,1,2,0:0:0:0:
320,192,115783,1,0,0:0:0:0:
320,192,115900,1,0,0:0:0:0:
448,192,116017,1,0,0:0:0:0:
192,192,116017,1,0,0:0:0:0:
192,192,116135,1,0,0:0:0:0:
64,192,116252,1,8,0:0:0:0:
320,192,116252,1,2,0:0:0:0:
448,192,116252,1,0,0:0:0:0:
192,192,116369,1,0,0:0:0:0:
64,192,116428,1,0,0:0:0:0:
320,192,116486,1,0,0:0:0:0:
448,192,116486,1,0,0:0:0:0:
192,192,116603,1,0,0:0:0:0:
64,192,116721,128,6,117306:0:0:0:0:
320,192,116721,128,0,117306:0:0:0:70:G#5S_Ab5S.wav
448,192,116721,128,0,117306:0:0:0:70:G#6S_Ab6S.wav
64,192,117424,128,0,117541:0:0:0:70:C#6S_Db6S_s.wav
192,192,117424,128,0,117541:0:0:0:70:C#5S_Db5S_s.wav
448,192,117424,128,0,117541:0:0:0:0:
64,192,117658,128,0,118010:0:0:0:70:G#6S_Ab6S.wav
192,192,117658,128,0,118010:0:0:0:70:G#5S_Ab5S.wav
320,192,117658,128,0,118478:0:0:0:0:
448,192,117658,128,0,118478:0:0:0:0:
64,192,118127,1,0,0:0:0:50:S1.wav
192,192,118127,1,0,0:0:0:0:
64,192,118478,1,0,0:0:0:50:S1.wav
192,192,118478,1,0,0:0:0:0:
64,192,118596,128,2,119416:0:0:0:0:
192,192,118596,128,0,118947:0:0:0:70:F#6S_Gb6S.wav
320,192,118596,128,0,118947:0:0:0:70:F#5S_Gb5S.wav
448,192,118596,128,0,119416:0:0:0:0:
192,192,119064,1,0,0:0:0:0:
64,192,119533,128,0,119767:0:0:0:70:F#6S_Gb6S_s.wav
320,192,119533,128,0,119767:0:0:0:70:F#5S_Gb5S_s.wav
448,192,119533,128,0,119767:0:0:0:0:
192,192,119885,128,0,120236:0:0:0:70:E5S_s.wav
64,192,119885,128,0,120236:0:0:0:70:E6S_s.wav
448,192,120002,1,0,0:0:0:0:
320,192,120002,1,0,0:0:0:50:S1.wav
320,192,120236,128,0,120353:0:0:0:70:D#6S_Eb6S_s.wav
448,192,120236,128,0,120353:0:0:0:70:D#5S_Eb5S_s.wav
192,192,120353,1,0,0:0:0:0:
64,192,120353,1,0,0:0:0:50:S1.wav
64,192,120471,128,2,121056:0:0:0:0:
192,192,120471,128,0,121056:0:0:0:70:E6S.wav
320,192,120471,128,0,120822:0:0:0:70:E5S.wav
448,192,120471,128,0,120822:0:0:0:0:
448,192,120939,1,0,0:0:0:0:
64,192,121174,128,0,121760:0:0:0:70:G#5S_Ab5S.wav
448,192,121174,128,0,121760:0:0:0:0:
320,192,121408,128,0,121760:0:0:0:0:
192,192,121408,128,0,121760:0:0:0:0:
64,192,121877,128,0,122111:0:0:0:50:S1.wav
192,192,121877,128,0,122111:0:0:0:70:E6S_s.wav
448,192,121877,128,0,122111:0:0:0:70:E5S_s.wav
320,192,122228,1,0,0:0:0:50:S1.wav
448,192,122228,1,0,0:0:0:0:
64,192,122346,128,2,123283:0:0:0:0:
192,192,122346,128,0,123283:0:0:0:70:D#6S_Eb6S.wav
320,192,122346,128,0,122697:0:0:0:70:D#5S_Eb5S.wav
448,192,122346,128,0,122697:0:0:0:0:
320,192,122814,1,0,0:0:0:0:
448,192,123283,128,0,123635:0:0:0:70:D#5S_Eb5S_s.wav
320,192,123283,128,0,123635:0:0:0:70:D#6S_Eb6S_s.wav
64,192,123635,128,0,123986:0:0:0:70:B5S_s.wav
192,192,123635,128,0,123986:0:0:0:0:
448,192,123752,1,0,0:0:0:0:
320,192,123752,1,0,0:0:0:50:S1.wav
320,192,123986,128,0,124103:0:0:0:70:F#5S_Gb5S_s.wav
448,192,123986,128,0,124103:0:0:0:0:
64,192,124103,1,0,0:0:0:50:S1.wav
192,192,124103,1,0,0:0:0:0:
64,192,124221,1,6,0:0:0:0:
320,192,124221,1,0,0:0:0:70:G#5S_Ab5S_s.wav
448,192,124221,1,0,0:0:0:70:C#5S_Db5S_s.wav
192,192,124338,1,0,0:0:0:0:
320,192,124455,1,0,0:0:0:0:
448,192,124455,1,0,0:0:0:0:
64,192,124572,1,0,0:0:0:0:
448,192,124572,1,0,0:0:0:0:
64,192,124689,1,2,0:0:0:0:
192,192,124689,1,8,0:0:0:0:
320,192,124689,1,0,0:0:0:0:
448,192,124806,1,0,0:0:0:0:
192,192,124924,1,0,0:0:0:0:
64,192,124924,1,0,0:0:0:0:
64,192,125041,1,0,0:0:0:0:
448,192,125041,1,0,0:0:0:0:
320,192,125158,1,2,0:0:0:0:
192,192,125158,1,0,0:0:0:0:
448,192,125275,1,0,0:0:0:0:
192,192,125392,1,0,0:0:0:0:
64,192,125392,1,0,0:0:0:0:
64,192,125510,1,0,0:0:0:0:
448,192,125510,1,0,0:0:0:0:
192,192,125627,1,2,0:0:0:0:
320,192,125627,1,8,0:0:0:0:
448,192,125627,1,0,0:0:0:0:
64,192,125744,1,0,0:0:0:0:
320,192,125861,1,0,0:0:0:0:
448,192,125861,1,0,0:0:0:0:
64,192,125978,1,0,0:0:0:0:
448,192,125978,1,0,0:0:0:0:
320,192,126096,1,2,0:0:0:0:
192,192,126096,1,0,0:0:0:0:
64,192,126213,1,0,0:0:0:0:
320,192,126330,1,0,0:0:0:0:
448,192,126330,1,0,0:0:0:0:
64,192,126447,1,0,0:0:0:0:
448,192,126447,1,0,0:0:0:0:
64,192,126564,1,2,0:0:0:0:
192,192,126564,1,8,0:0:0:0:
320,192,126564,1,0,0:0:0:0:
448,192,126681,1,0,0:0:0:0:
192,192,126799,1,0,0:0:0:0:
64,192,126799,1,0,0:0:0:0:
64,192,126916,1,0,0:0:0:0:
448,192,126916,1,0,0:0:0:0:
192,192,127033,1,2,0:0:0:0:
320,192,127033,1,0,0:0:0:0:
448,192,127150,1,0,0:0:0:0:
192,192,127267,1,0,0:0:0:0:
64,192,127267,1,0,0:0:0:0:
64,192,127385,1,0,0:0:0:0:
448,192,127385,1,0,0:0:0:0:
192,192,127502,1,2,0:0:0:0:
320,192,127502,1,8,0:0:0:0:
448,192,127502,1,0,0:0:0:0:
64,192,127619,1,0,0:0:0:0:
448,192,127736,1,0,0:0:0:0:
320,192,127736,1,0,0:0:0:0:
448,192,127853,1,0,0:0:0:0:
64,192,127853,1,0,0:0:0:0:
192,192,127971,1,0,0:0:0:0:
320,192,127971,128,2,128439:0:0:0:0:
64,192,128439,128,6,128908:0:0:0:0:
192,192,128439,128,0,128791:0:0:0:70:E5S_s.wav
448,192,128439,1,0,0:0:0:70:C#5S_Db5S_s.wav
320,192,128556,1,0,0:0:0:0:
448,192,128674,1,0,0:0:0:0:
320,192,128791,1,0,0:0:0:0:
448,192,128908,128,0,129377:0:0:0:0:
192,192,128908,1,0,0:0:0:0:
192,192,129377,128,0,129846:0:0:0:70:G#5S_Ab5S_s.wav
320,192,129377,128,0,129728:0:0:0:70:E6S_s.wav
64,192,129377,1,6,0:0:0:0:
448,192,129494,1,0,0:0:0:0:
64,192,129611,1,0,0:0:0:0:
448,192,129728,1,0,0:0:0:0:
64,192,129846,128,0,130314:0:0:0:0:
320,192,129846,1,0,0:0:0:0:
320,192,130314,128,0,130666:0:0:0:70:C5S_s.wav
448,192,130314,128,0,130783:0:0:0:70:C6S_s.wav
192,192,130314,1,6,0:0:0:0:
64,192,130431,1,0,0:0:0:0:
192,192,130549,1,0,0:0:0:0:
64,192,130666,1,0,0:0:0:0:
192,192,130783,128,0,131252:0:0:0:0:
320,192,130783,1,0,0:0:0:0:
448,192,131252,128,0,131603:0:0:0:70:D#5S_Eb5S_s.wav
64,192,131252,128,6,131603:0:0:0:0:
320,192,131252,1,0,0:0:0:70:F#5S_Gb5S_s.wav
192,192,131369,1,0,0:0:0:0:
320,192,131486,1,0,0:0:0:0:
320,192,131603,1,0,0:0:0:0:
64,192,131721,1,6,0:0:0:0:
192,192,131721,1,0,0:0:0:70:G#5S_Ab5S_s.wav
448,192,131721,128,0,133596:0:0:0:70:F5S.wav
320,192,131955,1,0,0:0:0:0:
64,192,132189,1,0,0:0:0:0:
320,192,132424,1,0,0:0:0:0:
192,192,132658,1,0,0:0:0:0:
64,192,132892,1,0,0:0:0:0:
192,192,133127,1,0,0:0:0:0:
320,192,133361,1,0,0:0:0:0:
64,192,133596,128,0,135471:0:0:0:70:D#5S_Eb5S_s.wav
192,192,133596,1,0,0:0:0:70:C#6S_Db6S.wav
448,192,133830,1,0,0:0:0:0:
192,192,134064,1,0,0:0:0:0:
320,192,134299,1,0,0:0:0:0:
448,192,134533,1,0,0:0:0:0:
192,192,134767,1,0,0:0:0:0:
320,192,135002,1,0,0:0:0:0:
192,192,135236,1,0,0:0:0:0:
320,192,135471,128,0,136408:0:0:0:70:F5S_s.wav
448,192,135471,1,0,0:0:0:70:C6S_s.wav
64,192,135705,1,0,0:0:0:0:
448,192,135939,1,0,0:0:0:0:
192,192,136174,1,0,0:0:0:0:
64,192,136174,128,0,137814:0:0:0:70:G#4S_Ab4S_s.wav
448,192,136408,1,0,0:0:0:70:G#6S_Ab6S.wav
192,192,136408,128,0,137814:0:0:0:70:C6S_s.wav
320,192,136642,1,0,0:0:0:0:
448,192,136877,1,0,0:0:0:0:
320,192,137111,1,0,0:0:0:0:
448,192,137346,1,0,0:0:0:0:
320,192,137580,1,0,0:0:0:0:
448,192,137814,1,0,0:0:0:0:
320,192,137814,128,0,138283:0:0:0:70:G#5S_Ab5S_s.wav
64,192,138049,1,0,0:0:0:0:
192,192,138283,1,0,0:0:0:70:D#6S_Eb6S.wav
448,192,138283,128,0,139221:0:0:0:70:G5S.wav
320,192,138517,1,0,0:0:0:0:
64,192,138752,1,0,0:0:0:0:
320,192,138986,1,0,0:0:0:0:
64,192,139221,128,0,141096:0:0:0:50:LR3_BassDropPDG.wav
192,192,139221,1,0,0:0:0:70:E6S.wav
320,192,139455,1,0,0:0:0:0:
448,192,139689,1,0,0:0:0:0:
192,192,139924,1,0,0:0:0:0:
320,192,140158,1,0,0:0:0:0:
192,192,140392,1,0,0:0:0:0:
448,192,140627,1,0,0:0:0:0:
320,192,140861,1,0,0:0:0:0:
192,192,141096,1,0,0:0:0:70:D#5S_Eb5S_s.wav
448,192,141096,128,0,142033:0:0:0:70:F#6S_Gb6S.wav
320,192,141330,1,0,0:0:0:0:
64,192,141564,1,0,0:0:0:0:
192,192,141799,1,0,0:0:0:0:
64,192,142033,1,0,0:0:0:70:D#5S_Eb5S_s.wav
320,192,142033,128,0,142502:0:0:0:70:E6S_s.wav
64,192,142267,1,0,0:0:0:0:
192,192,142502,128,0,142971:0:0:0:70:F#6S_Gb6S_s.wav
448,192,142502,1,0,0:0:0:70:F#5S_Gb5S_s.wav
448,192,142736,1,0,0:0:0:0:
64,192,142971,128,0,144846:0:0:0:70:G#6S_Ab6S.wav
320,192,142971,1,0,0:0:0:70:C#6S_Db6S.wav
448,192,143205,1,0,0:0:0:0:
192,192,143439,1,0,0:0:0:0:
320,192,143674,1,0,0:0:0:0:
192,192,143908,1,0,0:0:0:0:
448,192,144142,1,0,0:0:0:0:
192,192,144377,1,0,0:0:0:0:
320,192,144611,1,0,0:0:0:0:
192,192,144846,128,0,145080:0:0:0:70:G#5S_Ab5S_s.wav
320,192,144846,128,0,145080:0:0:0:70:C#7S_Db7S_s.wav
448,192,144846,128,0,145080:0:0:0:0:
64,192,145197,128,0,145431:0:0:0:70:B6S_s.wav
192,192,145197,128,0,145431:0:0:0:0:
448,192,145197,128,0,145431:0:0:0:0:
64,192,145549,128,0,145666:0:0:0:70:G#6S_Ab6S_s.wav
320,192,145549,128,0,145666:0:0:0:70:C#5S_Db5S_s.wav
448,192,145549,128,0,145666:0:0:0:0:
192,192,145783,128,0,146603:0:0:0:70:C#7S_Db7S.wav
320,192,145783,128,0,146603:0:0:0:70:G#5S_Ab5S_s.wav
448,192,145783,128,0,146603:0:0:0:0:
64,192,146721,128,6,148596:0:0:0:0:
192,192,146721,1,0,0:0:0:70:D#6S_Eb6S.wav
448,192,146721,1,0,0:0:0:70:C#7S_Db7S.wav
320,192,146955,1,0,0:0:0:0:
448,192,147189,1,0,0:0:0:0:
192,192,147424,1,0,0:0:0:0:
320,192,147658,1,0,0:0:0:0:
448,192,147892,1,0,0:0:0:0:
320,192,148127,1,0,0:0:0:0:
192,192,148361,1,0,0:0:0:0:
320,192,148596,1,0,0:0:0:70:D#5S_Eb5S_s.wav
448,192,148596,128,0,150471:0:0:0:70:F6S.wav
64,192,148830,1,0,0:0:0:0:
320,192,149064,1,0,0:0:0:0:
192,192,149299,1,0,0:0:0:0:
64,192,149533,1,0,0:0:0:0:
320,192,149767,1,0,0:0:0:0:
192,192,150002,1,0,0:0:0:0:
320,192,150236,1,0,0:0:0:0:
64,192,150471,1,0,0:0:0:70:F6S.wav
192,192,150471,128,0,151408:0:0:0:70:C7S.wav
448,192,150705,1,0,0:0:0:0:
64,192,150939,1,0,0:0:0:0:
320,192,151174,1,0,0:0:0:70:C5S_s.wav
448,192,151174,128,0,152814:0:0:0:0:
320,192,151408,128,0,152814:0:0:0:70:F5S_s.wav
64,192,151408,1,0,0:0:0:70:D#6S_Eb6S.wav
192,192,151642,1,0,0:0:0:0:
64,192,151877,1,0,0:0:0:0:
192,192,152111,1,0,0:0:0:0:
64,192,152346,1,0,0:0:0:0:
192,192,152580,1,0,0:0:0:0:
64,192,152814,1,0,0:0:0:70:G#5S_Ab5S_s.wav
192,192,152814,128,0,153283:0:0:0:70:C6S_s.wav
448,192,153049,1,0,0:0:0:0:
64,192,153283,128,0,154221:0:0:0:70:C6S_s.wav
320,192,153283,1,0,0:0:0:70:D#6S_Eb6S.wav
192,192,153517,1,0,0:0:0:0:
448,192,153752,1,0,0:0:0:0:
192,192,153986,1,0,0:0:0:0:
320,192,154221,1,0,0:0:0:50:LR3_BassDropPDG.wav
448,192,154221,128,0,156096:0:0:0:70:C#6S_Db6S.wav
192,192,154455,1,0,0:0:0:0:
64,192,154689,1,0,0:0:0:0:
320,192,154924,1,0,0:0:0:0:
192,192,155158,1,0,0:0:0:0:
320,192,155392,1,0,0:0:0:0:
64,192,155627,1,0,0:0:0:0:
192,192,155861,1,0,0:0:0:0:
64,192,156096,128,0,157033:0:0:0:70:F#5S_Gb5S.wav
320,192,156096,1,0,0:0:0:70:B5S_s.wav
192,192,156330,1,0,0:0:0:0:
448,192,156564,1,0,0:0:0:0:
320,192,156799,1,0,0:0:0:0:
192,192,157033,128,0,157502:0:0:0:70:E6S_s.wav
448,192,157033,1,0,0:0:0:70:D#5S_Eb5S_s.wav
448,192,157267,1,0,0:0:0:0:
64,192,157502,1,0,0:0:0:70:F#6S_Gb6S_s.wav
320,192,157502,128,0,157971:0:0:0:70:F#5S_Gb5S_s.wav
64,192,157736,1,0,0:0:0:0:
64,192,157971,128,6,158439:0:0:0:0:
192,192,157971,128,0,158439:0:0:0:70:E6S.wav
448,192,157971,128,0,158439:0:0:0:70:G#6S_Ab6S.wav
320,192,158439,1,0,0:0:0:0:
64,192,158556,1,0,0:0:0:0:
448,192,158674,1,0,0:0:0:0:
192,192,158791,1,0,0:0:0:0:
64,192,158908,128,6,159377:0:0:0:0:
320,192,158908,128,0,159377:0:0:0:70:C#5S_Db5S.wav
448,192,158908,128,0,159377:0:0:0:70:E5S.wav
192,192,159377,1,0,0:0:0:0:
448,192,159494,1,0,0:0:0:0:
64,192,159611,1,0,0:0:0:0:
448,192,159728,1,0,0:0:0:0:
64,192,159846,128,6,160314:0:0:0:0:
192,192,159846,128,0,160314:0:0:0:70:A5S.wav
320,192,159846,128,0,160314:0:0:0:70:D6S.wav
448,192,160314,1,0,0:0:0:0:
192,192,160431,1,0,0:0:0:0:
320,192,160549,1,0,0:0:0:0:
64,192,160666,1,0,0:0:0:0:
192,192,160783,128,6,161252:0:0:0:0:
320,192,160783,128,0,161252:0:0:0:70:A5S.wav
448,192,160783,128,0,161252:0:0:0:70:D5S.wav
64,192,161252,1,0,0:0:0:50:S3.wav
448,192,161369,1,0,0:0:0:50:S3.wav
64,192,161486,1,0,0:0:0:50:S3.wav
448,192,161603,1,0,0:0:0:50:S3.wav
192,192,161662,1,0,0:0:0:50:S3.wav
64,192,161721,1,6,0:0:0:0:
320,192,161721,1,0,0:0:0:70:A#5S_Bb5S_s.wav
448,192,161721,128,0,162658:0:0:0:70:F#5S_Gb5S_s.wav
192,192,161838,1,0,0:0:0:0:
64,192,161955,1,0,0:0:0:0:
64,192,162072,1,2,0:0:0:0:
320,192,162072,1,0,0:0:0:0:
192,192,162189,1,0,0:0:0:70:LR_Snare Drum .wav
320,192,162189,1,0,0:0:0:0:
64,192,162306,1,0,0:0:0:0:
192,192,162424,1,0,0:0:0:0:
192,192,162541,1,0,0:0:0:0:
64,192,162658,128,2,163596:0:0:0:0:
320,192,162658,1,0,0:0:0:0:
448,192,162775,1,0,0:0:0:0:
320,192,162892,1,0,0:0:0:0:
320,192,163010,1,0,0:0:0:0:
192,192,163127,1,2,0:0:0:0:
448,192,163127,1,0,0:0:0:0:
320,192,163244,1,0,0:0:0:0:
192,192,163361,1,0,0:0:0:0:
192,192,163478,1,0,0:0:0:0:
320,192,163596,128,2,164533:0:0:0:0:
448,192,163596,1,0,0:0:0:0:
192,192,163713,1,0,0:0:0:0:
64,192,163830,1,0,0:0:0:0:
64,192,163947,1,2,0:0:0:0:
448,192,163947,1,0,0:0:0:0:
192,192,164064,1,0,0:0:0:70:LR_Snare Drum .wav
448,192,164064,1,0,0:0:0:0:
64,192,164181,1,0,0:0:0:0:
192,192,164299,1,0,0:0:0:0:
192,192,164416,1,2,0:0:0:0:
448,192,164416,1,0,0:0:0:0:
64,192,164533,128,0,165471:0:0:0:0:
192,192,164650,1,0,0:0:0:0:
448,192,164767,1,0,0:0:0:0:
192,192,164885,1,2,0:0:0:0:
448,192,164885,1,0,0:0:0:0:
320,192,165002,1,0,0:0:0:0:
448,192,165119,1,0,0:0:0:0:
192,192,165236,1,0,0:0:0:0:
192,192,165353,1,0,0:0:0:0:
320,192,165471,1,2,0:0:0:0:
448,192,165471,128,0,165939:0:0:0:0:
64,192,165588,1,0,0:0:0:0:
192,192,165705,1,0,0:0:0:0:
192,192,165822,1,2,0:0:0:0:
320,192,165822,1,0,0:0:0:0:
64,192,165939,128,0,166408:0:0:0:70:LR_Snare Drum .wav
320,192,165939,1,0,0:0:0:0:
448,192,166056,1,0,0:0:0:0:
192,192,166174,1,0,0:0:0:0:
192,192,166291,1,0,0:0:0:0:
320,192,166408,128,0,166877:0:0:0:0:
192,192,166525,1,2,0:0:0:0:
448,192,166525,1,0,0:0:0:0:
64,192,166642,1,0,0:0:0:0:
64,192,166760,1,0,0:0:0:0:
192,192,166877,1,2,0:0:0:0:
448,192,166877,128,0,167346:0:0:0:0:
64,192,166994,1,0,0:0:0:0:
320,192,167111,1,0,0:0:0:0:
320,192,167228,1,0,0:0:0:0:
64,192,167346,128,2,168752:0:0:0:0:
192,192,167346,1,0,0:0:0:0:
320,192,167463,1,0,0:0:0:0:
448,192,167580,1,0,0:0:0:0:
448,192,167697,1,0,0:0:0:0:
192,192,167814,1,2,0:0:0:0:
320,192,167814,1,8,0:0:0:0:
448,192,167931,1,0,0:0:0:0:
192,192,168049,1,0,0:0:0:0:
448,192,168166,1,2,0:0:0:0:
192,192,168166,1,0,0:0:0:0:
320,192,168283,1,0,0:0:0:0:
448,192,168400,1,0,0:0:0:0:
192,192,168517,1,0,0:0:0:0:
192,192,168635,1,2,0:0:0:0:
320,192,168635,1,0,0:0:0:0:
448,192,168752,128,0,168986:0:0:0:0:
320,192,168869,1,0,0:0:0:0:
192,192,168986,128,0,169221:0:0:0:0:
64,192,169103,1,0,0:0:0:0:
64,192,169221,1,2,0:0:0:0:
320,192,169221,128,4,169924:0:0:0:0:
448,192,169221,1,0,0:0:0:0:
192,192,169338,1,0,0:0:0:0:
448,192,169455,1,0,0:0:0:0:
64,192,169572,1,2,0:0:0:0:
448,192,169572,1,0,0:0:0:0:
64,192,169689,1,0,0:0:0:50:S3.wav
192,192,169689,1,0,0:0:0:0:
448,192,169806,1,0,0:0:0:0:
64,192,169924,128,0,171096:0:0:0:0:
192,192,170041,1,0,0:0:0:0:
320,192,170158,1,2,0:0:0:0:
448,192,170158,1,0,0:0:0:0:
192,192,170275,1,0,0:0:0:0:
320,192,170392,1,0,0:0:0:0:
320,192,170510,1,0,0:0:0:0:
192,192,170627,1,2,0:0:0:0:
448,192,170627,1,0,0:0:0:0:
320,192,170744,1,0,0:0:0:0:
448,192,170861,1,0,0:0:0:0:
448,192,170978,1,0,0:0:0:0:
192,192,171096,128,2,171799:0:0:0:0:
320,192,171096,1,0,0:0:0:0:
448,192,171213,1,0,0:0:0:0:
64,192,171330,1,0,0:0:0:0:
64,192,171447,1,2,0:0:0:0:
320,192,171447,1,0,0:0:0:0:
320,192,171564,1,0,0:0:0:50:S3.wav
448,192,171564,1,0,0:0:0:0:
64,192,171681,1,0,0:0:0:0:
448,192,171799,128,0,172502:0:0:0:0:
64,192,171916,1,2,0:0:0:0:
320,192,171916,1,0,0:0:0:0:
192,192,172033,1,0,0:0:0:0:
320,192,172150,1,0,0:0:0:0:
64,192,172267,1,0,0:0:0:0:
64,192,172385,1,2,0:0:0:0:
192,192,172385,1,0,0:0:0:0:
320,192,172502,128,0,172971:0:0:0:0:
192,192,172619,1,0,0:0:0:0:
64,192,172736,1,0,0:0:0:0:
64,192,172853,1,0,0:0:0:0:
448,192,172971,1,2,0:0:0:0:
192,192,172971,128,0,176017:0:0:0:0:
64,192,173088,1,0,0:0:0:0:
320,192,173205,1,0,0:0:0:0:
64,192,173322,1,2,0:0:0:0:
320,192,173322,1,0,0:0:0:0:
64,192,173439,1,0,0:0:0:50:S3.wav
448,192,173439,1,0,0:0:0:0:
320,192,173556,1,0,0:0:0:0:
448,192,173674,1,0,0:0:0:0:
448,192,173791,1,0,0:0:0:0:
64,192,173908,1,0,0:0:0:0:
320,192,174025,1,2,0:0:0:0:
448,192,174025,1,0,0:0:0:0:
64,192,174142,1,0,0:0:0:0:
64,192,174260,1,0,0:0:0:0:
320,192,174377,1,2,0:0:0:0:
448,192,174377,1,0,0:0:0:0:
64,192,174494,1,0,0:0:0:0:
448,192,174611,1,0,0:0:0:0:
448,192,174728,1,0,0:0:0:0:
64,192,174846,1,2,0:0:0:0:
320,192,174846,1,0,0:0:0:0:
448,192,174963,1,0,0:0:0:0:
320,192,175080,1,0,0:0:0:0:
320,192,175197,1,0,0:0:0:0:
64,192,175314,1,2,0:0:0:0:
448,192,175314,1,8,0:0:0:0:
320,192,175431,1,0,0:0:0:0:
64,192,175549,1,0,0:0:0:0:
64,192,175666,1,2,0:0:0:0:
448,192,175666,1,8,0:0:0:0:
320,192,175783,1,0,0:0:0:0:
448,192,175900,1,0,0:0:0:0:
64,192,176017,1,0,0:0:0:0:
320,192,176135,1,2,0:0:0:0:
448,192,176135,1,0,0:0:0:0:
192,192,176252,128,0,176486:0:0:0:0:
320,192,176486,128,0,176721:0:0:0:0:
448,192,176721,1,0,0:0:0:0:
64,192,176721,128,2,177658:0:0:0:0:
192,192,176721,1,4,0:0:0:0:
320,192,176838,1,0,0:0:0:0:
448,192,176955,1,0,0:0:0:0:
448,192,177072,1,2,0:0:0:0:
192,192,177072,1,0,0:0:0:0:
320,192,177189,1,0,0:0:0:70:LR_Snare Drum .wav
192,192,177189,1,0,0:0:0:0:
448,192,177306,1,0,0:0:0:0:
320,192,177424,1,0,0:0:0:0:
320,192,177541,1,0,0:0:0:0:
448,192,177658,128,2,178596:0:0:0:0:
192,192,177658,1,0,0:0:0:0:
64,192,177775,1,0,0:0:0:0:
192,192,177892,1,0,0:0:0:0:
192,192,178010,1,0,0:0:0:0:
320,192,178127,1,2,0:0:0:0:
64,192,178127,1,0,0:0:0:0:
192,192,178244,1,0,0:0:0:0:
320,192,178361,1,0,0:0:0:0:
320,192,178478,1,0,0:0:0:0:
192,192,178596,128,2,179533:0:0:0:0:
64,192,178596,1,0,0:0:0:0:
320,192,178713,1,0,0:0:0:0:
448,192,178830,1,0,0:0:0:0:
448,192,178947,1,2,0:0:0:0:
64,192,178947,1,0,0:0:0:0:
320,192,179064,1,0,0:0:0:70:LR_Snare Drum .wav
64,192,179064,1,0,0:0:0:0:
448,192,179181,1,0,0:0:0:0:
320,192,179299,1,0,0:0:0:0:
320,192,179416,1,2,0:0:0:0:
64,192,179416,1,0,0:0:0:0:
448,192,179533,128,0,180471:0:0:0:0:
320,192,179650,1,0,0:0:0:0:
64,192,179767,1,0,0:0:0:0:
320,192,179885,1,2,0:0:0:0:
64,192,179885,1,0,0:0:0:0:
192,192,180002,1,0,0:0:0:0:
64,192,180119,1,0,0:0:0:0:
320,192,180236,1,0,0:0:0:0:
320,192,180353,1,0,0:0:0:0:
192,192,180471,1,2,0:0:0:0:
64,192,180471,128,0,180939:0:0:0:0:
448,192,180588,1,0,0:0:0:0:
320,192,180705,1,0,0:0:0:0:
320,192,180822,1,2,0:0:0:0:
192,192,180822,1,0,0:0:0:0:
448,192,180939,128,0,181408:0:0:0:70:LR_Snare Drum .wav
192,192,180939,1,0,0:0:0:0:
64,192,181056,1,0,0:0:0:0:
320,192,181174,1,0,0:0:0:0:
320,192,181291,1,0,0:0:0:0:
192,192,181408,128,0,181877:0:0:0:0:
320,192,181525,1,2,0:0:0:0:
64,192,181525,1,0,0:0:0:0:
448,192,181642,1,0,0:0:0:0:
448,192,181760,1,0,0:0:0:0:
320,192,181877,1,2,0:0:0:0:
64,192,181877,128,0,182346:0:0:0:0:
448,192,181994,1,0,0:0:0:0:
192,192,182111,1,0,0:0:0:0:
192,192,182228,1,0,0:0:0:0:
448,192,182346,128,2,183752:0:0:0:0:
320,192,182346,1,0,0:0:0:0:
192,192,182463,1,0,0:0:0:0:
64,192,182580,1,0,0:0:0:0:
64,192,182697,1,0,0:0:0:0:
320,192,182814,1,2,0:0:0:0:
192,192,182814,1,8,0:0:0:0:
64,192,182931,1,0,0:0:0:0:
320,192,183049,1,0,0:0:0:0:
64,192,183166,1,2,0:0:0:0:
320,192,183166,1,0,0:0:0:0:
192,192,183283,1,0,0:0:0:0:
64,192,183400,1,0,0:0:0:0:
320,192,183517,1,0,0:0:0:0:
320,192,183635,1,2,0:0:0:0:
192,192,183635,1,0,0:0:0:0:
64,192,183752,128,0,183986:0:0:0:0:
320,192,183986,128,0,184221:0:0:0:0:
448,192,184221,1,2,0:0:0:0:
192,192,184221,128,4,184924:0:0:0:0:
64,192,184221,1,0,0:0:0:0:
320,192,184338,1,0,0:0:0:0:
64,192,184455,1,0,0:0:0:0:
448,192,184572,1,2,0:0:0:0:
64,192,184572,1,0,0:0:0:0:
448,192,184689,1,0,0:0:0:50:S3.wav
320,192,184689,1,0,0:0:0:0:
64,192,184806,1,0,0:0:0:0:
448,192,184924,128,0,185627:0:0:0:0:
320,192,185041,1,0,0:0:0:0:
192,192,185158,1,2,0:0:0:0:
64,192,185158,1,0,0:0:0:0:
320,192,185275,1,0,0:0:0:0:
192,192,185392,1,0,0:0:0:0:
192,192,185510,1,0,0:0:0:0:
320,192,185627,1,2,0:0:0:0:
64,192,185627,128,0,186096:0:0:0:0:
192,192,185744,1,0,0:0:0:0:
448,192,185861,1,0,0:0:0:0:
448,192,185978,1,0,0:0:0:0:
320,192,186096,128,2,186799:0:0:0:0:
192,192,186096,1,0,0:0:0:0:
64,192,186213,1,0,0:0:0:0:
448,192,186330,1,0,0:0:0:0:
448,192,186447,1,2,0:0:0:0:
64,192,186447,1,0,0:0:0:0:
192,192,186564,1,0,0:0:0:50:S3.wav
64,192,186564,1,0,0:0:0:0:
448,192,186681,1,0,0:0:0:0:
64,192,186799,128,0,187502:0:0:0:0:
448,192,186916,1,2,0:0:0:0:
192,192,186916,1,0,0:0:0:0:
320,192,187033,1,0,0:0:0:0:
192,192,187150,1,0,0:0:0:0:
192,192,187267,1,0,0:0:0:0:
448,192,187385,1,2,0:0:0:0:
320,192,187385,1,0,0:0:0:0:
192,192,187502,128,0,187971:0:0:0:0:
320,192,187619,1,0,0:0:0:0:
448,192,187736,1,0,0:0:0:0:
448,192,187853,1,0,0:0:0:0:
320,192,187971,128,0,189846:0:0:0:0:
64,192,187971,1,2,0:0:0:0:
448,192,188088,1,0,0:0:0:0:
192,192,188205,1,0,0:0:0:0:
448,192,188322,1,2,0:0:0:0:
192,192,188322,1,0,0:0:0:0:
448,192,188439,1,0,0:0:0:50:S3.wav
64,192,188439,1,0,0:0:0:0:
192,192,188556,1,0,0:0:0:0:
64,192,188674,1,0,0:0:0:0:
64,192,188791,1,0,0:0:0:0:
448,192,188908,1,0,0:0:0:0:
192,192,189025,1,2,0:0:0:0:
64,192,189025,1,0,0:0:0:0:
448,192,189142,1,0,0:0:0:0:
448,192,189260,1,0,0:0:0:0:
192,192,189377,1,2,0:0:0:0:
64,192,189377,1,0,0:0:0:0:
448,192,189494,1,0,0:0:0:0:
64,192,189611,1,0,0:0:0:0:
64,192,189728,1,0,0:0:0:0:
448,192,189846,1,2,0:0:0:0:
192,192,189846,1,0,0:0:0:0:
64,192,189963,1,0,0:0:0:0:
320,192,190080,1,0,0:0:0:0:
320,192,190197,1,0,0:0:0:0:
64,192,190314,1,8,0:0:0:0:
192,192,190314,1,0,0:0:0:0:
448,192,190431,1,0,0:0:0:0:
64,192,190549,1,0,0:0:0:0:
320,192,190666,1,0,0:0:0:0:
192,192,190724,1,0,0:0:0:0:
320,192,190783,1,0,0:0:0:0:
448,192,190783,1,0,0:0:0:0:
64,192,190783,128,4,191252:0:0:0:0:
448,192,190900,1,0,0:0:0:0:
320,192,191017,1,0,0:0:0:0:
320,192,191135,1,0,0:0:0:0:
192,192,191252,1,0,0:0:0:0:
448,192,191252,128,0,191721:0:0:0:0:
192,192,191369,1,0,0:0:0:0:
64,192,191486,1,0,0:0:0:0:
64,192,191603,1,0,0:0:0:0:
64,192,191721,1,2,0:0:0:0:
192,192,191721,1,4,0:0:0:0:
320,192,191721,1,0,0:0:0:0:
448,192,191838,1,0,0:0:0:0:
64,192,191955,1,0,0:0:0:0:
192,192,191955,1,0,0:0:0:0:
320,192,192072,1,0,0:0:0:0:
448,192,192072,1,0,0:0:0:0:
64,192,192189,1,2,0:0:0:0:
192,192,192189,1,0,0:0:0:30:S2.wav
320,192,192189,1,0,0:0:0:0:
448,192,192306,1,0,0:0:0:0:
64,192,192424,1,0,0:0:0:0:
192,192,192424,1,0,0:0:0:0:
320,192,192541,1,0,0:0:0:0:
448,192,192541,1,0,0:0:0:0:
64,192,192658,1,2,0:0:0:0:
192,192,192658,1,0,0:0:0:0:
448,192,192658,1,0,0:0:0:0:
320,192,192775,1,0,0:0:0:0:
64,192,192892,1,0,0:0:0:0:
448,192,192892,1,0,0:0:0:0:
192,192,193010,1,0,0:0:0:0:
320,192,193010,1,0,0:0:0:0:
64,192,193127,1,2,0:0:0:0:
192,192,193127,1,0,0:0:0:30:S2.wav
448,192,193127,1,0,0:0:0:0:
320,192,193244,1,0,0:0:0:0:
64,192,193361,1,0,0:0:0:0:
448,192,193361,1,0,0:0:0:0:
192,192,193478,1,0,0:0:0:0:
320,192,193478,1,0,0:0:0:0:
64,192,193596,1,2,0:0:0:0:
320,192,193596,1,0,0:0:0:0:
448,192,193596,1,0,0:0:0:0:
192,192,193713,1,0,0:0:0:0:
320,192,193830,1,0,0:0:0:0:
64,192,193830,1,0,0:0:0:0:
448,192,193947,1,0,0:0:0:0:
192,192,193947,1,0,0:0:0:0:
448,192,194064,1,2,0:0:0:0:
320,192,194064,1,0,0:0:0:30:S2.wav
64,192,194064,1,0,0:0:0:0:
192,192,194181,1,0,0:0:0:0:
320,192,194299,1,0,0:0:0:0:
64,192,194299,1,0,0:0:0:0:
448,192,194416,1,0,0:0:0:0:
192,192,194416,1,0,0:0:0:0:
320,192,194533,1,2,0:0:0:0:
192,192,194533,1,0,0:0:0:0:
64,192,194533,1,0,0:0:0:0:
448,192,194650,1,0,0:0:0:0:
192,192,194767,1,0,0:0:0:0:
64,192,194767,1,0,0:0:0:0:
448,192,194885,1,0,0:0:0:0:
320,192,194885,1,0,0:0:0:0:
320,192,195002,1,2,0:0:0:0:
192,192,195002,1,0,0:0:0:30:S2.wav
64,192,195002,1,0,0:0:0:0:
448,192,195119,1,0,0:0:0:0:
192,192,195236,1,0,0:0:0:0:
64,192,195236,1,0,0:0:0:0:
448,192,195353,1,0,0:0:0:0:
320,192,195353,1,0,0:0:0:0:
64,192,195471,1,2,0:0:0:0:
192,192,195471,1,0,0:0:0:0:
448,192,195471,1,0,0:0:0:0:
320,192,195588,1,0,0:0:0:0:
64,192,195705,1,0,0:0:0:0:
448,192,195705,1,0,0:0:0:0:
192,192,195822,1,0,0:0:0:0:
320,192,195822,1,0,0:0:0:0:
64,192,195939,1,2,0:0:0:0:
192,192,195939,1,0,0:0:0:30:S2.wav
448,192,195939,1,0,0:0:0:0:
320,192,196056,1,0,0:0:0:0:
64,192,196174,1,0,0:0:0:0:
448,192,196174,1,0,0:0:0:0:
192,192,196291,1,0,0:0:0:0:
320,192,196291,1,0,0:0:0:0:
64,192,196408,1,2,0:0:0:0:
320,192,196408,1,0,0:0:0:0:
448,192,196408,1,0,0:0:0:0:
192,192,196525,1,0,0:0:0:0:
64,192,196642,1,0,0:0:0:0:
320,192,196642,1,0,0:0:0:0:
192,192,196760,1,0,0:0:0:0:
448,192,196760,1,0,0:0:0:0:
64,192,196877,1,2,0:0:0:0:
320,192,196877,1,0,0:0:0:30:S2.wav
448,192,196877,1,0,0:0:0:0:
192,192,196994,1,0,0:0:0:0:
64,192,197111,1,0,0:0:0:0:
320,192,197111,1,0,0:0:0:0:
192,192,197228,1,0,0:0:0:0:
448,192,197228,1,0,0:0:0:0:
64,192,197346,1,2,0:0:0:0:
320,192,197346,1,0,0:0:0:0:
448,192,197346,1,0,0:0:0:0:
192,192,197463,1,0,0:0:0:0:
448,192,197580,1,0,0:0:0:0:
320,192,197580,1,0,0:0:0:0:
64,192,197697,1,0,0:0:0:0:
192,192,197697,1,0,0:0:0:0:
64,192,197814,1,2,0:0:0:0:
320,192,197814,1,0,0:0:0:30:S2.wav
448,192,197814,1,0,0:0:0:0:
192,192,197931,1,0,0:0:0:0:
320,192,198049,1,0,0:0:0:0:
448,192,198049,1,0,0:0:0:0:
192,192,198166,1,0,0:0:0:0:
64,192,198166,1,0,0:0:0:0:
320,192,198283,1,2,0:0:0:0:
64,192,198283,1,0,0:0:0:0:
448,192,198283,1,0,0:0:0:0:
320,192,198400,1,0,0:0:0:30:S2.wav
448,192,198400,1,0,0:0:0:0:
64,192,198517,1,0,0:0:0:0:
192,192,198517,1,0,0:0:0:0:
320,192,198635,1,0,0:0:0:0:
448,192,198635,1,0,0:0:0:0:
192,192,198752,1,2,0:0:0:0:
448,192,198752,1,0,0:0:0:30:S2.wav
64,192,198752,1,0,0:0:0:0:
320,192,198869,1,0,0:0:0:0:
64,192,198986,1,0,0:0:0:0:
192,192,198986,1,0,0:0:0:0:
320,192,199103,1,0,0:0:0:30:S2.wav
448,192,199103,1,0,0:0:0:0:
320,192,199221,1,2,0:0:0:0:
192,192,199221,1,4,0:0:0:0:
64,192,199221,1,0,0:0:0:0:
448,192,199338,1,0,0:0:0:0:
192,192,199455,1,0,0:0:0:0:
64,192,199455,1,0,0:0:0:0:
320,192,199572,1,0,0:0:0:0:
448,192,199572,1,0,0:0:0:0:
320,192,199689,1,2,0:0:0:0:
192,192,199689,1,0,0:0:0:30:S2.wav
64,192,199689,1,0,0:0:0:0:
448,192,199806,1,0,0:0:0:0:
192,192,199924,1,0,0:0:0:0:
64,192,199924,1,0,0:0:0:0:
448,192,200041,1,0,0:0:0:0:
320,192,200041,1,0,0:0:0:0:
448,192,200158,1,2,0:0:0:0:
192,192,200158,1,0,0:0:0:0:
64,192,200158,1,0,0:0:0:0:
320,192,200275,1,0,0:0:0:0:
448,192,200392,1,0,0:0:0:0:
64,192,200392,1,0,0:0:0:0:
320,192,200510,1,0,0:0:0:0:
192,192,200510,1,0,0:0:0:0:
448,192,200627,1,2,0:0:0:0:
192,192,200627,1,0,0:0:0:30:S2.wav
64,192,200627,1,0,0:0:0:0:
320,192,200744,1,0,0:0:0:0:
448,192,200861,1,0,0:0:0:0:
64,192,200861,1,0,0:0:0:0:
320,192,200978,1,0,0:0:0:0:
192,192,200978,1,0,0:0:0:0:
448,192,201096,1,2,0:0:0:0:
320,192,201096,1,0,0:0:0:0:
64,192,201096,1,0,0:0:0:0:
192,192,201213,1,0,0:0:0:0:
320,192,201330,1,0,0:0:0:0:
64,192,201330,1,0,0:0:0:0:
448,192,201447,1,0,0:0:0:0:
192,192,201447,1,0,0:0:0:0:
448,192,201564,1,2,0:0:0:0:
320,192,201564,1,0,0:0:0:30:S2.wav
64,192,201564,1,0,0:0:0:0:
192,192,201681,1,0,0:0:0:0:
320,192,201799,1,0,0:0:0:0:
64,192,201799,1,0,0:0:0:0:
448,192,201916,1,0,0:0:0:0:
192,192,201916,1,0,0:0:0:0:
320,192,202033,1,2,0:0:0:0:
192,192,202033,1,0,0:0:0:0:
64,192,202033,1,0,0:0:0:0:
448,192,202150,1,0,0:0:0:0:
192,192,202267,1,0,0:0:0:0:
64,192,202267,1,0,0:0:0:0:
448,192,202385,1,0,0:0:0:0:
320,192,202385,1,0,0:0:0:0:
320,192,202502,1,2,0:0:0:0:
192,192,202502,1,0,0:0:0:30:S2.wav
64,192,202502,1,0,0:0:0:0:
448,192,202619,1,0,0:0:0:0:
192,192,202736,1,0,0:0:0:0:
64,192,202736,1,0,0:0:0:0:
448,192,202853,1,0,0:0:0:0:
320,192,202853,1,0,0:0:0:0:
448,192,202971,1,2,0:0:0:0:
192,192,202971,1,0,0:0:0:0:
64,192,202971,1,0,0:0:0:0:
320,192,203088,1,0,0:0:0:0:
448,192,203205,1,0,0:0:0:0:
64,192,203205,1,0,0:0:0:0:
320,192,203322,1,0,0:0:0:0:
192,192,203322,1,0,0:0:0:0:
448,192,203439,1,2,0:0:0:0:
192,192,203439,1,0,0:0:0:30:S2.wav
64,192,203439,1,0,0:0:0:0:
320,192,203556,1,0,0:0:0:0:
448,192,203674,1,0,0:0:0:0:
64,192,203674,1,0,0:0:0:0:
320,192,203791,1,0,0:0:0:0:
192,192,203791,1,0,0:0:0:0:
448,192,203908,1,2,0:0:0:0:
320,192,203908,1,0,0:0:0:0:
64,192,203908,1,0,0:0:0:0:
192,192,204025,1,0,0:0:0:0:
320,192,204142,1,0,0:0:0:0:
64,192,204142,1,0,0:0:0:0:
448,192,204260,1,0,0:0:0:0:
192,192,204260,1,0,0:0:0:0:
448,192,204377,1,2,0:0:0:0:
320,192,204377,1,0,0:0:0:30:S2.wav
64,192,204377,1,0,0:0:0:0:
192,192,204494,1,0,0:0:0:0:
320,192,204611,1,0,0:0:0:0:
64,192,204611,1,0,0:0:0:0:
448,192,204728,1,0,0:0:0:0:
192,192,204728,1,0,0:0:0:0:
448,192,204846,1,2,0:0:0:0:
320,192,204846,1,0,0:0:0:0:
64,192,204846,1,0,0:0:0:0:
192,192,204963,1,0,0:0:0:0:
448,192,205080,1,0,0:0:0:0:
320,192,205080,1,0,0:0:0:0:
192,192,205197,1,0,0:0:0:0:
64,192,205197,1,0,0:0:0:0:
448,192,205314,1,2,0:0:0:0:
320,192,205314,1,0,0:0:0:30:S2.wav
64,192,205314,1,0,0:0:0:0:
448,192,205431,1,0,0:0:0:30:S2.wav
320,192,205431,1,0,0:0:0:0:
192,192,205549,1,0,0:0:0:0:
64,192,205549,1,0,0:0:0:0:
448,192,205666,1,0,0:0:0:0:
320,192,205666,1,0,0:0:0:0:
448,192,205783,1,2,0:0:0:0:
192,192,205783,1,0,0:0:0:0:
64,192,205783,1,0,0:0:0:0:
320,192,205900,1,0,0:0:0:0:
192,192,206017,1,0,0:0:0:0:
64,192,206017,1,0,0:0:0:0:
448,192,206135,1,0,0:0:0:0:
320,192,206135,1,0,0:0:0:0:
64,192,206252,1,0,0:0:0:0:
448,192,206252,128,0,206486:0:0:0:0:
64,192,206486,128,0,206721:0:0:0:0:
192,192,206486,1,0,0:0:0:0:
448,192,206721,1,2,0:0:0:0:
320,192,206721,1,4,0:0:0:0:
192,192,206721,1,0,0:0:0:0:
64,192,206838,1,0,0:0:0:0:
448,192,206955,1,0,0:0:0:0:
320,192,206955,1,0,0:0:0:0:
192,192,207072,1,0,0:0:0:0:
64,192,207072,1,0,0:0:0:0:
448,192,207189,1,2,0:0:0:0:
320,192,207189,1,0,0:0:0:30:S2.wav
192,192,207189,1,0,0:0:0:0:
64,192,207306,1,0,0:0:0:0:
448,192,207424,1,0,0:0:0:0:
320,192,207424,1,0,0:0:0:0:
192,192,207541,1,0,0:0:0:0:
64,192,207541,1,0,0:0:0:0:
448,192,207658,1,2,0:0:0:0:
320,192,207658,1,0,0:0:0:0:
64,192,207658,1,0,0:0:0:0:
192,192,207775,1,0,0:0:0:0:
448,192,207892,1,0,0:0:0:0:
64,192,207892,1,0,0:0:0:0:
320,192,208010,1,0,0:0:0:0:
192,192,208010,1,0,0:0:0:0:
448,192,208127,1,2,0:0:0:0:
320,192,208127,1,0,0:0:0:30:S2.wav
64,192,208127,1,0,0:0:0:0:
192,192,208244,1,0,0:0:0:0:
448,192,208361,1,0,0:0:0:0:
64,192,208361,1,0,0:0:0:0:
320,192,208478,1,0,0:0:0:0:
192,192,208478,1,0,0:0:0:0:
448,192,208596,1,2,0:0:0:0:
192,192,208596,1,0,0:0:0:0:
64,192,208596,1,0,0:0:0:0:
320,192,208713,1,0,0:0:0:0:
448,192,208830,1,0,0:0:0:0:
192,192,208830,1,0,0:0:0:0:
320,192,208947,1,0,0:0:0:0:
64,192,208947,1,0,0:0:0:0:
448,192,209064,1,2,0:0:0:0:
192,192,209064,1,0,0:0:0:30:S2.wav
64,192,209064,1,0,0:0:0:0:
320,192,209181,1,0,0:0:0:0:
448,192,209299,1,0,0:0:0:0:
192,192,209299,1,0,0:0:0:0:
320,192,209416,1,0,0:0:0:0:
64,192,209416,1,0,0:0:0:0:
448,192,209533,1,2,0:0:0:0:
320,192,209533,1,0,0:0:0:0:
192,192,209533,1,0,0:0:0:0:
64,192,209650,1,0,0:0:0:0:
448,192,209767,1,0,0:0:0:0:
320,192,209767,1,0,0:0:0:0:
192,192,209885,1,0,0:0:0:0:
64,192,209885,1,0,0:0:0:0:
448,192,210002,1,2,0:0:0:0:
320,192,210002,1,0,0:0:0:30:S2.wav
192,192,210002,1,0,0:0:0:0:
64,192,210119,1,0,0:0:0:0:
448,192,210236,1,0,0:0:0:0:
320,192,210236,1,0,0:0:0:0:
192,192,210353,1,0,0:0:0:0:
64,192,210353,1,0,0:0:0:0:
448,192,210471,1,2,0:0:0:0:
320,192,210471,1,0,0:0:0:0:
64,192,210471,1,0,0:0:0:0:
192,192,210588,1,0,0:0:0:0:
448,192,210705,1,0,0:0:0:0:
64,192,210705,1,0,0:0:0:0:
320,192,210822,1,0,0:0:0:0:
192,192,210822,1,0,0:0:0:0:
448,192,210939,1,2,0:0:0:0:
320,192,210939,1,0,0:0:0:30:S2.wav
64,192,210939,1,0,0:0:0:0:
192,192,211056,1,0,0:0:0:0:
448,192,211174,1,0,0:0:0:0:
64,192,211174,1,0,0:0:0:0:
320,192,211291,1,0,0:0:0:0:
192,192,211291,1,0,0:0:0:0:
448,192,211408,1,2,0:0:0:0:
192,192,211408,1,0,0:0:0:0:
64,192,211408,1,0,0:0:0:0:
320,192,211525,1,0,0:0:0:0:
448,192,211642,1,0,0:0:0:0:
192,192,211642,1,0,0:0:0:0:
320,192,211760,1,0,0:0:0:0:
64,192,211760,1,0,0:0:0:0:
448,192,211877,1,2,0:0:0:0:
192,192,211877,1,0,0:0:0:30:S2.wav
64,192,211877,1,0,0:0:0:0:
320,192,211994,1,0,0:0:0:0:
448,192,212111,1,0,0:0:0:0:
192,192,212111,1,0,0:0:0:0:
320,192,212228,1,0,0:0:0:0:
64,192,212228,1,0,0:0:0:0:
448,192,212346,1,2,0:0:0:0:
320,192,212346,1,0,0:0:0:0:
192,192,212346,1,0,0:0:0:0:
64,192,212463,1,0,0:0:0:0:
448,192,212580,1,0,0:0:0:0:
320,192,212580,1,0,0:0:0:0:
192,192,212697,1,0,0:0:0:0:
64,192,212697,1,0,0:0:0:0:
320,192,212814,1,2,0:0:0:0:
64,192,212814,1,0,0:0:0:30:S2.wav
448,192,212814,1,0,0:0:0:0:
192,192,212931,1,0,0:0:0:0:
448,192,213049,1,0,0:0:0:0:
320,192,213049,1,0,0:0:0:0:
192,192,213166,1,0,0:0:0:0:
64,192,213166,1,0,0:0:0:0:
448,192,213283,1,0,0:0:0:0:
64,192,213283,1,0,0:0:0:0:
320,192,213283,1,2,0:0:0:0:
320,192,213400,1,0,0:0:0:30:S2.wav
448,192,213400,1,0,0:0:0:0:
64,192,213517,1,0,0:0:0:0:
192,192,213517,1,0,0:0:0:0:
448,192,213635,1,0,0:0:0:0:
320,192,213635,1,0,0:0:0:0:
64,192,213752,1,2,0:0:0:0:
192,192,213752,1,0,0:0:0:30:S2.wav
448,192,213752,1,0,0:0:0:0:
64,192,213869,1,0,0:0:0:30:S2.wav
192,192,213869,1,0,0:0:0:0:
320,192,213986,1,0,0:0:0:0:
448,192,213986,1,0,0:0:0:0:
192,192,214103,1,0,0:0:0:30:S2.wav
64,192,214103,1,0,0:0:0:0:
448,192,214221,1,2,0:0:0:0:
320,192,214221,1,4,0:0:0:0:
64,192,214221,1,0,0:0:0:0:
192,192,214338,1,0,0:0:0:0:
448,192,214455,1,0,0:0:0:0:
320,192,214455,1,0,0:0:0:0:
192,192,214572,1,2,0:0:0:0:
64,192,214572,1,0,0:0:0:0:
448,192,214689,1,0,0:0:0:30:S2.wav
320,192,214689,1,0,0:0:0:0:
64,192,214689,1,0,0:0:0:0:
192,192,214806,1,0,0:0:0:0:
448,192,214924,1,2,0:0:0:0:
64,192,214924,1,0,0:0:0:0:
320,192,215041,1,0,0:0:0:0:
448,192,215158,1,0,0:0:0:0:
64,192,215158,1,0,0:0:0:0:
192,192,215275,1,0,0:0:0:0:
448,192,215392,1,2,0:0:0:0:
320,192,215392,1,0,0:0:0:0:
64,192,215510,1,0,0:0:0:0:
192,192,215627,1,2,0:0:0:0:
64,192,215627,1,0,0:0:0:30:S2.wav
448,192,215627,1,0,0:0:0:0:
320,192,215744,1,0,0:0:0:0:
192,192,215861,1,2,0:0:0:0:
64,192,215861,1,0,0:0:0:0:
448,192,215978,1,0,0:0:0:0:
320,192,216096,1,0,0:0:0:0:
192,192,216096,1,2,0:0:0:0:
64,192,216096,1,4,0:0:0:0:
448,192,216213,1,0,0:0:0:0:
192,192,216330,1,0,0:0:0:0:
64,192,216330,1,0,0:0:0:0:
448,192,216447,1,2,0:0:0:0:
320,192,216447,1,0,0:0:0:0:
64,192,216564,1,0,0:0:0:30:S2.wav
192,192,216564,1,0,0:0:0:0:
448,192,216564,1,0,0:0:0:0:
320,192,216681,1,0,0:0:0:0:
448,192,216799,1,2,0:0:0:0:
64,192,216799,1,0,0:0:0:0:
192,192,216916,1,0,0:0:0:0:
448,192,217033,1,0,0:0:0:0:
64,192,217033,1,0,0:0:0:0:
320,192,217150,1,0,0:0:0:0:
192,192,217267,1,2,0:0:0:0:
64,192,217267,1,0,0:0:0:0:
448,192,217385,1,0,0:0:0:0:
320,192,217502,1,2,0:0:0:0:
448,192,217502,1,0,0:0:0:30:S2.wav
64,192,217502,1,0,0:0:0:0:
192,192,217619,1,0,0:0:0:0:
448,192,217736,1,2,0:0:0:0:
320,192,217736,1,0,0:0:0:30:S2.wav
64,192,217853,1,0,0:0:0:30:S2.wav
192,192,217853,1,0,0:0:0:0:
448,192,217971,1,4,0:0:0:0:
320,192,217971,1,2,0:0:0:0:
192,192,217971,1,0,0:0:0:0:
192,192,218088,1,0,0:0:0:0:
448,192,218205,1,2,0:0:0:0:
320,192,218205,1,0,0:0:0:0:
64,192,218205,1,0,0:0:0:0:
320,192,218322,1,0,0:0:0:0:
448,192,218439,1,2,0:0:0:0:
192,192,218439,1,4,0:0:0:0:
64,192,218439,1,0,0:0:0:30:S2.wav
448,192,218556,1,0,0:0:0:0:
64,192,218674,1,2,0:0:0:0:
192,192,218674,1,0,0:0:0:30:S2.wav
320,192,218674,1,0,0:0:0:0:
448,192,218791,1,0,0:0:0:30:S2.wav
64,192,218791,1,0,0:0:0:0:
448,192,218908,1,2,0:0:0:0:
320,192,218908,1,4,0:0:0:0:
192,192,218908,1,0,0:0:0:0:
192,192,219025,1,0,0:0:0:0:
448,192,219142,1,2,0:0:0:0:
320,192,219142,1,0,0:0:0:30:S2.wav
64,192,219142,1,0,0:0:0:0:
320,192,219260,1,0,0:0:0:0:
448,192,219377,1,2,0:0:0:0:
192,192,219377,1,0,0:0:0:0:
64,192,219377,1,0,0:0:0:0:
448,192,219494,1,0,0:0:0:0:
64,192,219611,1,2,0:0:0:0:
192,192,219611,1,0,0:0:0:30:S2.wav
320,192,219611,1,0,0:0:0:0:
64,192,219728,1,2,0:0:0:0:
448,192,219728,1,0,0:0:0:30:S2.wav
192,192,219846,1,4,0:0:0:0:
320,192,219846,1,2,0:0:0:0:
448,192,219846,1,0,0:0:0:0:
64,192,219963,1,2,0:0:0:0:
192,192,219963,1,0,0:0:0:0:
320,192,220080,1,2,0:0:0:0:
448,192,220080,1,0,0:0:0:0:
64,192,220197,1,2,0:0:0:0:
448,192,220197,1,0,0:0:0:0:
64,192,220314,1,2,0:0:0:0:
192,192,220314,1,4,0:0:0:0:
320,192,220314,1,0,0:0:0:30:S2.wav
320,192,220431,1,2,0:0:0:0:
448,192,220431,1,0,0:0:0:0:
64,192,220549,1,2,0:0:0:0:
192,192,220549,1,0,0:0:0:0:
320,192,220666,1,0,0:0:0:0:
448,192,220666,1,2,0:0:0:0:
64,192,220724,1,0,0:0:0:0:
192,192,220724,1,2,0:0:0:0:
448,192,220783,128,2,221721:0:0:0:0:
320,192,220783,1,0,0:0:0:50:SFX Big Square Drop.wav
64,192,221721,128,6,223596:0:0:0:0:
320,192,221721,1,0,0:0:0:70:C#4S_Db4S_s.wav
192,192,221721,1,0,0:0:0:70:E5S.wav
320,192,222189,1,0,0:0:0:0:
448,192,222346,1,0,0:0:0:0:
192,192,222502,1,0,0:0:0:0:
320,192,222658,1,2,0:0:0:0:
448,192,222658,1,0,0:0:0:0:
320,192,223127,1,0,0:0:0:0:
448,192,223283,1,0,0:0:0:0:
192,192,223439,1,0,0:0:0:0:
320,192,223596,1,2,0:0:0:0:
448,192,223596,128,0,225471:0:0:0:70:E4S_s.wav
192,192,224064,1,0,0:0:0:0:
64,192,224221,1,0,0:0:0:0:
320,192,224377,1,0,0:0:0:0:
64,192,224533,1,2,0:0:0:0:
192,192,224533,1,0,0:0:0:0:
192,192,225002,1,0,0:0:0:0:
64,192,225158,1,0,0:0:0:0:
320,192,225314,1,0,0:0:0:0:
64,192,225471,1,6,0:0:0:0:
192,192,225471,128,0,227346:0:0:0:70:C4S_s.wav
320,192,225471,1,0,0:0:0:70:D#5S_Eb5S.wav
320,192,225939,1,0,0:0:0:0:
448,192,226096,1,0,0:0:0:0:
64,192,226252,1,0,0:0:0:0:
320,192,226408,1,2,0:0:0:0:
448,192,226408,1,0,0:0:0:0:
320,192,226877,1,0,0:0:0:0:
448,192,227033,1,0,0:0:0:0:
64,192,227189,1,0,0:0:0:0:
320,192,227346,128,2,229221:0:0:0:0:
448,192,227346,1,0,0:0:0:70:D#5S_Eb5S.wav
192,192,227814,1,0,0:0:0:0:
64,192,227971,1,0,0:0:0:0:
448,192,228127,1,0,0:0:0:0:
64,192,228283,1,2,0:0:0:0:
192,192,228283,1,0,0:0:0:0:
192,192,228752,1,0,0:0:0:0:
64,192,228908,1,0,0:0:0:0:
448,192,229064,1,0,0:0:0:0:
64,192,229221,128,6,231096:0:0:0:0:
192,192,229221,1,0,0:0:0:70:E5S.wav
448,192,229221,1,0,0:0:0:70:G5S.wav
192,192,229689,1,0,0:0:0:0:
448,192,229846,1,0,0:0:0:0:
320,192,230002,1,0,0:0:0:0:
192,192,230158,1,2,0:0:0:0:
448,192,230158,1,0,0:0:0:0:
192,192,230627,1,0,0:0:0:0:
448,192,230783,1,0,0:0:0:0:
320,192,230939,1,0,0:0:0:0:
192,192,231096,128,2,232971:0:0:0:0:
448,192,231096,1,0,0:0:0:70:G5S.wav
64,192,231564,1,0,0:0:0:0:
320,192,231721,1,0,0:0:0:0:
448,192,231877,1,0,0:0:0:0:
64,192,232033,1,2,0:0:0:0:
320,192,232033,1,0,0:0:0:0:
64,192,232502,1,0,0:0:0:0:
320,192,232658,1,0,0:0:0:0:
448,192,232814,1,0,0:0:0:0:
64,192,232971,1,6,0:0:0:0:
320,192,232971,128,0,234846:0:0:0:70:F#5S_Gb5S.wav
448,192,232971,1,0,0:0:0:70:D#5S_Eb5S.wav
448,192,233439,1,0,0:0:0:0:
64,192,233596,1,0,0:0:0:0:
192,192,233752,1,0,0:0:0:0:
64,192,233908,1,2,0:0:0:0:
448,192,233908,1,0,0:0:0:0:
448,192,234377,1,0,0:0:0:0:
64,192,234533,1,0,0:0:0:0:
192,192,234689,1,0,0:0:0:0:
64,192,234846,1,2,0:0:0:0:
448,192,234846,128,0,236721:0:0:0:70:F#5S_Gb5S.wav
192,192,235314,1,0,0:0:0:0:
64,192,235471,1,0,0:0:0:0:
320,192,235627,1,0,0:0:0:0:
64,192,235783,1,0,0:0:0:0:
192,192,235783,1,0,0:0:0:0:
192,192,236252,1,0,0:0:0:0:
64,192,236408,1,0,0:0:0:0:
320,192,236564,1,0,0:0:0:0:
64,192,236721,128,6,238596:0:0:0:0:
192,192,236721,1,0,0:0:0:70:E5S.wav
320,192,236721,1,0,0:0:0:70:C#4S_Db4S_s.wav
448,192,237189,1,0,0:0:0:0:
320,192,237346,1,0,0:0:0:0:
192,192,237502,1,0,0:0:0:0:
192,192,237658,1,2,0:0:0:0:
448,192,237658,1,0,0:0:0:0:
192,192,238127,1,0,0:0:0:0:
448,192,238127,1,0,0:0:0:0:
320,192,238283,1,0,0:0:0:0:
192,192,238439,1,0,0:0:0:0:
192,192,238596,1,2,0:0:0:0:
448,192,238596,128,0,240471:0:0:0:70:E4S_s.wav
64,192,239064,1,0,0:0:0:0:
192,192,239221,1,0,0:0:0:0:
320,192,239377,1,0,0:0:0:0:
64,192,239533,1,0,0:0:0:0:
320,192,239533,1,0,0:0:0:0:
64,192,240002,1,0,0:0:0:0:
320,192,240002,1,0,0:0:0:0:
192,192,240158,1,0,0:0:0:0:
320,192,240314,1,0,0:0:0:0:
64,192,240471,1,6,0:0:0:0:
192,192,240471,128,0,242346:0:0:0:70:C4S_s.wav
320,192,240471,1,0,0:0:0:70:D#5S_Eb5S.wav
448,192,240939,1,0,0:0:0:0:
320,192,241096,1,0,0:0:0:0:
64,192,241252,1,0,0:0:0:0:
64,192,241408,1,2,0:0:0:0:
320,192,241408,1,0,0:0:0:0:
64,192,241877,1,0,0:0:0:0:
448,192,241877,1,0,0:0:0:0:
320,192,242033,1,0,0:0:0:0:
64,192,242189,1,0,0:0:0:0:
64,192,242346,1,2,0:0:0:0:
320,192,242346,128,0,244221:0:0:0:70:D#5S_Eb5S.wav
64,192,242814,1,0,0:0:0:0:
192,192,242971,1,0,0:0:0:0:
448,192,243127,1,0,0:0:0:0:
64,192,243283,1,2,0:0:0:0:
448,192,243283,1,0,0:0:0:0:
64,192,243752,1,0,0:0:0:0:
448,192,243752,1,0,0:0:0:0:
192,192,243908,1,0,0:0:0:0:
448,192,244064,1,0,0:0:0:0:
64,192,244221,128,6,246096:0:0:0:0:
192,192,244221,1,0,0:0:0:70:E5S.wav
448,192,244221,1,0,0:0:0:70:G5S.wav
320,192,244689,1,0,0:0:0:0:
448,192,244846,1,0,0:0:0:0:
192,192,245002,1,0,0:0:0:0:
192,192,245158,1,2,0:0:0:0:
448,192,245158,1,0,0:0:0:0:
192,192,245627,1,0,0:0:0:0:
448,192,245627,1,0,0:0:0:0:
320,192,245783,1,0,0:0:0:0:
448,192,245939,1,0,0:0:0:0:
192,192,246096,128,2,247971:0:0:0:0:
448,192,246096,1,0,0:0:0:70:G5S.wav
320,192,246564,1,0,0:0:0:0:
64,192,246721,1,0,0:0:0:0:
448,192,246877,1,0,0:0:0:0:
448,192,247033,1,2,0:0:0:0:
320,192,247033,1,0,0:0:0:0:
320,192,247502,1,0,0:0:0:0:
448,192,247502,1,0,0:0:0:0:
64,192,247658,1,0,0:0:0:0:
320,192,247814,1,0,0:0:0:0:
64,192,247971,1,6,0:0:0:0:
320,192,247971,1,0,0:0:0:70:F#5S_Gb5S.wav
448,192,247971,128,0,249846:0:0:0:70:D#5S_Eb5S.wav
64,192,248439,1,0,0:0:0:0:
192,192,248596,1,0,0:0:0:0:
320,192,248752,1,0,0:0:0:0:
64,192,248908,1,2,0:0:0:0:
320,192,248908,1,0,0:0:0:0:
64,192,249377,1,0,0:0:0:0:
320,192,249377,1,0,0:0:0:0:
192,192,249533,1,0,0:0:0:0:
64,192,249689,1,0,0:0:0:0:
64,192,249846,1,2,0:0:0:0:
320,192,249846,128,0,251721:0:0:0:70:F#5S_Gb5S.wav
64,192,250314,1,0,0:0:0:0:
192,192,250471,1,0,0:0:0:0:
448,192,250627,1,0,0:0:0:0:
64,192,250783,1,0,0:0:0:0:
448,192,250783,1,0,0:0:0:0:
64,192,251252,1,0,0:0:0:0:
448,192,251408,1,0,0:0:0:0:
192,192,251564,1,0,0:0:0:0:
64,192,251721,128,2,252189:0:0:0:0:
192,192,251721,1,4,0:0:0:0:
448,192,251721,128,0,251838:0:0:0:70:C#6S_Db6S_s.wav
320,192,251838,128,0,251955:0:0:0:0:
192,192,251955,128,0,252072:0:0:0:0:
448,192,252072,128,0,252189:0:0:0:0:
192,192,252189,1,2,0:0:0:0:
320,192,252189,128,8,252424:0:0:0:0:
64,192,252306,128,0,252424:0:0:0:0:
448,192,252424,128,0,252658:0:0:0:0:
192,192,252541,128,0,252658:0:0:0:0:
64,192,252658,128,2,252892:0:0:0:0:
320,192,252658,1,0,0:0:0:0:
320,192,252775,128,0,252892:0:0:0:0:
448,192,252892,128,0,253127:0:0:0:0:
192,192,253010,128,0,253127:0:0:0:0:
64,192,253127,1,2,0:0:0:0:
320,192,253127,128,0,253361:0:0:0:0:
64,192,253244,128,0,253361:0:0:0:0:
192,192,253361,128,0,253596:0:0:0:0:
320,192,253478,128,0,253596:0:0:0:0:
64,192,253596,128,2,253713:0:0:0:0:
448,192,253596,128,0,254064:0:0:0:70:E6S_s.wav
192,192,253713,128,0,253830:0:0:0:0:
320,192,253830,128,0,253947:0:0:0:0:
64,192,253947,128,0,254064:0:0:0:0:
192,192,254064,128,2,254299:0:0:0:0:
320,192,254064,1,8,0:0:0:0:
448,192,254181,128,0,254299:0:0:0:0:
64,192,254299,128,0,254533:0:0:0:0:
320,192,254416,128,0,254533:0:0:0:0:
192,192,254533,1,2,0:0:0:0:
448,192,254533,128,0,254767:0:0:0:0:
192,192,254650,128,0,254767:0:0:0:0:
64,192,254767,128,0,255002:0:0:0:0:
320,192,254885,128,0,255002:0:0:0:0:
192,192,255002,128,2,255236:0:0:0:0:
448,192,255002,1,0,0:0:0:0:
448,192,255119,128,0,255236:0:0:0:0:
320,192,255236,128,0,255471:0:0:0:0:
192,192,255353,128,0,255471:0:0:0:0:
64,192,255471,128,2,255939:0:0:0:0:
448,192,255471,128,0,255588:0:0:0:70:C6S_s.wav
320,192,255588,128,0,255705:0:0:0:0:
192,192,255705,128,0,255822:0:0:0:0:
448,192,255822,128,0,255939:0:0:0:0:
192,192,255939,1,2,0:0:0:0:
320,192,255939,128,8,256174:0:0:0:0:
64,192,256056,128,0,256174:0:0:0:0:
448,192,256174,128,0,256408:0:0:0:0:
192,192,256291,128,0,256408:0:0:0:0:
64,192,256408,128,2,256642:0:0:0:0:
320,192,256408,1,0,0:0:0:0:
320,192,256525,128,0,256642:0:0:0:0:
448,192,256642,128,0,256877:0:0:0:0:
192,192,256760,128,0,256877:0:0:0:0:
64,192,256877,1,2,0:0:0:0:
320,192,256877,128,0,257111:0:0:0:0:
64,192,256994,128,0,257111:0:0:0:0:
192,192,257111,128,0,257346:0:0:0:0:
320,192,257228,128,0,257346:0:0:0:0:
64,192,257346,128,2,257463:0:0:0:0:
448,192,257346,128,0,257814:0:0:0:70:D#6S_Eb6S_s.wav
192,192,257463,128,0,257580:0:0:0:0:
320,192,257580,128,0,257697:0:0:0:0:
64,192,257697,128,0,257814:0:0:0:0:
192,192,257814,128,2,258049:0:0:0:0:
320,192,257814,1,8,0:0:0:0:
448,192,257931,128,0,258049:0:0:0:0:
64,192,258049,128,0,258283:0:0:0:0:
320,192,258166,128,0,258283:0:0:0:0:
192,192,258283,1,2,0:0:0:0:
448,192,258283,128,0,258517:0:0:0:0:
192,192,258400,128,0,258517:0:0:0:0:
64,192,258517,128,0,258752:0:0:0:0:
320,192,258635,128,0,258752:0:0:0:0:
192,192,258752,128,2,258986:0:0:0:0:
448,192,258752,1,0,0:0:0:0:
448,192,258869,128,0,258986:0:0:0:0:
64,192,258986,128,0,259103:0:0:0:0:
320,192,259103,128,0,259221:0:0:0:0:
64,192,259221,128,2,259689:0:0:0:0:
192,192,259221,1,4,0:0:0:0:
448,192,259221,128,0,259338:0:0:0:70:E6S_s.wav
320,192,259338,128,0,259455:0:0:0:0:
192,192,259455,128,0,259572:0:0:0:0:
448,192,259572,128,0,259689:0:0:0:0:
192,192,259689,1,2,0:0:0:0:
320,192,259689,128,8,259924:0:0:0:0:
64,192,259806,128,0,259924:0:0:0:0:
448,192,259924,128,0,260158:0:0:0:0:
192,192,260041,128,0,260158:0:0:0:0:
64,192,260158,128,2,260392:0:0:0:0:
320,192,260158,1,0,0:0:0:0:
320,192,260275,128,0,260392:0:0:0:0:
448,192,260392,128,0,260627:0:0:0:0:
192,192,260510,128,0,260627:0:0:0:0:
64,192,260627,1,2,0:0:0:0:
320,192,260627,128,0,260861:0:0:0:0:
64,192,260744,128,0,260861:0:0:0:0:
192,192,260861,128,0,261096:0:0:0:0:
320,192,260978,128,0,261096:0:0:0:0:
64,192,261096,128,2,261213:0:0:0:0:
448,192,261096,128,0,261564:0:0:0:70:G6S_s.wav
192,192,261213,128,0,261330:0:0:0:0:
320,192,261330,128,0,261447:0:0:0:0:
64,192,261447,128,0,261564:0:0:0:0:
192,192,261564,128,2,261799:0:0:0:0:
320,192,261564,1,8,0:0:0:0:
448,192,261681,128,0,261799:0:0:0:0:
64,192,261799,128,0,262033:0:0:0:0:
320,192,261916,128,0,262033:0:0:0:0:
192,192,262033,1,2,0:0:0:0:
448,192,262033,128,0,262267:0:0:0:0:
192,192,262150,128,0,262267:0:0:0:0:
64,192,262267,128,0,262502:0:0:0:0:
320,192,262385,128,0,262502:0:0:0:0:
192,192,262502,128,2,262736:0:0:0:0:
448,192,262502,1,0,0:0:0:0:
448,192,262619,128,0,262736:0:0:0:0:
320,192,262736,128,0,262971:0:0:0:0:
192,192,262853,128,0,262971:0:0:0:0:
64,192,262971,128,2,263439:0:0:0:0:
448,192,262971,128,0,263088:0:0:0:70:D#6S_Eb6S_s.wav
320,192,263088,128,0,263205:0:0:0:0:
192,192,263205,128,0,263322:0:0:0:0:
448,192,263322,128,0,263439:0:0:0:0:
192,192,263439,1,8,0:0:0:0:
320,192,263439,128,2,263674:0:0:0:0:
64,192,263556,128,0,263674:0:0:0:0:
448,192,263674,128,0,263908:0:0:0:0:
192,192,263791,128,0,263908:0:0:0:0:
64,192,263908,128,2,264142:0:0:0:0:
320,192,263908,1,0,0:0:0:0:
320,192,264025,128,0,264142:0:0:0:0:
448,192,264142,128,0,264377:0:0:0:0:
192,192,264260,128,0,264377:0:0:0:0:
64,192,264377,1,2,0:0:0:0:
320,192,264377,128,0,264611:0:0:0:0:
64,192,264494,128,0,264611:0:0:0:0:
192,192,264611,128,0,264846:0:0:0:0:
320,192,264728,128,0,264846:0:0:0:0:
64,192,264846,128,2,264963:0:0:0:0:
448,192,264846,128,0,265314:0:0:0:70:F#6S_Gb6S_s.wav
192,192,264963,128,0,265080:0:0:0:0:
320,192,265080,128,0,265197:0:0:0:0:
64,192,265197,128,0,265314:0:0:0:0:
192,192,265314,128,8,265549:0:0:0:0:
320,192,265314,1,2,0:0:0:0:
448,192,265431,128,0,265549:0:0:0:0:
64,192,265549,128,0,265783:0:0:0:0:
320,192,265666,128,0,265783:0:0:0:0:
192,192,265783,1,2,0:0:0:0:
448,192,265783,128,0,266017:0:0:0:0:
192,192,265900,128,0,266017:0:0:0:0:
64,192,266017,128,0,266252:0:0:0:0:
320,192,266135,128,0,266252:0:0:0:0:
192,192,266252,128,0,266486:0:0:0:0:
448,192,266252,1,0,0:0:0:0:
448,192,266369,128,0,266486:0:0:0:0:
320,192,266486,128,0,266603:0:0:0:0:
192,192,266603,128,0,266721:0:0:0:0:
64,192,266721,128,2,267072:0:0:0:0:
320,192,266721,1,4,0:0:0:0:
448,192,266721,128,0,266955:0:0:0:70:C#6S_Db6S_s.wav
192,192,266838,128,0,266955:0:0:0:0:
320,192,266955,128,0,267189:0:0:0:0:
448,192,267072,128,0,267189:0:0:0:0:
64,192,267189,1,2,0:0:0:0:
192,192,267189,128,8,267424:0:0:0:0:
320,192,267306,128,0,267424:0:0:0:0:
64,192,267424,128,0,267658:0:0:0:0:
448,192,267541,128,0,267658:0:0:0:0:
192,192,267658,128,2,267892:0:0:0:0:
320,192,267658,1,0,0:0:0:0:
64,192,267775,128,0,268010:0:0:0:0:
320,192,267892,128,0,268127:0:0:0:0:
192,192,268010,128,0,268244:0:0:0:0:
448,192,268127,128,0,268478:0:0:0:0:
64,192,268127,1,2,0:0:0:0:
320,192,268244,128,0,268478:0:0:0:0:
192,192,268361,128,0,268596:0:0:0:0:
64,192,268478,128,0,268596:0:0:0:0:
448,192,268596,128,0,268947:0:0:0:70:E6S_s.wav
320,192,268596,128,2,268830:0:0:0:0:
64,192,268713,128,0,268830:0:0:0:0:
192,192,268830,128,0,269064:0:0:0:0:
64,192,268947,128,0,269064:0:0:0:0:
320,192,269064,128,2,269299:0:0:0:0:
448,192,269064,1,8,0:0:0:0:
192,192,269181,128,0,269299:0:0:0:0:
448,192,269299,128,0,269533:0:0:0:0:
320,192,269416,128,0,269533:0:0:0:0:
192,192,269533,1,2,0:0:0:0:
64,192,269533,128,0,269767:0:0:0:0:
192,192,269650,128,0,269885:0:0:0:0:
320,192,269767,128,0,270002:0:0:0:0:
448,192,269885,128,0,270002:0:0:0:0:
64,192,270002,128,0,270119:0:0:0:0:
192,192,270002,128,0,270119:0:0:0:0:
448,192,270119,128,0,270236:0:0:0:0:
192,192,270236,128,0,270353:0:0:0:0:
320,192,270353,128,0,270471:0:0:0:0:
448,192,270471,128,0,270822:0:0:0:70:C6S_s.wav
64,192,270471,128,2,270705:0:0:0:0:
320,192,270588,128,0,270705:0:0:0:0:
192,192,270705,128,0,270939:0:0:0:0:
64,192,270822,128,0,270939:0:0:0:0:
320,192,270939,128,2,271174:0:0:0:0:
448,192,270939,1,8,0:0:0:0:
192,192,271056,128,0,271174:0:0:0:0:
448,192,271174,128,0,271408:0:0:0:0:
64,192,271291,128,0,271408:0:0:0:0:
192,192,271408,1,2,0:0:0:0:
320,192,271408,128,0,271642:0:0:0:0:
448,192,271525,128,0,271760:0:0:0:0:
192,192,271642,128,0,271877:0:0:0:0:
320,192,271760,128,0,271994:0:0:0:0:
64,192,271877,128,2,272228:0:0:0:0:
448,192,271877,1,0,0:0:0:0:
192,192,271994,128,0,272228:0:0:0:0:
320,192,272111,128,0,272346:0:0:0:0:
448,192,272228,128,0,272346:0:0:0:0:
64,192,272346,128,2,272697:0:0:0:0:
192,192,272346,128,0,272580:0:0:0:70:D#6S_Eb6S_s.wav
448,192,272463,128,0,272580:0:0:0:0:
320,192,272580,128,0,272814:0:0:0:0:
448,192,272697,128,0,272814:0:0:0:0:
64,192,272814,1,2,0:0:0:0:
192,192,272814,128,8,273049:0:0:0:0:
320,192,272931,128,0,273049:0:0:0:0:
64,192,273049,128,0,273283:0:0:0:0:
192,192,273166,128,0,273283:0:0:0:0:
448,192,273283,128,2,273517:0:0:0:0:
320,192,273283,1,0,0:0:0:0:
320,192,273400,128,0,273635:0:0:0:0:
192,192,273517,128,0,273752:0:0:0:0:
64,192,273635,128,0,273752:0:0:0:0:
448,192,273752,128,0,273869:0:0:0:0:
320,192,273752,128,0,273869:0:0:0:0:
64,192,273869,128,0,273986:0:0:0:0:
320,192,273986,128,0,274103:0:0:0:0:
192,192,274103,128,0,274221:0:0:0:0:
64,192,274221,128,2,274572:0:0:0:0:
320,192,274221,1,4,0:0:0:0:
448,192,274221,128,0,274338:0:0:0:70:E6S_s.wav
192,192,274338,128,0,274455:0:0:0:0:
320,192,274455,128,0,274572:0:0:0:0:
448,192,274572,128,0,274689:0:0:0:0:
192,192,274689,128,8,274924:0:0:0:0:
64,192,274689,1,0,0:0:0:0:
320,192,274806,128,0,274924:0:0:0:0:
64,192,274924,128,0,275158:0:0:0:0:
448,192,274924,1,0,0:0:0:0:
192,192,275041,128,0,275158:0:0:0:0:
448,192,275158,128,0,275275:0:0:0:0:
192,192,275275,128,0,275392:0:0:0:0:
320,192,275392,128,0,275627:0:0:0:0:
448,192,275392,1,0,0:0:0:0:
64,192,275510,128,0,275627:0:0:0:0:
192,192,275627,128,0,275744:0:0:0:0:
448,192,275627,128,0,275861:0:0:0:0:
320,192,275744,128,0,275861:0:0:0:0:
64,192,275861,128,0,275978:0:0:0:0:
192,192,275978,128,0,276096:0:0:0:0:
448,192,276096,128,0,276447:0:0:0:0:
64,192,276096,128,0,276213:0:0:0:70:G6S_s.wav
320,192,276213,128,0,276330:0:0:0:0:
192,192,276330,128,0,276447:0:0:0:0:
64,192,276447,128,0,276564:0:0:0:0:
448,192,276564,1,0,0:0:0:0:
320,192,276564,128,8,276799:0:0:0:0:
192,192,276681,128,0,276799:0:0:0:0:
64,192,276799,1,0,0:0:0:0:
448,192,276799,128,0,277033:0:0:0:0:
320,192,276916,128,0,277033:0:0:0:0:
64,192,277033,128,0,277150:0:0:0:0:
320,192,277150,128,0,277267:0:0:0:0:
64,192,277267,1,0,0:0:0:0:
192,192,277267,128,0,277502:0:0:0:0:
448,192,277385,128,0,277502:0:0:0:0:
64,192,277502,128,0,277736:0:0:0:0:
320,192,277502,128,0,277619:0:0:0:0:
192,192,277619,128,0,277736:0:0:0:0:
448,192,277736,128,0,277853:0:0:0:0:
320,192,277853,128,0,277971:0:0:0:0:
64,192,277971,128,0,278322:0:0:0:70:D#6S_Eb6S_s.wav
448,192,277971,128,0,278088:0:0:0:0:
192,192,278088,128,0,278205:0:0:0:0:
320,192,278205,128,0,278322:0:0:0:0:
448,192,278322,128,0,278439:0:0:0:0:
192,192,278439,128,8,278674:0:0:0:0:
64,192,278439,1,0,0:0:0:0:
320,192,278556,128,0,278674:0:0:0:0:
64,192,278674,128,0,278908:0:0:0:0:
448,192,278674,1,0,0:0:0:0:
192,192,278791,128,0,278908:0:0:0:0:
448,192,278908,128,0,279025:0:0:0:0:
192,192,279025,128,0,279142:0:0:0:0:
320,192,279142,128,0,279377:0:0:0:0:
448,192,279142,1,0,0:0:0:0:
64,192,279260,128,0,279377:0:0:0:0:
192,192,279377,128,0,279494:0:0:0:0:
448,192,279377,128,0,279611:0:0:0:0:
320,192,279494,128,0,279611:0:0:0:0:
64,192,279611,128,0,279728:0:0:0:0:
192,192,279728,128,0,279846:0:0:0:0:
448,192,279846,128,0,280197:0:0:0:0:
64,192,279846,128,0,279963:0:0:0:70:F#6S_Gb6S_s.wav
320,192,279963,128,0,280080:0:0:0:0:
192,192,280080,128,0,280197:0:0:0:0:
64,192,280197,128,0,280314:0:0:0:0:
320,192,280314,128,8,280549:0:0:0:0:
448,192,280314,1,0,0:0:0:0:
192,192,280431,128,0,280549:0:0:0:0:
64,192,280549,128,0,280783:0:0:0:0:
448,192,280549,1,0,0:0:0:0:
448,192,280666,128,0,280783:0:0:0:0:
192,192,280783,1,0,0:0:0:0:
320,192,280783,128,0,281017:0:0:0:0:
192,192,280900,128,0,281017:0:0:0:0:
64,192,281017,1,0,0:0:0:0:
448,192,281017,128,0,281252:0:0:0:0:
320,192,281135,128,0,281252:0:0:0:0:
64,192,281252,1,2,0:0:0:0:
192,192,281252,1,0,0:0:0:0:
448,192,281330,1,0,0:0:0:0:
320,192,281330,1,2,0:0:0:0:
64,192,281408,1,2,0:0:0:0:
192,192,281408,1,0,0:0:0:0:
64,192,281486,1,2,0:0:0:0:
192,192,281486,1,0,0:0:0:0:
448,192,281564,1,0,0:0:0:0:
320,192,281564,1,2,0:0:0:0:
64,192,281642,1,2,0:0:0:0:
192,192,281642,1,0,0:0:0:0:
64,192,281721,1,2,0:0:0:0:
192,192,281721,1,4,0:0:0:0:
448,192,281721,1,0,0:0:0:0:
320,192,281838,1,0,0:0:0:0:
320,192,281955,1,0,0:0:0:0:
192,192,282072,128,0,282189:0:0:0:0:
64,192,282189,1,2,0:0:0:0:
320,192,282189,1,8,0:0:0:0:
448,192,282189,1,0,0:0:0:0:
192,192,282306,1,0,0:0:0:0:
192,192,282424,1,0,0:0:0:0:
320,192,282424,1,0,0:0:0:0:
448,192,282541,1,0,0:0:0:0:
64,192,282658,1,2,0:0:0:0:
192,192,282658,1,0,0:0:0:0:
448,192,282775,1,0,0:0:0:0:
448,192,282892,1,0,0:0:0:0:
64,192,283010,1,0,0:0:0:0:
192,192,283127,1,8,0:0:0:0:
320,192,283127,1,2,0:0:0:0:
448,192,283127,1,0,0:0:0:0:
64,192,283244,1,0,0:0:0:0:
64,192,283361,1,0,0:0:0:0:
192,192,283478,1,0,0:0:0:0:
320,192,283596,1,2,0:0:0:0:
448,192,283596,1,0,0:0:0:0:
192,192,283713,1,0,0:0:0:0:
192,192,283830,1,0,0:0:0:0:
320,192,283947,128,0,284064:0:0:0:0:
448,192,284064,1,2,0:0:0:0:
192,192,284064,1,8,0:0:0:0:
64,192,284064,1,0,0:0:0:0:
320,192,284181,1,0,0:0:0:0:
320,192,284299,1,0,0:0:0:0:
192,192,284299,1,0,0:0:0:0:
64,192,284416,1,0,0:0:0:0:
320,192,284533,1,2,0:0:0:0:
448,192,284533,1,0,0:0:0:0:
320,192,284650,128,0,284767:0:0:0:0:
448,192,284650,128,0,284767:0:0:0:0:
64,192,284767,1,0,0:0:0:0:
448,192,284885,128,0,285002:0:0:0:0:
320,192,284885,128,0,285002:0:0:0:0:
64,192,285002,1,2,0:0:0:0:
192,192,285002,1,8,0:0:0:0:
64,192,285119,1,0,0:0:0:0:
320,192,285236,128,0,285353:0:0:0:0:
448,192,285236,128,0,285353:0:0:0:0:
64,192,285353,1,0,0:0:0:0:
320,192,285471,1,2,0:0:0:0:
448,192,285471,1,0,0:0:0:0:
192,192,285588,1,0,0:0:0:0:
192,192,285705,1,0,0:0:0:0:
320,192,285822,128,0,285939:0:0:0:0:
64,192,285939,1,2,0:0:0:0:
192,192,285939,1,8,0:0:0:0:
448,192,285939,1,0,0:0:0:0:
320,192,286056,1,0,0:0:0:0:
320,192,286174,1,0,0:0:0:0:
192,192,286174,1,0,0:0:0:0:
64,192,286291,1,0,0:0:0:0:
320,192,286408,1,2,0:0:0:0:
448,192,286408,1,0,0:0:0:0:
192,192,286525,1,0,0:0:0:0:
192,192,286642,1,0,0:0:0:0:
448,192,286760,1,0,0:0:0:0:
64,192,286877,1,2,0:0:0:0:
192,192,286877,1,8,0:0:0:0:
320,192,286877,1,0,0:0:0:0:
448,192,286994,1,0,0:0:0:0:
448,192,287111,1,0,0:0:0:0:
192,192,287228,1,0,0:0:0:0:
320,192,287346,1,2,0:0:0:0:
448,192,287346,1,0,0:0:0:0:
64,192,287463,1,0,0:0:0:0:
64,192,287580,1,0,0:0:0:0:
192,192,287697,128,0,287814:0:0:0:0:
64,192,287814,1,0,0:0:0:0:
448,192,287814,1,2,0:0:0:0:
320,192,287814,1,8,0:0:0:0:
192,192,287931,1,0,0:0:0:0:
192,192,288049,1,0,0:0:0:0:
320,192,288049,1,0,0:0:0:0:
448,192,288166,1,0,0:0:0:0:
64,192,288283,1,2,0:0:0:0:
192,192,288283,1,0,0:0:0:0:
64,192,288400,128,0,288517:0:0:0:0:
192,192,288400,128,0,288517:0:0:0:0:
448,192,288517,1,0,0:0:0:0:
192,192,288635,128,0,288752:0:0:0:0:
64,192,288635,128,0,288752:0:0:0:0:
320,192,288752,1,2,0:0:0:0:
448,192,288752,1,8,0:0:0:0:
448,192,288869,1,0,0:0:0:0:
64,192,288986,128,0,289103:0:0:0:0:
192,192,288986,128,0,289103:0:0:0:0:
448,192,289103,1,0,0:0:0:0:
64,192,289221,1,2,0:0:0:0:
192,192,289221,1,0,0:0:0:0:
320,192,289338,1,0,0:0:0:0:
320,192,289455,1,0,0:0:0:0:
192,192,289572,128,0,289689:0:0:0:0:
320,192,289689,1,8,0:0:0:0:
448,192,289689,1,2,0:0:0:0:
64,192,289689,1,0,0:0:0:0:
192,192,289806,1,0,0:0:0:0:
192,192,289924,1,0,0:0:0:0:
320,192,289924,1,0,0:0:0:0:
64,192,290041,1,0,0:0:0:0:
320,192,290158,1,2,0:0:0:0:
448,192,290158,1,0,0:0:0:0:
64,192,290275,1,0,0:0:0:0:
64,192,290392,1,0,0:0:0:0:
448,192,290510,1,0,0:0:0:0:
64,192,290627,1,2,0:0:0:0:
192,192,290627,1,8,0:0:0:0:
448,192,290744,1,0,0:0:0:0:
448,192,290861,1,0,0:0:0:0:
64,192,290978,1,0,0:0:0:0:
320,192,291096,1,2,0:0:0:0:
448,192,291096,1,0,0:0:0:0:
192,192,291213,1,0,0:0:0:0:
192,192,291330,1,0,0:0:0:0:
320,192,291447,128,0,291564:0:0:0:0:
64,192,291564,1,8,0:0:0:0:
192,192,291564,1,2,0:0:0:0:
448,192,291564,1,0,0:0:0:0:
320,192,291681,1,0,0:0:0:0:
192,192,291799,1,0,0:0:0:0:
320,192,291799,1,0,0:0:0:0:
64,192,291916,1,0,0:0:0:0:
320,192,292033,1,2,0:0:0:0:
448,192,292033,1,0,0:0:0:0:
320,192,292150,128,0,292267:0:0:0:0:
448,192,292150,128,0,292267:0:0:0:0:
64,192,292267,1,0,0:0:0:0:
320,192,292385,128,0,292502:0:0:0:0:
448,192,292385,128,0,292502:0:0:0:0:
64,192,292502,1,8,0:0:0:0:
192,192,292502,1,2,0:0:0:0:
64,192,292619,1,0,0:0:0:0:
320,192,292736,128,0,292853:0:0:0:0:
448,192,292736,128,0,292853:0:0:0:0:
64,192,292853,1,0,0:0:0:0:
320,192,292971,1,2,0:0:0:0:
448,192,292971,1,0,0:0:0:0:
192,192,293088,1,0,0:0:0:0:
192,192,293205,1,0,0:0:0:0:
320,192,293322,128,0,293439:0:0:0:0:
64,192,293439,1,8,0:0:0:0:
192,192,293439,1,2,0:0:0:0:
448,192,293439,1,0,0:0:0:0:
320,192,293556,1,0,0:0:0:0:
192,192,293674,1,0,0:0:0:0:
320,192,293674,1,0,0:0:0:0:
64,192,293791,1,0,0:0:0:0:
320,192,293908,1,2,0:0:0:0:
448,192,293908,1,0,0:0:0:0:
192,192,294025,1,0,0:0:0:0:
192,192,294142,1,0,0:0:0:0:
448,192,294260,1,0,0:0:0:0:
64,192,294377,1,8,0:0:0:0:
192,192,294377,1,2,0:0:0:0:
448,192,294494,1,0,0:0:0:0:
448,192,294611,1,0,0:0:0:0:
320,192,294728,1,0,0:0:0:0:
64,192,294846,1,2,0:0:0:0:
192,192,294846,1,0,0:0:0:0:
320,192,294963,1,0,0:0:0:0:
320,192,295080,1,0,0:0:0:0:
192,192,295197,128,0,295314:0:0:0:0:
320,192,295314,1,8,0:0:0:0:
448,192,295314,1,2,0:0:0:0:
64,192,295314,1,0,0:0:0:0:
192,192,295431,1,0,0:0:0:0:
192,192,295549,1,0,0:0:0:0:
320,192,295549,1,0,0:0:0:0:
448,192,295666,1,0,0:0:0:0:
64,192,295783,1,2,0:0:0:0:
192,192,295783,1,0,0:0:0:0:
64,192,295900,128,0,296017:0:0:0:0:
192,192,295900,128,0,296017:0:0:0:0:
448,192,296017,1,0,0:0:0:0:
192,192,296135,128,0,296252:0:0:0:0:
64,192,296135,128,0,296252:0:0:0:0:
320,192,296252,1,0,0:0:0:0:
448,192,296252,1,0,0:0:0:0:
448,192,296369,1,0,0:0:0:0:
64,192,296486,128,0,296603:0:0:0:0:
192,192,296486,128,0,296603:0:0:0:0:
448,192,296603,1,0,0:0:0:0:
64,192,296721,1,2,0:0:0:0:
192,192,296721,1,4,0:0:0:0:
320,192,296721,1,0,0:0:0:0:
448,192,296838,1,0,0:0:0:0:
448,192,296955,1,0,0:0:0:0:
192,192,297072,1,0,0:0:0:0:
64,192,297189,1,2,0:0:0:0:
320,192,297189,1,8,0:0:0:0:
448,192,297189,1,0,0:0:0:0:
192,192,297306,1,0,0:0:0:0:
192,192,297424,1,0,0:0:0:0:
64,192,297541,1,0,0:0:0:0:
320,192,297658,1,2,0:0:0:0:
448,192,297658,1,0,0:0:0:0:
64,192,297775,1,0,0:0:0:0:
64,192,297892,1,0,0:0:0:0:
320,192,298010,1,0,0:0:0:0:
64,192,298127,1,8,0:0:0:0:
192,192,298127,1,2,0:0:0:0:
448,192,298127,1,0,0:0:0:0:
320,192,298244,1,0,0:0:0:0:
320,192,298361,1,0,0:0:0:0:
64,192,298478,1,0,0:0:0:0:
320,192,298596,1,2,0:0:0:0:
448,192,298596,1,0,0:0:0:0:
64,192,298713,1,0,0:0:0:0:
64,192,298830,1,0,0:0:0:0:
320,192,298947,1,0,0:0:0:0:
64,192,299064,1,2,0:0:0:0:
192,192,299064,1,8,0:0:0:0:
448,192,299064,1,0,0:0:0:0:
320,192,299181,1,0,0:0:0:0:
320,192,299299,1,0,0:0:0:0:
64,192,299416,1,0,0:0:0:0:
448,192,299533,1,2,0:0:0:0:
320,192,299533,1,0,0:0:0:0:
448,192,299650,128,0,299767:0:0:0:0:
320,192,299650,128,0,299767:0:0:0:0:
64,192,299767,1,0,0:0:0:0:
448,192,299885,128,0,300002:0:0:0:0:
320,192,299885,128,0,300002:0:0:0:0:
192,192,300002,1,2,0:0:0:0:
64,192,300002,1,8,0:0:0:0:
64,192,300119,1,0,0:0:0:0:
448,192,300236,128,0,300353:0:0:0:0:
320,192,300236,128,0,300353:0:0:0:0:
64,192,300353,1,0,0:0:0:0:
320,192,300471,1,2,0:0:0:0:
448,192,300471,1,0,0:0:0:0:
64,192,300588,1,0,0:0:0:0:
64,192,300705,1,0,0:0:0:0:
320,192,300822,1,0,0:0:0:0:
448,192,300939,1,2,0:0:0:0:
192,192,300939,1,8,0:0:0:0:
64,192,300939,1,0,0:0:0:0:
320,192,301056,1,0,0:0:0:0:
320,192,301174,1,0,0:0:0:0:
448,192,301291,1,0,0:0:0:0:
192,192,301408,1,2,0:0:0:0:
64,192,301408,1,0,0:0:0:0:
448,192,301525,1,0,0:0:0:0:
448,192,301642,1,0,0:0:0:0:
192,192,301760,1,0,0:0:0:0:
448,192,301877,1,8,0:0:0:0:
320,192,301877,1,2,0:0:0:0:
64,192,301877,1,0,0:0:0:0:
192,192,301994,1,0,0:0:0:0:
192,192,302111,1,0,0:0:0:0:
448,192,302228,1,0,0:0:0:0:
192,192,302346,1,2,0:0:0:0:
64,192,302346,1,0,0:0:0:0:
448,192,302463,1,0,0:0:0:0:
448,192,302580,1,0,0:0:0:0:
192,192,302697,1,0,0:0:0:0:
448,192,302814,1,2,0:0:0:0:
320,192,302814,1,8,0:0:0:0:
64,192,302814,1,0,0:0:0:0:
192,192,302931,1,0,0:0:0:0:
192,192,303049,1,0,0:0:0:0:
448,192,303166,1,0,0:0:0:0:
64,192,303283,1,2,0:0:0:0:
192,192,303283,1,0,0:0:0:0:
64,192,303400,128,0,303517:0:0:0:0:
192,192,303400,128,0,303517:0:0:0:0:
448,192,303517,1,0,0:0:0:0:
64,192,303635,128,0,303752:0:0:0:0:
192,192,303635,128,0,303752:0:0:0:0:
320,192,303752,1,2,0:0:0:0:
448,192,303752,1,8,0:0:0:0:
448,192,303869,1,0,0:0:0:0:
64,192,303986,128,0,304103:0:0:0:0:
192,192,303986,128,0,304103:0:0:0:0:
448,192,304103,1,0,0:0:0:0:
192,192,304221,1,2,0:0:0:0:
64,192,304221,1,0,0:0:0:0:
448,192,304338,1,0,0:0:0:0:
448,192,304455,1,0,0:0:0:0:
192,192,304572,1,0,0:0:0:0:
64,192,304689,1,2,0:0:0:0:
320,192,304689,1,8,0:0:0:0:
448,192,304689,1,0,0:0:0:0:
192,192,304806,1,0,0:0:0:0:
192,192,304924,1,0,0:0:0:0:
64,192,305041,1,0,0:0:0:0:
320,192,305158,1,2,0:0:0:0:
448,192,305158,1,0,0:0:0:0:
64,192,305275,1,0,0:0:0:0:
64,192,305392,1,0,0:0:0:0:
320,192,305510,1,0,0:0:0:0:
64,192,305627,1,8,0:0:0:0:
192,192,305627,1,2,0:0:0:0:
448,192,305627,1,0,0:0:0:0:
320,192,305744,1,0,0:0:0:0:
320,192,305861,1,0,0:0:0:0:
64,192,305978,1,0,0:0:0:0:
320,192,306096,1,2,0:0:0:0:
448,192,306096,1,0,0:0:0:0:
64,192,306213,1,0,0:0:0:0:
64,192,306330,1,0,0:0:0:0:
320,192,306447,1,0,0:0:0:0:
64,192,306564,1,2,0:0:0:0:
192,192,306564,1,8,0:0:0:0:
448,192,306564,1,0,0:0:0:0:
320,192,306681,1,0,0:0:0:0:
320,192,306799,1,0,0:0:0:0:
64,192,306916,1,0,0:0:0:0:
448,192,307033,1,2,0:0:0:0:
320,192,307033,1,0,0:0:0:0:
448,192,307150,128,0,307267:0:0:0:0:
320,192,307150,128,0,307267:0:0:0:0:
64,192,307267,1,0,0:0:0:0:
448,192,307385,128,0,307502:0:0:0:0:
320,192,307385,128,0,307502:0:0:0:0:
192,192,307502,1,2,0:0:0:0:
64,192,307502,1,8,0:0:0:0:
64,192,307619,1,0,0:0:0:0:
448,192,307736,128,0,307853:0:0:0:0:
320,192,307736,128,0,307853:0:0:0:0:
64,192,307853,1,0,0:0:0:0:
320,192,307971,1,2,0:0:0:0:
448,192,307971,1,0,0:0:0:0:
64,192,308088,1,0,0:0:0:0:
64,192,308205,1,0,0:0:0:0:
320,192,308322,1,0,0:0:0:0:
192,192,308439,1,2,0:0:0:0:
64,192,308439,1,0,0:0:0:0:
448,192,308556,1,0,0:0:0:0:
448,192,308674,1,0,0:0:0:0:
64,192,308791,1,0,0:0:0:0:
448,192,308908,1,2,0:0:0:0:
320,192,308908,1,0,0:0:0:0:
192,192,309025,5,0,0:0:0:0:
192,192,309142,1,0,0:0:0:0:
448,192,309260,1,0,0:0:0:0:
192,192,309377,1,2,0:0:0:0:
64,192,309377,1,0,0:0:0:0:
320,192,309494,1,0,0:0:0:0:
320,192,309611,1,0,0:0:0:0:
64,192,309728,1,0,0:0:0:0:
448,192,309846,1,2,0:0:0:0:
320,192,309846,1,0,0:0:0:0:
448,192,310197,5,0,0:0:0:0:
192,192,310314,1,2,0:0:0:0:
64,192,310314,1,0,0:0:0:0:
64,192,310666,1,0,0:0:0:0:
320,192,310783,1,2,0:0:0:0:
448,192,310783,1,0,0:0:0:0:
448,192,311135,1,0,0:0:0:0:
64,192,311252,1,0,0:0:0:0:
320,192,311486,1,0,0:0:0:0:
320,192,311721,1,0,0:0:0:0:
