osu file format v14

[General]
AudioFilename: audio.mp3
AudioLeadIn: 0
PreviewTime: 124112
Countdown: 0
SampleSet: Normal
StackLeniency: 0.7
Mode: 1
LetterboxInBreaks: 0
WidescreenStoryboard: 0

[Editor]
Bookmarks: 480,15480,30480,49230,56730,82980,94230,124230,150476,172976,180476
DistanceSpacing: 0.8
BeatDivisor: 4
GridSize: 32
TimelineZoom: 0.4999997

[Metadata]
Title:Kishinjou set 06 ~ Lonesome Werewolf
TitleUnicode:Kishinjou set 06 〜 孤独なウェアウルフ
Artist:Rin
ArtistUnicode:凛
Creator:komasy
Version:Kantan
Source:東方輝針城 〜 Double Dealing Character.
Tags:osu! touhou project featured artist fa kodoku na
BeatmapID:2060241
BeatmapSetID:963299

[Difficulty]
HPDrainRate:8
CircleSize:3
OverallDifficulty:3
ApproachRate:8
SliderMultiplier:1.4
SliderTickRate:1

[Events]
//Background and Video events
0,0,"bg.jpg",0,80
//Break Periods
//Storyboard Layer 0 (Background)
//Storyboard Layer 1 (Fail)
//Storyboard Layer 2 (Pass)
//Storyboard Layer 3 (Foreground)
//Storyboard Layer 4 (Overlay)
//Storyboard Sound Samples

[TimingPoints]
476,468.75,4,1,0,60,1,0
15593,-100,4,1,0,70,0,0
28952,-100,4,1,0,70,0,0
29421,-100,4,1,0,70,0,0
29890,-100,4,1,0,70,0,0
30358,-100,4,1,0,70,0,0
37272,-100,4,1,0,70,0,0
37390,-100,4,1,0,70,0,0
37507,-100,4,1,0,70,0,0
37624,-100,4,1,0,70,0,0
37741,-100,4,1,0,70,0,0
37858,-100,4,1,0,70,0,0
37976,-100,4,1,0,70,0,1
45476,-100,4,1,0,70,0,0
48171,-100,4,1,0,70,0,0
49108,-100,4,1,0,70,0,0
54851,-100,4,1,0,50,0,0
56140,-100,4,1,0,70,0,0
82390,-100,4,1,0,70,0,0
82858,-100,4,1,0,70,0,0
88483,-100,4,1,0,70,0,0
90476,-100,4,1,0,70,0,1
94226,-100,4,1,0,70,0,0
94343,-100,4,1,0,50,0,0
109108,-100,4,1,0,50,0,0
122233,-100,4,1,0,40,0,0
124108,-100,4,1,0,70,0,0
124226,-100,4,1,0,70,0,1
150476,-100,4,1,0,70,0,0
150593,-100,4,1,0,70,0,0
157741,-100,4,1,0,70,0,0
157858,-100,4,1,0,70,0,0
157976,-100,4,1,0,70,0,1
165476,-100,4,1,0,70,0,0
167468,-100,4,1,0,70,0,0
169577,-100,4,1,0,70,0,0
169929,-100,4,1,0,70,0,0
178601,-100,4,1,0,50,0,0
179890,-100,4,1,0,70,0,0

[HitObjects]
356,201,476,5,4,0:0:0:0:
370,175,1882,1,8,0:0:0:0:
370,175,2351,1,0,0:0:0:0:
386,217,3757,1,8,0:0:0:0:
356,201,4226,5,0,0:0:0:0:
370,175,5632,1,8,0:0:0:0:
370,175,6101,1,0,0:0:0:0:
175,67,7038,1,8,0:0:0:0:
356,201,7976,5,0,0:0:0:0:
370,175,9382,1,8,0:0:0:0:
370,175,9851,1,0,0:0:0:0:
386,217,11257,1,8,0:0:0:0:
356,201,11726,5,0,0:0:0:0:
370,175,13132,1,8,0:0:0:0:
370,175,13601,1,0,0:0:0:0:
175,67,14538,1,8,0:0:0:0:
366,173,15476,5,4,0:0:0:0:
273,55,16413,1,0,0:0:0:0:
167,221,17351,1,0,0:0:0:0:
231,124,17819,1,0,0:0:0:0:
348,134,18288,1,0,0:0:0:0:
154,228,19226,1,8,0:0:0:0:
356,129,20163,1,8,0:0:0:0:
351,132,21101,1,8,0:0:0:0:
268,173,21569,1,8,0:0:0:0:
224,56,22038,1,8,0:0:0:0:
434,56,22976,1,0,0:0:0:0:
260,154,23913,1,8,0:0:0:0:
295,247,24851,1,0,0:0:0:0:
260,154,25319,1,8,0:0:0:0:
260,154,25788,1,0,0:0:0:0:
260,154,26726,1,8,0:0:0:0:
260,154,27663,1,0,0:0:0:0:
260,154,28601,1,8,0:0:0:0:
260,154,29069,1,8,0:0:0:0:
260,154,29538,1,8,0:0:0:0:
260,154,30007,1,8,0:0:0:0:
346,132,30476,5,4,0:0:0:0:
255,141,32351,1,0,0:0:0:0:
255,141,33288,1,8,0:0:0:0:
234,64,33757,1,8,0:0:0:0:
255,141,34226,1,0,0:0:0:0:
209,43,35163,1,8,0:0:0:0:
255,141,36101,1,0,0:0:0:0:
255,141,37038,1,8,0:0:0:0:
240,59,37507,1,0,0:0:0:0:
285,41,37976,1,8,0:0:0:0:
145,242,38913,1,8,0:0:0:0:
276,75,39851,1,8,0:0:0:0:
200,162,40319,1,0,0:0:0:0:
134,279,40788,1,8,0:0:0:0:
262,95,41726,1,8,0:0:0:0:
126,290,42663,1,8,0:0:0:0:
264,92,43601,1,8,0:0:0:0:
129,286,44069,1,0,0:0:0:0:
187,201,44538,1,8,0:0:0:0:
279,132,45007,1,8,0:0:0:0:
202,82,45476,1,4,0:0:0:0:
271,138,47351,1,0,0:0:0:0:
467,64,48288,1,8,0:0:0:0:
256,192,49226,12,0,54851,0:0:0:0:
274,205,56257,5,8,0:0:0:0:
354,223,56726,5,4,0:0:0:0:
306,182,57663,1,8,0:0:0:0:
201,176,58601,1,0,0:0:0:0:
201,176,59538,1,8,0:0:0:0:
201,176,60007,1,8,0:0:0:0:
201,176,60476,1,0,0:0:0:0:
201,176,61413,1,0,0:0:0:0:
201,176,61882,1,8,0:0:0:0:
201,176,62351,1,0,0:0:0:0:
339,180,63757,1,0,0:0:0:0:
243,170,64226,1,0,0:0:0:0:
306,182,65163,1,8,0:0:0:0:
201,176,66101,1,0,0:0:0:0:
201,176,67038,1,8,0:0:0:0:
201,176,67507,1,8,0:0:0:0:
201,176,67976,1,8,0:0:0:0:
201,176,68913,1,0,0:0:0:0:
201,176,69851,1,8,0:0:0:0:
232,125,70788,1,0,0:0:0:0:
232,125,71257,1,8,0:0:0:0:
232,125,71726,1,4,0:0:0:0:
281,70,72663,1,8,0:0:0:0:
115,205,73601,1,0,0:0:0:0:
282,68,74538,1,8,0:0:0:0:
214,126,75007,1,8,0:0:0:0:
284,66,75476,1,0,0:0:0:0:
130,200,76413,1,0,0:0:0:0:
196,142,76882,1,8,0:0:0:0:
265,82,77351,1,0,0:0:0:0:
265,82,78757,1,0,0:0:0:0:
265,82,79226,1,0,0:0:0:0:
278,286,80163,1,8,0:0:0:0:
265,82,81101,1,0,0:0:0:0:
279,301,82038,1,8,0:0:0:0:
273,207,82507,1,8,0:0:0:0:
201,176,82976,5,4,0:0:0:0:
306,165,84851,1,0,0:0:0:0:
164,251,85788,1,0,0:0:0:0:
238,206,86257,1,8,0:0:0:0:
243,127,86726,1,0,0:0:0:0:
396,57,87663,1,0,0:0:0:0:
243,127,88601,1,8,0:0:0:0:
243,127,89538,1,8,0:0:0:0:
243,127,90007,1,0,0:0:0:0:
243,127,90476,1,8,0:0:0:0:
483,185,91413,1,8,0:0:0:0:
235,125,92351,1,8,0:0:0:0:
343,151,92819,1,0,0:0:0:0:
233,125,93288,1,8,0:0:0:0:
347,152,93757,1,8,0:0:0:0:
235,125,94226,1,4,0:0:0:0:
216,101,95632,1,0,0:0:0:0:
384,152,96101,5,8,0:0:0:0:
398,232,97507,1,8,0:0:0:0:
259,145,97976,1,8,0:0:0:0:
138,128,99382,1,8,0:0:0:0:
343,230,99851,1,0,0:0:0:0:
132,82,101257,1,0,0:0:0:0:
316,175,101726,1,4,0:0:0:0:
324,160,103601,1,0,0:0:0:0:
154,90,105007,1,8,0:0:0:0:
373,196,105476,1,0,0:0:0:0:
261,71,106882,1,0,0:0:0:0:
261,71,108757,1,8,0:0:0:0:
329,127,109226,1,4,0:0:0:0:
312,184,110163,1,8,0:0:0:0:
234,122,111101,1,0,0:0:0:0:
416,68,112038,1,8,0:0:0:0:
212,129,112507,1,0,0:0:0:0:
152,126,112976,1,8,0:0:0:0:
296,94,113913,1,0,0:0:0:0:
296,94,114851,1,8,0:0:0:0:
27,282,116257,1,8,0:0:0:0:
79,101,116726,1,4,0:0:0:0:
223,71,117663,1,8,0:0:0:0:
223,71,118601,1,0,0:0:0:0:
223,71,119538,1,8,0:0:0:0:
187,162,120007,1,8,0:0:0:0:
256,192,120476,12,0,123288,0:0:0:0:
436,204,124226,5,4,0:0:0:0:
390,294,125163,1,0,0:0:0:0:
320,215,125632,1,0,0:0:0:0:
254,137,126101,1,8,0:0:0:0:
496,114,127038,1,8,0:0:0:0:
410,171,127507,1,0,0:0:0:0:
410,171,127976,1,8,0:0:0:0:
180,236,128913,1,0,0:0:0:0:
290,204,129382,1,8,0:0:0:0:
383,179,129851,1,8,0:0:0:0:
38,49,131257,1,8,0:0:0:0:
131,84,131726,1,0,0:0:0:0:
229,125,132194,1,0,0:0:0:0:
316,162,132663,1,8,0:0:0:0:
87,66,133601,1,0,0:0:0:0:
313,161,134538,1,8,0:0:0:0:
218,121,135007,1,8,0:0:0:0:
311,160,135476,1,0,0:0:0:0:
311,160,136413,1,8,0:0:0:0:
311,160,136882,1,0,0:0:0:0:
279,87,137819,1,0,0:0:0:0:
206,159,138288,1,8,0:0:0:0:
279,87,138757,1,8,0:0:0:0:
436,204,139226,5,4,0:0:0:0:
390,294,140163,1,0,0:0:0:0:
320,215,140632,1,0,0:0:0:0:
254,137,141101,1,8,0:0:0:0:
496,114,141804,1,8,0:0:0:0:
410,171,142507,1,0,0:0:0:0:
410,171,142976,1,8,0:0:0:0:
180,236,143913,1,0,0:0:0:0:
290,204,144382,1,8,0:0:0:0:
383,179,144851,1,8,0:0:0:0:
38,49,146257,1,8,0:0:0:0:
131,84,146726,1,0,0:0:0:0:
229,125,147194,1,0,0:0:0:0:
316,162,147663,1,8,0:0:0:0:
87,66,148601,1,0,0:0:0:0:
189,106,149069,1,0,0:0:0:0:
313,161,149538,1,8,0:0:0:0:
218,121,150007,5,8,0:0:0:0:
346,132,150476,5,4,0:0:0:0:
255,141,152351,1,0,0:0:0:0:
255,141,153288,1,8,0:0:0:0:
234,64,153757,1,8,0:0:0:0:
255,141,154226,1,0,0:0:0:0:
209,43,155163,1,8,0:0:0:0:
255,141,156101,1,0,0:0:0:0:
255,141,157038,1,8,0:0:0:0:
240,59,157507,1,0,0:0:0:0:
285,41,157976,1,8,0:0:0:0:
145,242,158913,1,8,0:0:0:0:
200,162,159382,1,0,0:0:0:0:
276,75,159851,1,8,0:0:0:0:
134,279,160788,1,8,0:0:0:0:
219,221,161257,1,8,0:0:0:0:
262,95,161726,1,8,0:0:0:0:
126,290,162663,1,8,0:0:0:0:
212,229,163132,1,0,0:0:0:0:
264,92,163601,1,8,0:0:0:0:
187,201,164538,1,8,0:0:0:0:
279,132,165007,1,8,0:0:0:0:
202,82,165476,1,4,0:0:0:0:
184,108,167351,1,4,0:0:0:0:
227,157,169226,1,4,0:0:0:0:
409,38,170163,1,0,0:0:0:0:
232,153,171101,1,4,0:0:0:0:
407,40,172038,1,8,0:0:0:0:
256,192,172976,12,0,178601,0:0:0:0:
274,205,180007,5,8,0:0:0:0:
364,149,180476,1,4,0:0:0:0:
