osu file format v14

[General]
AudioFilename: audio.mp3
AudioLeadIn: 0
PreviewTime: 135352
Countdown: 0
SampleSet: Normal
StackLeniency: 0.7
Mode: 1
LetterboxInBreaks: 0
WidescreenStoryboard: 1

[Editor]
Bookmarks: 30470,45470,60470,75470,90470,105470,120470,165470,180470,195470,210470,225470,255470
DistanceSpacing: 0.8
BeatDivisor: 4
GridSize: 32
TimelineZoom: 1.5

[Metadata]
Title:Kishinjou set 03 ~ Humans and Youkai Traversing the Canal
TitleUnicode:Kishinjou set 03 〜 運河を行き交う人妖
Artist:Rin
ArtistUnicode:凛
Creator:tasuke912
Version:Muzukashii
Source:東方輝針城 ~ Double Dealing Character.
Tags:Touhou Project osu! featured artist House set of
BeatmapID:2017863
BeatmapSetID:959705

[Difficulty]
HPDrainRate:5
CircleSize:2
OverallDifficulty:4.5
ApproachRate:5
SliderMultiplier:1.4
SliderTickRate:1

[Events]
//Background and Video events
0,0,"bg.jpg",0,0
//Break Periods
//Storyboard Layer 0 (Background)
//Storyboard Layer 1 (Fail)
//Storyboard Layer 2 (Pass)
//Storyboard Layer 3 (Foreground)
//Storyboard Sound Samples

[TimingPoints]
470,468.75,4,1,0,60,1,0
45470,-100,4,1,0,70,0,1
67970,-100,4,1,0,70,0,0
68438,-100,4,1,0,70,0,1
75470,-100,4,1,0,70,0,0
120704,-111.111111111111,4,1,0,50,0,0
133477,-100,4,1,0,60,0,0
135470,-100,4,1,0,70,0,1
157970,-100,4,1,0,70,0,0
158438,-100,4,1,0,70,0,1
165470,-100,4,1,0,70,0,0
210704,-111.111111111111,4,1,0,50,0,0
223477,-100,4,1,0,60,0,0
225470,-80,4,1,0,70,0,1
247970,-80,4,1,0,60,0,0
255587,-100,4,1,0,60,0,0

[HitObjects]
256,192,470,5,0,0:0:0:0:
256,192,938,1,0,0:0:0:0:
256,192,1407,1,0,0:0:0:0:
256,192,1876,1,2,0:0:0:0:
256,192,2345,1,0,0:0:0:0:
256,192,2813,1,0,0:0:0:0:
256,192,3282,1,0,0:0:0:0:
256,192,3516,1,2,0:0:0:0:
256,192,3751,1,2,0:0:0:0:
256,192,4220,1,0,0:0:0:0:
256,192,4688,1,0,0:0:0:0:
256,192,5157,1,0,0:0:0:0:
256,192,5626,1,2,0:0:0:0:
256,192,6095,1,0,0:0:0:0:
256,192,6212,1,0,0:0:0:0:
256,192,6446,1,0,0:0:0:0:
256,192,6563,1,2,0:0:0:0:
256,192,7032,1,0,0:0:0:0:
256,192,7149,1,2,0:0:0:0:
256,192,7384,1,2,0:0:0:0:
256,192,7501,1,2,0:0:0:0:
256,192,7970,1,0,0:0:0:0:
256,192,8438,1,0,0:0:0:0:
256,192,8907,1,0,0:0:0:0:
256,192,9376,1,2,0:0:0:0:
256,192,9845,1,0,0:0:0:0:
256,192,10313,1,0,0:0:0:0:
256,192,10782,1,0,0:0:0:0:
256,192,11016,1,2,0:0:0:0:
256,192,11251,1,2,0:0:0:0:
256,192,11720,1,0,0:0:0:0:
256,192,12188,1,0,0:0:0:0:
256,192,12657,1,0,0:0:0:0:
256,192,13126,1,2,0:0:0:0:
256,192,13595,1,0,0:0:0:0:
256,192,13712,1,0,0:0:0:0:
256,192,13946,1,0,0:0:0:0:
256,192,14063,1,2,0:0:0:0:
256,192,14532,1,0,0:0:0:0:
256,192,14649,1,2,0:0:0:0:
256,192,14884,1,2,0:0:0:0:
256,192,15001,1,2,0:0:0:0:
256,192,15470,1,4,0:0:0:0:
256,192,15938,1,2,0:0:0:0:
256,192,16407,1,0,0:0:0:0:
256,192,16641,1,0,0:0:0:0:
256,192,16876,1,2,0:0:0:0:
256,192,17345,1,0,0:0:0:0:
256,192,17813,1,2,0:0:0:0:
256,192,18282,1,0,0:0:0:0:
256,192,18516,1,2,0:0:0:0:
256,192,18751,1,2,0:0:0:0:
256,192,19220,1,0,0:0:0:0:
256,192,19688,1,2,0:0:0:0:
256,192,20157,1,0,0:0:0:0:
256,192,20391,1,0,0:0:0:0:
256,192,20626,1,2,0:0:0:0:
256,192,21095,1,0,0:0:0:0:
256,192,21212,1,0,0:0:0:0:
256,192,21446,1,0,0:0:0:0:
256,192,21563,1,2,0:0:0:0:
256,192,22032,1,0,0:0:0:0:
256,192,22149,1,2,0:0:0:0:
256,192,22384,1,2,0:0:0:0:
256,192,22501,1,2,0:0:0:0:
256,192,22970,1,0,0:0:0:0:
256,192,23438,1,2,0:0:0:0:
256,192,23907,1,0,0:0:0:0:
256,192,24141,1,0,0:0:0:0:
256,192,24376,1,2,0:0:0:0:
256,192,24845,1,0,0:0:0:0:
256,192,25313,1,2,0:0:0:0:
256,192,25782,1,0,0:0:0:0:
256,192,26016,1,2,0:0:0:0:
256,192,26251,1,2,0:0:0:0:
256,192,26720,1,0,0:0:0:0:
256,192,27188,1,2,0:0:0:0:
256,192,27657,1,0,0:0:0:0:
256,192,27891,1,0,0:0:0:0:
256,192,28126,1,2,0:0:0:0:
256,192,28595,1,0,0:0:0:0:
256,192,28712,1,0,0:0:0:0:
256,192,28946,1,0,0:0:0:0:
256,192,29063,1,2,0:0:0:0:
256,192,29532,1,0,0:0:0:0:
256,192,29649,1,2,0:0:0:0:
256,192,29884,1,2,0:0:0:0:
256,192,30001,1,2,0:0:0:0:
256,192,30470,5,4,0:0:0:0:
256,192,31407,1,2,0:0:0:0:
256,192,32345,1,0,0:0:0:0:
256,192,33048,1,0,0:0:0:0:
256,192,33282,1,2,0:0:0:0:
256,192,33751,1,2,0:0:0:0:
256,192,34220,1,0,0:0:0:0:
256,192,34923,1,2,0:0:0:0:
256,192,35157,1,2,0:0:0:0:
256,192,35626,1,2,0:0:0:0:
256,192,36095,1,0,0:0:0:0:
256,192,36798,1,2,0:0:0:0:
256,192,37032,1,0,0:0:0:0:
256,192,37501,1,2,0:0:0:0:
256,192,37970,1,4,0:0:0:0:
256,192,38438,1,2,0:0:0:0:
256,192,38673,1,2,0:0:0:0:
256,192,38790,1,2,0:0:0:0:
256,192,38907,1,2,0:0:0:0:
256,192,39259,1,2,0:0:0:0:
256,192,39610,1,0,0:0:0:0:
256,192,39845,1,4,0:0:0:0:
256,192,40313,1,2,0:0:0:0:
256,192,40548,1,2,0:0:0:0:
256,192,40665,1,2,0:0:0:0:
256,192,40782,1,2,0:0:0:0:
256,192,41134,1,2,0:0:0:0:
256,192,41485,1,2,0:0:0:0:
256,192,41720,1,4,0:0:0:0:
256,192,42188,1,2,0:0:0:0:
256,192,42657,1,0,0:0:0:0:
256,192,42891,1,0,0:0:0:0:
256,192,43126,1,2,0:0:0:0:
256,192,43595,1,4,0:0:0:0:
256,192,43946,1,4,0:0:0:0:
256,192,44298,1,4,0:0:0:0:
256,192,44532,1,6,0:0:0:0:
256,192,45470,1,4,0:0:0:0:
256,192,45938,1,2,0:0:0:0:
256,192,46407,1,0,0:0:0:0:
256,192,46524,1,0,0:0:0:0:
256,192,46641,1,0,0:0:0:0:
256,192,46876,1,2,0:0:0:0:
256,192,46993,1,2,0:0:0:0:
256,192,47110,1,2,0:0:0:0:
256,192,47345,1,0,0:0:0:0:
256,192,47813,1,2,0:0:0:0:
256,192,48282,1,2,0:0:0:0:
256,192,48399,1,2,0:0:0:0:
256,192,48516,1,2,0:0:0:0:
256,192,48751,1,0,0:0:0:0:
256,192,48868,1,0,0:0:0:0:
256,192,48985,1,0,0:0:0:0:
256,192,49220,1,0,0:0:0:0:
256,192,49688,1,2,0:0:0:0:
256,192,50157,1,0,0:0:0:0:
256,192,50313,1,0,0:0:0:0:
256,192,50470,1,0,0:0:0:0:
256,192,50626,1,2,0:0:0:0:
256,192,51095,1,2,0:0:0:0:
256,192,51251,1,0,0:0:0:0:
256,192,51407,1,0,0:0:0:0:
256,192,51563,1,2,0:0:0:0:
256,192,52032,1,0,0:0:0:0:
256,192,52188,1,2,0:0:0:0:
256,192,52345,1,2,0:0:0:0:
256,192,52501,1,2,0:0:0:0:
256,192,52970,1,0,0:0:0:0:
256,192,53438,1,6,0:0:0:0:
256,192,53907,1,0,0:0:0:0:
256,192,54024,1,0,0:0:0:0:
256,192,54141,1,0,0:0:0:0:
256,192,54376,1,2,0:0:0:0:
256,192,54610,1,2,0:0:0:0:
256,192,54845,1,0,0:0:0:0:
256,192,55313,1,6,0:0:0:0:
256,192,55782,1,0,0:0:0:0:
256,192,56016,1,2,0:0:0:0:
256,192,56134,1,2,0:0:0:0:
256,192,56251,1,2,0:0:0:0:
256,192,56485,1,2,0:0:0:0:
256,192,56720,1,0,0:0:0:0:
256,192,57188,1,2,0:0:0:0:
256,192,57423,1,0,0:0:0:0:
256,192,57540,1,0,0:0:0:0:
256,192,57657,1,0,0:0:0:0:
256,192,57891,1,0,0:0:0:0:
256,192,58126,1,2,0:0:0:0:
256,192,58360,1,2,0:0:0:0:
256,192,58595,1,0,0:0:0:0:
256,192,59063,1,2,0:0:0:0:
256,192,59298,1,2,0:0:0:0:
256,192,59532,1,0,0:0:0:0:
256,192,59884,1,2,0:0:0:0:
256,192,60235,1,2,0:0:0:0:
256,192,60470,5,4,0:0:0:0:
256,192,60938,1,2,0:0:0:0:
256,192,61173,1,2,0:0:0:0:
256,192,61407,1,0,0:0:0:0:
256,192,61524,1,0,0:0:0:0:
256,192,61641,1,0,0:0:0:0:
256,192,61876,1,2,0:0:0:0:
256,192,62110,1,2,0:0:0:0:
256,192,62345,1,0,0:0:0:0:
256,192,62813,1,2,0:0:0:0:
256,192,63048,1,0,0:0:0:0:
256,192,63282,1,2,0:0:0:0:
256,192,63399,1,2,0:0:0:0:
256,192,63516,1,2,0:0:0:0:
256,192,63751,1,0,0:0:0:0:
256,192,63985,1,2,0:0:0:0:
256,192,64220,1,0,0:0:0:0:
256,192,64688,1,0,0:0:0:0:
256,192,64923,1,2,0:0:0:0:
256,192,65157,1,0,0:0:0:0:
256,192,65274,1,0,0:0:0:0:
256,192,65391,1,0,0:0:0:0:
256,192,65626,1,2,0:0:0:0:
256,192,65743,1,2,0:0:0:0:
256,192,65860,1,2,0:0:0:0:
256,192,66095,1,0,0:0:0:0:
256,192,66563,1,2,0:0:0:0:
256,192,66798,1,0,0:0:0:0:
256,192,67032,1,0,0:0:0:0:
256,192,67266,1,2,0:0:0:0:
256,192,67384,1,2,0:0:0:0:
256,192,67501,1,2,0:0:0:0:
256,192,67735,1,2,0:0:0:0:
256,192,67970,1,0,0:0:0:0:
256,192,68438,1,6,0:0:0:0:
256,192,68907,1,0,0:0:0:0:
256,192,69024,1,0,0:0:0:0:
256,192,69141,1,0,0:0:0:0:
256,192,69376,1,2,0:0:0:0:
256,192,69610,1,2,0:0:0:0:
256,192,69845,1,0,0:0:0:0:
256,192,70313,1,6,0:0:0:0:
256,192,70548,1,0,0:0:0:0:
256,192,70782,1,2,0:0:0:0:
256,192,70899,1,2,0:0:0:0:
256,192,71016,1,2,0:0:0:0:
256,192,71251,1,0,0:0:0:0:
256,192,71485,1,2,0:0:0:0:
256,192,71720,1,0,0:0:0:0:
256,192,72188,1,2,0:0:0:0:
256,192,72423,1,2,0:0:0:0:
256,192,72657,1,0,0:0:0:0:
256,192,72774,1,0,0:0:0:0:
256,192,72891,1,0,0:0:0:0:
256,192,73126,1,2,0:0:0:0:
256,192,73243,1,2,0:0:0:0:
256,192,73360,1,2,0:0:0:0:
256,192,73595,1,0,0:0:0:0:
256,192,73946,1,0,0:0:0:0:
256,192,74298,1,0,0:0:0:0:
256,192,74532,1,6,0:0:0:0:
256,192,75001,1,2,0:0:0:0:
256,192,75470,5,4,0:0:0:0:
256,192,76173,1,2,0:0:0:0:
256,192,76407,1,0,0:0:0:0:
256,192,76876,1,2,0:0:0:0:
256,192,77345,1,0,0:0:0:0:
256,192,78048,1,0,0:0:0:0:
256,192,78282,1,2,0:0:0:0:
256,192,78634,1,0,0:0:0:0:
256,192,78985,1,2,0:0:0:0:
256,192,79220,1,0,0:0:0:0:
256,192,79923,1,0,0:0:0:0:
256,192,80157,1,2,0:0:0:0:
256,192,80509,1,0,0:0:0:0:
256,192,80860,1,2,0:0:0:0:
256,192,81095,1,2,0:0:0:0:
256,192,81798,1,2,0:0:0:0:
256,192,82032,1,0,0:0:0:0:
256,192,82149,1,0,0:0:0:0:
256,192,82266,1,0,0:0:0:0:
256,192,82501,1,2,0:0:0:0:
256,192,82735,1,2,0:0:0:0:
256,192,82970,1,4,0:0:0:0:
256,192,83907,1,0,0:0:0:0:
256,192,84376,1,2,0:0:0:0:
256,192,84845,1,0,0:0:0:0:
256,192,85548,1,0,0:0:0:0:
256,192,85782,1,2,0:0:0:0:
256,192,86134,1,0,0:0:0:0:
256,192,86485,1,2,0:0:0:0:
256,192,86720,1,0,0:0:0:0:
256,192,87188,1,2,0:0:0:0:
256,192,87423,1,2,0:0:0:0:
256,192,87657,1,0,0:0:0:0:
256,192,87891,1,2,0:0:0:0:
256,192,88126,1,2,0:0:0:0:
256,192,88360,1,2,0:0:0:0:
256,192,88595,1,0,0:0:0:0:
256,192,88907,1,0,0:0:0:0:
256,192,89063,1,2,0:0:0:0:
256,192,89376,1,2,0:0:0:0:
256,192,89532,1,0,0:0:0:0:
256,192,89766,1,0,0:0:0:0:
256,192,90001,1,2,0:0:0:0:
256,192,90118,1,2,0:0:0:0:
256,192,90235,1,2,0:0:0:0:
256,192,90470,5,4,0:0:0:0:
256,192,90938,1,2,0:0:0:0:
256,192,91407,1,0,0:0:0:0:
256,192,91641,1,0,0:0:0:0:
256,192,91876,1,2,0:0:0:0:
256,192,92110,1,0,0:0:0:0:
256,192,92227,1,0,0:0:0:0:
256,192,92345,1,0,0:0:0:0:
256,192,92579,1,2,0:0:0:0:
256,192,92813,1,0,0:0:0:0:
256,192,92930,1,0,0:0:0:0:
256,192,93048,1,0,0:0:0:0:
256,192,93516,1,0,0:0:0:0:
256,192,93751,1,2,0:0:0:0:
256,192,93868,1,2,0:0:0:0:
256,192,93985,1,2,0:0:0:0:
256,192,94220,1,0,0:0:0:0:
256,192,94688,1,2,0:0:0:0:
256,192,95157,1,0,0:0:0:0:
256,192,95391,1,0,0:0:0:0:
256,192,95626,1,2,0:0:0:0:
256,192,95860,1,0,0:0:0:0:
256,192,96329,1,0,0:0:0:0:
256,192,96563,1,2,0:0:0:0:
256,192,96798,1,2,0:0:0:0:
256,192,97032,1,0,0:0:0:0:
256,192,97149,1,0,0:0:0:0:
256,192,97266,1,0,0:0:0:0:
256,192,97501,1,2,0:0:0:0:
256,192,97618,1,2,0:0:0:0:
256,192,97735,1,2,0:0:0:0:
256,192,97970,1,0,0:0:0:0:
256,192,98438,1,2,0:0:0:0:
256,192,98907,1,0,0:0:0:0:
256,192,99141,1,0,0:0:0:0:
256,192,99376,1,2,0:0:0:0:
256,192,99727,1,2,0:0:0:0:
256,192,99845,1,0,0:0:0:0:
256,192,100079,1,2,0:0:0:0:
256,192,100313,1,0,0:0:0:0:
256,192,100430,1,0,0:0:0:0:
256,192,100548,1,0,0:0:0:0:
256,192,101016,1,0,0:0:0:0:
256,192,101251,1,2,0:0:0:0:
256,192,101368,1,2,0:0:0:0:
256,192,101485,1,2,0:0:0:0:
256,192,101720,1,0,0:0:0:0:
256,192,102188,1,2,0:0:0:0:
256,192,102657,1,0,0:0:0:0:
256,192,102774,1,0,0:0:0:0:
256,192,102891,1,0,0:0:0:0:
256,192,103126,1,2,0:0:0:0:
256,192,103360,1,2,0:0:0:0:
256,192,103595,1,0,0:0:0:0:
256,192,104063,1,2,0:0:0:0:
256,192,104298,1,0,0:0:0:0:
256,192,104532,1,2,0:0:0:0:
256,192,104649,1,2,0:0:0:0:
256,192,104766,1,2,0:0:0:0:
256,192,105001,1,2,0:0:0:0:
256,192,105235,1,0,0:0:0:0:
256,192,105470,5,4,0:0:0:0:
256,192,105938,1,2,0:0:0:0:
256,192,106407,1,0,0:0:0:0:
256,192,106641,1,0,0:0:0:0:
256,192,106876,1,2,0:0:0:0:
256,192,107110,1,0,0:0:0:0:
256,192,107227,1,0,0:0:0:0:
256,192,107345,1,0,0:0:0:0:
256,192,107579,1,2,0:0:0:0:
256,192,107813,1,0,0:0:0:0:
256,192,107930,1,0,0:0:0:0:
256,192,108048,1,0,0:0:0:0:
256,192,108516,1,0,0:0:0:0:
256,192,108751,1,2,0:0:0:0:
256,192,108868,1,2,0:0:0:0:
256,192,108985,1,2,0:0:0:0:
256,192,109220,1,0,0:0:0:0:
256,192,109688,1,2,0:0:0:0:
256,192,110157,1,0,0:0:0:0:
256,192,110391,1,0,0:0:0:0:
256,192,110626,1,2,0:0:0:0:
256,192,110860,1,0,0:0:0:0:
256,192,111329,1,0,0:0:0:0:
256,192,111563,1,2,0:0:0:0:
256,192,111798,1,2,0:0:0:0:
256,192,112032,1,0,0:0:0:0:
256,192,112149,1,0,0:0:0:0:
256,192,112266,1,0,0:0:0:0:
256,192,112501,1,2,0:0:0:0:
256,192,112618,1,2,0:0:0:0:
256,192,112735,1,2,0:0:0:0:
256,192,112970,1,0,0:0:0:0:
256,192,113438,1,2,0:0:0:0:
256,192,113907,1,0,0:0:0:0:
256,192,114024,1,0,0:0:0:0:
256,192,114141,1,0,0:0:0:0:
256,192,114376,1,2,0:0:0:0:
256,192,114727,1,2,0:0:0:0:
256,192,114845,1,0,0:0:0:0:
256,192,115079,1,2,0:0:0:0:
256,192,115313,1,0,0:0:0:0:
256,192,115430,1,0,0:0:0:0:
256,192,115548,1,0,0:0:0:0:
256,192,116016,1,0,0:0:0:0:
256,192,116251,1,2,0:0:0:0:
256,192,116368,1,2,0:0:0:0:
256,192,116485,1,2,0:0:0:0:
256,192,116720,1,0,0:0:0:0:
256,192,117188,1,2,0:0:0:0:
256,192,117657,1,0,0:0:0:0:
256,192,117774,1,0,0:0:0:0:
256,192,117891,1,0,0:0:0:0:
256,192,118126,1,2,0:0:0:0:
256,192,118243,1,2,0:0:0:0:
256,192,118360,1,2,0:0:0:0:
256,192,118595,1,0,0:0:0:0:
256,192,119063,1,2,0:0:0:0:
256,192,119298,1,0,0:0:0:0:
256,192,119532,1,2,0:0:0:0:
256,192,119884,1,2,0:0:0:0:
256,192,120235,1,2,0:0:0:0:
256,192,120470,1,4,0:0:0:0:
256,192,120938,1,2,0:0:0:0:
256,192,121876,1,2,0:0:0:0:
256,192,122110,1,2,0:0:0:0:
256,192,122345,1,0,0:0:0:0:
256,192,122813,1,2,0:0:0:0:
256,192,123516,1,0,0:0:0:0:
256,192,123751,1,2,0:0:0:0:
256,192,124220,1,0,0:0:0:0:
256,192,124688,1,2,0:0:0:0:
256,192,125626,1,2,0:0:0:0:
256,192,125860,1,0,0:0:0:0:
256,192,126095,1,0,0:0:0:0:
256,192,126329,1,2,0:0:0:0:
256,192,126563,1,0,0:0:0:0:
256,192,126680,1,2,0:0:0:0:
256,192,127032,1,0,0:0:0:0:
256,192,127501,1,2,0:0:0:0:
256,192,127735,1,2,0:0:0:0:
256,192,127970,1,0,0:0:0:0:
256,192,128438,1,2,0:0:0:0:
256,192,129141,1,0,0:0:0:0:
256,192,129376,1,2,0:0:0:0:
256,192,129845,1,0,0:0:0:0:
256,192,130313,1,2,0:0:0:0:
256,192,130782,1,2,0:0:0:0:
256,192,131016,1,0,0:0:0:0:
256,192,131251,1,2,0:0:0:0:
256,192,131485,1,2,0:0:0:0:
256,192,131720,1,0,0:0:0:0:
256,192,132188,1,2,0:0:0:0:
256,192,132657,1,0,0:0:0:0:
256,192,132891,1,0,0:0:0:0:
256,192,133126,1,2,0:0:0:0:
256,192,133595,1,4,0:0:0:0:
256,192,133946,1,4,0:0:0:0:
256,192,134298,1,4,0:0:0:0:
256,192,134532,1,6,0:0:0:0:
256,192,135001,1,2,0:0:0:0:
256,192,135470,1,4,0:0:0:0:
256,192,135938,1,2,0:0:0:0:
256,192,136407,1,0,0:0:0:0:
256,192,136524,1,0,0:0:0:0:
256,192,136641,1,0,0:0:0:0:
256,192,136876,1,2,0:0:0:0:
256,192,136993,1,2,0:0:0:0:
256,192,137110,1,2,0:0:0:0:
256,192,137345,1,0,0:0:0:0:
256,192,137813,1,2,0:0:0:0:
256,192,138282,1,2,0:0:0:0:
256,192,138399,1,2,0:0:0:0:
256,192,138516,1,2,0:0:0:0:
256,192,138751,1,0,0:0:0:0:
256,192,138868,1,0,0:0:0:0:
256,192,138985,1,0,0:0:0:0:
256,192,139220,1,0,0:0:0:0:
256,192,139688,1,2,0:0:0:0:
256,192,140157,1,0,0:0:0:0:
256,192,140313,1,0,0:0:0:0:
256,192,140470,1,0,0:0:0:0:
256,192,140626,1,2,0:0:0:0:
256,192,141095,1,2,0:0:0:0:
256,192,141251,1,0,0:0:0:0:
256,192,141407,1,0,0:0:0:0:
256,192,141563,1,2,0:0:0:0:
256,192,142032,1,0,0:0:0:0:
256,192,142188,1,2,0:0:0:0:
256,192,142345,1,2,0:0:0:0:
256,192,142501,1,2,0:0:0:0:
256,192,142970,1,0,0:0:0:0:
256,192,143438,1,6,0:0:0:0:
256,192,143790,1,2,0:0:0:0:
256,192,143907,1,0,0:0:0:0:
256,192,144141,1,0,0:0:0:0:
256,192,144376,1,2,0:0:0:0:
256,192,144493,1,2,0:0:0:0:
256,192,144610,1,2,0:0:0:0:
256,192,144845,1,0,0:0:0:0:
256,192,145313,1,6,0:0:0:0:
256,192,145665,1,0,0:0:0:0:
256,192,145782,1,2,0:0:0:0:
256,192,146016,1,2,0:0:0:0:
256,192,146251,1,0,0:0:0:0:
256,192,146368,1,0,0:0:0:0:
256,192,146485,1,0,0:0:0:0:
256,192,146720,1,0,0:0:0:0:
256,192,147188,1,2,0:0:0:0:
256,192,147423,1,2,0:0:0:0:
256,192,147657,1,0,0:0:0:0:
256,192,147774,1,0,0:0:0:0:
256,192,147891,1,0,0:0:0:0:
256,192,148126,1,2,0:0:0:0:
256,192,148360,1,2,0:0:0:0:
256,192,148595,1,0,0:0:0:0:
256,192,149063,1,2,0:0:0:0:
256,192,149298,1,2,0:0:0:0:
256,192,149415,1,2,0:0:0:0:
256,192,149532,1,0,0:0:0:0:
256,192,149884,1,2,0:0:0:0:
256,192,150235,1,2,0:0:0:0:
256,192,150470,1,4,0:0:0:0:
256,192,150938,1,2,0:0:0:0:
256,192,151173,1,2,0:0:0:0:
256,192,151407,1,0,0:0:0:0:
256,192,151524,1,0,0:0:0:0:
256,192,151641,1,0,0:0:0:0:
256,192,151876,1,2,0:0:0:0:
256,192,152110,1,2,0:0:0:0:
256,192,152345,1,0,0:0:0:0:
256,192,152813,1,2,0:0:0:0:
256,192,153048,1,0,0:0:0:0:
256,192,153282,1,2,0:0:0:0:
256,192,153399,1,2,0:0:0:0:
256,192,153516,1,2,0:0:0:0:
256,192,153751,1,0,0:0:0:0:
256,192,153985,1,2,0:0:0:0:
256,192,154220,1,0,0:0:0:0:
256,192,154688,1,0,0:0:0:0:
256,192,154923,1,2,0:0:0:0:
256,192,155157,1,0,0:0:0:0:
256,192,155274,1,0,0:0:0:0:
256,192,155391,1,0,0:0:0:0:
256,192,155626,1,2,0:0:0:0:
256,192,155743,1,2,0:0:0:0:
256,192,155860,1,2,0:0:0:0:
256,192,156095,1,0,0:0:0:0:
256,192,156563,1,2,0:0:0:0:
256,192,156798,1,0,0:0:0:0:
256,192,157032,1,0,0:0:0:0:
256,192,157266,1,2,0:0:0:0:
256,192,157384,1,2,0:0:0:0:
256,192,157501,1,2,0:0:0:0:
256,192,157735,1,2,0:0:0:0:
256,192,157970,1,0,0:0:0:0:
256,192,158438,1,6,0:0:0:0:
256,192,158673,1,2,0:0:0:0:
256,192,158907,1,0,0:0:0:0:
256,192,159024,1,0,0:0:0:0:
256,192,159141,1,0,0:0:0:0:
256,192,159376,1,2,0:0:0:0:
256,192,159610,1,2,0:0:0:0:
256,192,159727,1,2,0:0:0:0:
256,192,159845,1,0,0:0:0:0:
256,192,160313,1,6,0:0:0:0:
256,192,160548,1,0,0:0:0:0:
256,192,160782,1,2,0:0:0:0:
256,192,160899,1,2,0:0:0:0:
256,192,161016,1,2,0:0:0:0:
256,192,161251,1,0,0:0:0:0:
256,192,161485,1,2,0:0:0:0:
256,192,161602,1,2,0:0:0:0:
256,192,161720,1,0,0:0:0:0:
256,192,162188,1,0,0:0:0:0:
256,192,162423,1,2,0:0:0:0:
256,192,162657,1,0,0:0:0:0:
256,192,162774,1,0,0:0:0:0:
256,192,162891,1,0,0:0:0:0:
256,192,163126,1,2,0:0:0:0:
256,192,163243,1,2,0:0:0:0:
256,192,163360,1,2,0:0:0:0:
256,192,163595,1,0,0:0:0:0:
256,192,163946,1,0,0:0:0:0:
256,192,164298,1,0,0:0:0:0:
256,192,164532,1,6,0:0:0:0:
256,192,165001,1,2,0:0:0:0:
256,192,165470,5,4,0:0:0:0:
256,192,166407,1,0,0:0:0:0:
256,192,167345,1,0,0:0:0:0:
256,192,168048,1,0,0:0:0:0:
256,192,168282,1,2,0:0:0:0:
256,192,168634,1,0,0:0:0:0:
256,192,168985,1,2,0:0:0:0:
256,192,169220,1,0,0:0:0:0:
256,192,169923,1,2,0:0:0:0:
256,192,170157,1,2,0:0:0:0:
256,192,170509,1,0,0:0:0:0:
256,192,170860,1,2,0:0:0:0:
256,192,171095,1,0,0:0:0:0:
256,192,171798,1,0,0:0:0:0:
256,192,172032,1,2,0:0:0:0:
256,192,172149,1,2,0:0:0:0:
256,192,172266,1,2,0:0:0:0:
256,192,172501,1,2,0:0:0:0:
256,192,172735,1,2,0:0:0:0:
256,192,172970,1,4,0:0:0:0:
256,192,173438,1,2,0:0:0:0:
256,192,173673,1,2,0:0:0:0:
256,192,173907,1,0,0:0:0:0:
256,192,174376,1,2,0:0:0:0:
256,192,174845,1,0,0:0:0:0:
256,192,175313,1,2,0:0:0:0:
256,192,175548,1,0,0:0:0:0:
256,192,175782,1,2,0:0:0:0:
256,192,176134,1,0,0:0:0:0:
256,192,176485,1,2,0:0:0:0:
256,192,176720,1,0,0:0:0:0:
256,192,177188,1,2,0:0:0:0:
256,192,177423,1,2,0:0:0:0:
256,192,177657,1,0,0:0:0:0:
256,192,177891,1,2,0:0:0:0:
256,192,178126,1,2,0:0:0:0:
256,192,178360,1,2,0:0:0:0:
256,192,178595,1,0,0:0:0:0:
256,192,178907,1,0,0:0:0:0:
256,192,179063,1,2,0:0:0:0:
256,192,179376,1,2,0:0:0:0:
256,192,179532,1,0,0:0:0:0:
256,192,179766,1,0,0:0:0:0:
256,192,180001,1,2,0:0:0:0:
256,192,180118,1,2,0:0:0:0:
256,192,180235,1,2,0:0:0:0:
256,192,180470,5,4,0:0:0:0:
256,192,180938,1,2,0:0:0:0:
256,192,181251,1,2,0:0:0:0:
256,192,181407,1,0,0:0:0:0:
256,192,181720,1,0,0:0:0:0:
256,192,181876,1,2,0:0:0:0:
256,192,182188,1,2,0:0:0:0:
256,192,182345,1,0,0:0:0:0:
256,192,182657,1,2,0:0:0:0:
256,192,182813,1,0,0:0:0:0:
256,192,182970,1,2,0:0:0:0:
256,192,183126,1,0,0:0:0:0:
256,192,183595,1,2,0:0:0:0:
256,192,183673,1,2,0:0:0:0:
256,192,183751,1,2,0:0:0:0:
256,192,183985,1,2,0:0:0:0:
256,192,184220,1,0,0:0:0:0:
256,192,184688,1,2,0:0:0:0:
256,192,185001,1,2,0:0:0:0:
256,192,185157,1,0,0:0:0:0:
256,192,185470,1,0,0:0:0:0:
256,192,185626,1,2,0:0:0:0:
256,192,185938,1,0,0:0:0:0:
256,192,186407,1,0,0:0:0:0:
256,192,186563,1,2,0:0:0:0:
256,192,186876,1,2,0:0:0:0:
256,192,187032,1,0,0:0:0:0:
256,192,187188,1,0,0:0:0:0:
256,192,187345,1,0,0:0:0:0:
256,192,187501,1,2,0:0:0:0:
256,192,187735,1,2,0:0:0:0:
256,192,187852,1,2,0:0:0:0:
256,192,187970,1,0,0:0:0:0:
256,192,188438,1,2,0:0:0:0:
256,192,188751,1,2,0:0:0:0:
256,192,188907,1,0,0:0:0:0:
256,192,189220,1,0,0:0:0:0:
256,192,189376,1,2,0:0:0:0:
256,192,189688,1,2,0:0:0:0:
256,192,189845,1,0,0:0:0:0:
256,192,190157,1,2,0:0:0:0:
256,192,190313,1,0,0:0:0:0:
256,192,190470,1,2,0:0:0:0:
256,192,190626,1,0,0:0:0:0:
256,192,191095,1,0,0:0:0:0:
256,192,191173,1,0,0:0:0:0:
256,192,191251,1,0,0:0:0:0:
256,192,191485,1,2,0:0:0:0:
256,192,191720,1,0,0:0:0:0:
256,192,192188,1,2,0:0:0:0:
256,192,192501,1,2,0:0:0:0:
256,192,192657,1,0,0:0:0:0:
256,192,192813,1,0,0:0:0:0:
256,192,192970,1,0,0:0:0:0:
256,192,193126,1,2,0:0:0:0:
256,192,193595,1,0,0:0:0:0:
256,192,193907,1,0,0:0:0:0:
256,192,194063,1,2,0:0:0:0:
256,192,194220,1,2,0:0:0:0:
256,192,194376,1,2,0:0:0:0:
256,192,194532,1,0,0:0:0:0:
256,192,194845,1,0,0:0:0:0:
256,192,195001,1,2,0:0:0:0:
256,192,195157,1,0,0:0:0:0:
256,192,195470,1,4,0:0:0:0:
256,192,195938,1,2,0:0:0:0:
256,192,196251,1,2,0:0:0:0:
256,192,196407,1,0,0:0:0:0:
256,192,196720,1,0,0:0:0:0:
256,192,196876,1,2,0:0:0:0:
256,192,197188,1,2,0:0:0:0:
256,192,197345,1,0,0:0:0:0:
256,192,197657,1,2,0:0:0:0:
256,192,197813,1,0,0:0:0:0:
256,192,197970,1,2,0:0:0:0:
256,192,198126,1,0,0:0:0:0:
256,192,198595,1,2,0:0:0:0:
256,192,198673,1,2,0:0:0:0:
256,192,198751,1,2,0:0:0:0:
256,192,198985,1,2,0:0:0:0:
256,192,199220,1,0,0:0:0:0:
256,192,199688,1,2,0:0:0:0:
256,192,200001,1,2,0:0:0:0:
256,192,200157,1,0,0:0:0:0:
256,192,200470,1,0,0:0:0:0:
256,192,200626,1,2,0:0:0:0:
256,192,200938,1,0,0:0:0:0:
256,192,201407,1,0,0:0:0:0:
256,192,201563,1,2,0:0:0:0:
256,192,201876,1,2,0:0:0:0:
256,192,202032,1,0,0:0:0:0:
256,192,202188,1,0,0:0:0:0:
256,192,202345,1,0,0:0:0:0:
256,192,202501,1,2,0:0:0:0:
256,192,202735,1,2,0:0:0:0:
256,192,202852,1,2,0:0:0:0:
256,192,202970,1,0,0:0:0:0:
256,192,203438,1,2,0:0:0:0:
256,192,203751,1,2,0:0:0:0:
256,192,203907,1,0,0:0:0:0:
256,192,204220,1,0,0:0:0:0:
256,192,204376,1,2,0:0:0:0:
256,192,204688,1,2,0:0:0:0:
256,192,204845,1,0,0:0:0:0:
256,192,205157,1,2,0:0:0:0:
256,192,205313,1,0,0:0:0:0:
256,192,205470,1,2,0:0:0:0:
256,192,205626,1,0,0:0:0:0:
256,192,206095,1,0,0:0:0:0:
256,192,206173,1,0,0:0:0:0:
256,192,206251,1,0,0:0:0:0:
256,192,206485,1,2,0:0:0:0:
256,192,206720,1,0,0:0:0:0:
256,192,207188,1,2,0:0:0:0:
256,192,207501,1,2,0:0:0:0:
256,192,207657,1,0,0:0:0:0:
256,192,207970,1,0,0:0:0:0:
256,192,208126,1,2,0:0:0:0:
256,192,208595,1,0,0:0:0:0:
256,192,208751,1,0,0:0:0:0:
256,192,208907,1,0,0:0:0:0:
256,192,209063,1,2,0:0:0:0:
256,192,209220,1,2,0:0:0:0:
256,192,209376,1,2,0:0:0:0:
256,192,209532,1,0,0:0:0:0:
256,192,209845,1,0,0:0:0:0:
256,192,210001,1,2,0:0:0:0:
256,192,210157,1,0,0:0:0:0:
256,192,210470,1,4,0:0:0:0:
256,192,210938,1,2,0:0:0:0:
256,192,211876,1,2,0:0:0:0:
256,192,212110,1,2,0:0:0:0:
256,192,212345,1,0,0:0:0:0:
256,192,212813,1,2,0:0:0:0:
256,192,213516,1,0,0:0:0:0:
256,192,213751,1,2,0:0:0:0:
256,192,214220,1,0,0:0:0:0:
256,192,214688,1,2,0:0:0:0:
256,192,215626,1,2,0:0:0:0:
256,192,215860,1,0,0:0:0:0:
256,192,216095,1,0,0:0:0:0:
256,192,216329,1,2,0:0:0:0:
256,192,216563,1,0,0:0:0:0:
256,192,216680,1,2,0:0:0:0:
256,192,217032,1,0,0:0:0:0:
256,192,217501,1,2,0:0:0:0:
256,192,217735,1,2,0:0:0:0:
256,192,217970,1,0,0:0:0:0:
256,192,218438,1,2,0:0:0:0:
256,192,219141,1,0,0:0:0:0:
256,192,219376,1,2,0:0:0:0:
256,192,219845,1,0,0:0:0:0:
256,192,220313,1,2,0:0:0:0:
256,192,220782,1,2,0:0:0:0:
256,192,221016,1,0,0:0:0:0:
256,192,221251,1,2,0:0:0:0:
256,192,221485,1,2,0:0:0:0:
256,192,221720,1,0,0:0:0:0:
256,192,222188,1,2,0:0:0:0:
256,192,222657,1,0,0:0:0:0:
256,192,222891,1,0,0:0:0:0:
256,192,223126,1,2,0:0:0:0:
256,192,223595,5,4,0:0:0:0:
256,192,223946,1,4,0:0:0:0:
256,192,224298,1,4,0:0:0:0:
256,192,224532,1,6,0:0:0:0:
256,192,225001,1,2,0:0:0:0:
256,192,225470,1,4,0:0:0:0:
256,192,225938,1,2,0:0:0:0:
256,192,226173,1,2,0:0:0:0:
256,192,226407,1,0,0:0:0:0:
256,192,226524,1,0,0:0:0:0:
256,192,226641,1,0,0:0:0:0:
256,192,226759,1,0,0:0:0:0:
256,192,226876,1,0,0:0:0:0:
256,192,227110,1,2,0:0:0:0:
256,192,227345,1,0,0:0:0:0:
256,192,227813,1,2,0:0:0:0:
256,192,228282,1,2,0:0:0:0:
256,192,228399,1,2,0:0:0:0:
256,192,228516,1,2,0:0:0:0:
256,192,228634,1,2,0:0:0:0:
256,192,228751,1,2,0:0:0:0:
256,192,228985,1,0,0:0:0:0:
256,192,229220,1,0,0:0:0:0:
256,192,229688,1,2,0:0:0:0:
256,192,230157,1,0,0:0:0:0:
256,192,230313,1,0,0:0:0:0:
256,192,230470,1,0,0:0:0:0:
256,192,230626,1,2,0:0:0:0:
256,192,230782,1,2,0:0:0:0:
256,192,230938,1,2,0:0:0:0:
256,192,231095,1,0,0:0:0:0:
256,192,231407,1,0,0:0:0:0:
256,192,231563,1,2,0:0:0:0:
256,192,231876,1,2,0:0:0:0:
256,192,232032,1,0,0:0:0:0:
256,192,232266,1,0,0:0:0:0:
256,192,232501,1,2,0:0:0:0:
256,192,232618,1,2,0:0:0:0:
256,192,232735,1,2,0:0:0:0:
256,192,232970,1,0,0:0:0:0:
256,192,233438,1,6,0:0:0:0:
256,192,233907,1,0,0:0:0:0:
256,192,234141,1,0,0:0:0:0:
256,192,234259,1,0,0:0:0:0:
256,192,234376,1,2,0:0:0:0:
256,192,234610,1,2,0:0:0:0:
256,192,234845,1,0,0:0:0:0:
256,192,235313,1,6,0:0:0:0:
256,192,235665,1,0,0:0:0:0:
256,192,235782,1,2,0:0:0:0:
256,192,236016,1,2,0:0:0:0:
256,192,236134,1,2,0:0:0:0:
256,192,236251,1,0,0:0:0:0:
256,192,236485,1,2,0:0:0:0:
256,192,236720,1,0,0:0:0:0:
256,192,237188,1,2,0:0:0:0:
256,192,237657,1,0,0:0:0:0:
256,192,237774,1,0,0:0:0:0:
256,192,237891,1,0,0:0:0:0:
256,192,238126,1,2,0:0:0:0:
256,192,238360,1,2,0:0:0:0:
256,192,238595,1,0,0:0:0:0:
256,192,238829,1,2,0:0:0:0:
256,192,238946,1,2,0:0:0:0:
256,192,239063,1,2,0:0:0:0:
256,192,239298,1,2,0:0:0:0:
256,192,239415,1,2,0:0:0:0:
256,192,239532,1,0,0:0:0:0:
256,192,239884,1,0,0:0:0:0:
256,192,240235,1,2,0:0:0:0:
256,192,240470,1,4,0:0:0:0:
256,192,240938,1,2,0:0:0:0:
256,192,241173,1,2,0:0:0:0:
256,192,241407,1,0,0:0:0:0:
256,192,241524,1,0,0:0:0:0:
256,192,241641,1,0,0:0:0:0:
256,192,241759,1,0,0:0:0:0:
256,192,241876,1,0,0:0:0:0:
256,192,242110,1,2,0:0:0:0:
256,192,242345,1,0,0:0:0:0:
256,192,242813,1,2,0:0:0:0:
256,192,243048,1,0,0:0:0:0:
256,192,243282,1,2,0:0:0:0:
256,192,243399,1,2,0:0:0:0:
256,192,243516,1,2,0:0:0:0:
256,192,243634,1,2,0:0:0:0:
256,192,243751,1,2,0:0:0:0:
256,192,243985,1,2,0:0:0:0:
256,192,244220,1,0,0:0:0:0:
256,192,244688,1,2,0:0:0:0:
256,192,244923,1,2,0:0:0:0:
256,192,245157,1,0,0:0:0:0:
256,192,245313,1,0,0:0:0:0:
256,192,245470,1,0,0:0:0:0:
256,192,245626,1,2,0:0:0:0:
256,192,245782,1,2,0:0:0:0:
256,192,245938,1,2,0:0:0:0:
256,192,246095,1,0,0:0:0:0:
256,192,246407,1,0,0:0:0:0:
256,192,246563,1,2,0:0:0:0:
256,192,246876,1,2,0:0:0:0:
256,192,247032,1,0,0:0:0:0:
256,192,247266,1,0,0:0:0:0:
256,192,247501,1,2,0:0:0:0:
256,192,247618,1,2,0:0:0:0:
256,192,247735,1,2,0:0:0:0:
256,192,247970,1,4,0:0:0:0:
256,192,248438,1,2,0:0:0:0:
256,192,248790,1,2,0:0:0:0:
256,192,248907,1,2,0:0:0:0:
256,192,249141,1,0,0:0:0:0:
256,192,249376,1,2,0:0:0:0:
256,192,249493,1,2,0:0:0:0:
256,192,249610,1,2,0:0:0:0:
256,192,249845,1,0,0:0:0:0:
256,192,250313,1,2,0:0:0:0:
256,192,250665,1,0,0:0:0:0:
256,192,250782,1,2,0:0:0:0:
256,192,251016,1,2,0:0:0:0:
256,192,251134,1,2,0:0:0:0:
256,192,251251,1,0,0:0:0:0:
256,192,251485,1,2,0:0:0:0:
256,192,251720,1,0,0:0:0:0:
256,192,252188,1,2,0:0:0:0:
256,192,252423,1,2,0:0:0:0:
256,192,252540,1,2,0:0:0:0:
256,192,252657,1,2,0:0:0:0:
256,192,252891,1,2,0:0:0:0:
256,192,253126,1,0,0:0:0:0:
256,192,253360,1,2,0:0:0:0:
256,192,253595,1,0,0:0:0:0:
256,192,253946,1,0,0:0:0:0:
256,192,254063,1,2,0:0:0:0:
256,192,254298,1,2,0:0:0:0:
256,192,254415,1,2,0:0:0:0:
256,192,254532,1,0,0:0:0:0:
256,192,254884,1,2,0:0:0:0:
256,192,255235,1,2,0:0:0:0:
256,192,255470,5,4,0:0:0:0:
256,192,255938,1,2,0:0:0:0:
256,192,256407,1,0,0:0:0:0:
256,192,256641,1,0,0:0:0:0:
256,192,256876,1,2,0:0:0:0:
256,192,257345,1,0,0:0:0:0:
256,192,257813,1,2,0:0:0:0:
256,192,258282,1,0,0:0:0:0:
256,192,258516,1,2,0:0:0:0:
256,192,258751,1,2,0:0:0:0:
256,192,259102,1,2,0:0:0:0:
256,192,259220,1,0,0:0:0:0:
256,192,259688,1,2,0:0:0:0:
256,192,260157,1,0,0:0:0:0:
256,192,260391,1,0,0:0:0:0:
256,192,260626,1,2,0:0:0:0:
256,192,261095,1,0,0:0:0:0:
256,192,261212,1,0,0:0:0:0:
256,192,261446,1,0,0:0:0:0:
256,192,261563,1,2,0:0:0:0:
256,192,261798,1,0,0:0:0:0:
256,192,262032,1,0,0:0:0:0:
256,192,262149,1,2,0:0:0:0:
256,192,262384,1,2,0:0:0:0:
256,192,262501,1,2,0:0:0:0:
256,192,262970,1,0,0:0:0:0:
256,192,263438,1,2,0:0:0:0:
256,192,263907,1,0,0:0:0:0:
256,192,264141,1,0,0:0:0:0:
256,192,264376,1,2,0:0:0:0:
256,192,264845,1,0,0:0:0:0:
256,192,265313,1,2,0:0:0:0:
256,192,265782,1,0,0:0:0:0:
256,192,266016,1,2,0:0:0:0:
256,192,266251,1,2,0:0:0:0:
256,192,266602,1,2,0:0:0:0:
256,192,266720,1,0,0:0:0:0:
256,192,267188,1,2,0:0:0:0:
256,192,267657,1,0,0:0:0:0:
256,192,267891,1,0,0:0:0:0:
256,192,268126,1,2,0:0:0:0:
256,192,268595,1,0,0:0:0:0:
256,192,268712,1,0,0:0:0:0:
256,192,268946,1,0,0:0:0:0:
256,192,269063,1,2,0:0:0:0:
256,192,269298,1,0,0:0:0:0:
256,192,269532,1,0,0:0:0:0:
256,192,269649,1,2,0:0:0:0:
256,192,269884,1,2,0:0:0:0:
256,192,270001,1,2,0:0:0:0:
256,192,270235,1,2,0:0:0:0:
256,192,270470,1,0,0:0:0:0:
256,192,270938,1,0,0:0:0:0:
256,192,271407,1,0,0:0:0:0:
256,192,271876,1,2,0:0:0:0:
256,192,272345,1,0,0:0:0:0:
256,192,272813,1,0,0:0:0:0:
256,192,273282,1,0,0:0:0:0:
256,192,273516,1,2,0:0:0:0:
256,192,273751,1,2,0:0:0:0:
256,192,274220,1,0,0:0:0:0:
256,192,274688,1,0,0:0:0:0:
256,192,275157,1,0,0:0:0:0:
256,192,275626,1,2,0:0:0:0:
256,192,276095,1,0,0:0:0:0:
256,192,276212,1,0,0:0:0:0:
256,192,276446,1,0,0:0:0:0:
256,192,276563,1,2,0:0:0:0:
256,192,276798,1,0,0:0:0:0:
256,192,277032,1,0,0:0:0:0:
256,192,277149,1,2,0:0:0:0:
256,192,277384,1,2,0:0:0:0:
256,192,277501,1,2,0:0:0:0:
256,192,277970,1,0,0:0:0:0:
256,192,278438,1,0,0:0:0:0:
256,192,278907,1,0,0:0:0:0:
256,192,279376,1,2,0:0:0:0:
256,192,279845,1,0,0:0:0:0:
256,192,280313,1,0,0:0:0:0:
256,192,280782,1,0,0:0:0:0:
256,192,281016,1,2,0:0:0:0:
256,192,281251,1,2,0:0:0:0:
256,192,281720,1,0,0:0:0:0:
256,192,282188,1,0,0:0:0:0:
256,192,282657,1,0,0:0:0:0:
256,192,283126,1,2,0:0:0:0:
256,192,283595,1,0,0:0:0:0:
256,192,283712,1,0,0:0:0:0:
256,192,283946,1,0,0:0:0:0:
256,192,284063,1,2,0:0:0:0:
256,192,284298,1,0,0:0:0:0:
256,192,284532,1,0,0:0:0:0:
256,192,284649,1,2,0:0:0:0:
256,192,284884,1,2,0:0:0:0:
256,192,285001,1,2,0:0:0:0:
256,192,285235,1,2,0:0:0:0:
