osu file format v14

[General]
AudioFilename: audio.mp3
AudioLeadIn: 0
PreviewTime: 67856
Countdown: 0
SampleSet: Normal
StackLeniency: 0.7
Mode: 1
LetterboxInBreaks: 0
WidescreenStoryboard: 1

[Editor]
Bookmarks: 15480,30480,37980,45480,52980,67980,82980,97980,132983,140481,155481,170481
DistanceSpacing: 0.8
BeatDivisor: 4
GridSize: 32
TimelineZoom: 1.640001

[Metadata]
Title:Kishinjou set 01 ~ Mist Lake
TitleUnicode:Kishinjou set 01 ~ ミストレイク
Artist:Rin
ArtistUnicode:凛
Creator:tasuke912
Version:Muzukashii
Source:東方輝針城 ~ Double Dealing Character.
Tags:touhou project featured artist osu! House set of
BeatmapID:1981693
BeatmapSetID:948844

[Difficulty]
HPDrainRate:6
CircleSize:2
OverallDifficulty:4
ApproachRate:5
SliderMultiplier:1.4
SliderTickRate:1

[Events]
//Background and Video events
0,0,"27904336_p0.jpg",0,85
//Break Periods
//Storyboard Layer 0 (Background)
//Storyboard Layer 1 (Fail)
//Storyboard Layer 2 (Pass)
//Storyboard Layer 3 (Foreground)
//Storyboard Sound Samples

[TimingPoints]
474,468.75,4,1,0,80,1,0
45942,-102.040816326531,4,1,0,80,0,0
46411,-104.166666666667,4,1,0,80,0,0
46645,-105.263157894737,4,1,0,80,0,0
46880,-106.382978723404,4,1,0,80,0,0
47114,-107.52688172043,4,1,0,80,0,0
47349,-108.695652173913,4,1,0,80,0,0
47817,-111.111111111111,4,1,0,80,0,0
48286,-113.636363636364,4,1,0,80,0,0
48520,-114.942528735632,4,1,0,80,0,0
48638,-115.606936416185,4,1,0,80,0,0
48755,-116.279069767442,4,1,0,80,0,0
48989,-117.647058823529,4,1,0,80,0,0
49224,-119.047619047619,4,1,0,80,0,0
49692,-121.951219512195,4,1,0,80,0,0
50161,-125,4,1,0,80,0,0
50395,-126.582278481013,4,1,0,80,0,0
50630,-128.205128205128,4,1,0,80,0,0
50864,-129.87012987013,4,1,0,80,0,0
51099,-131.578947368421,4,1,0,80,0,0
51567,-135.135135135135,4,1,0,80,0,0
52036,-138.888888888889,4,1,0,80,0,0
52270,-140.845070422535,4,1,0,80,0,0
52388,-141.843971631206,4,1,0,80,0,0
52505,-142.857142857143,4,1,0,80,0,0
52974,-147.058823529412,4,1,0,80,0,0
53911,-150.001500015,4,1,0,80,0,0
66333,-150.001500015,4,1,0,20,0,0
67856,-100,4,1,0,80,0,0
67974,-100,4,1,0,80,0,1
82974,-100,4,1,0,80,0,0
97974,-111.111111111111,4,1,0,80,0,0
98442,-125,4,1,0,80,0,0
111099,-111.111111111111,4,1,0,80,0,0
112974,-100,4,1,0,80,0,1
125161,472.44094488189,4,1,0,80,1,9
125515,-102.040816326531,4,1,0,80,0,1
125869,-104.166666666667,4,1,0,80,0,1
126105,480,4,1,0,80,1,1
126105,-104.166666666667,4,1,0,80,0,1
126345,-106.382978723404,4,1,0,80,0,1
126825,-111.111111111111,4,1,0,80,0,1
127065,545.454545454546,4,1,0,80,1,9
127065,-100,4,1,0,80,0,1
127337,-102.040816326531,4,1,0,80,0,1
127474,-103.092783505155,4,1,0,80,0,1
127610,571.428571428571,4,1,0,80,1,9
127895,-102.040816326531,4,1,0,80,0,1
128181,600,4,1,0,80,1,0
132981,468.75,4,1,0,80,1,0

[HitObjects]
256,192,474,5,0,0:0:0:0:
256,192,942,1,2,0:0:0:0:
256,192,1880,1,2,0:0:0:0:
256,192,2349,1,0,0:0:0:0:
256,192,2817,1,2,0:0:0:0:
256,192,3755,1,2,0:0:0:0:
256,192,3989,1,2,0:0:0:0:
256,192,4224,1,0,0:0:0:0:
256,192,4692,1,2,0:0:0:0:
256,192,5630,1,2,0:0:0:0:
256,192,6099,1,0,0:0:0:0:
256,192,6567,1,2,0:0:0:0:
256,192,7036,1,0,0:0:0:0:
256,192,7153,1,2,0:0:0:0:
256,192,7505,1,2,0:0:0:0:
256,192,7739,1,2,0:0:0:0:
256,192,7974,1,0,0:0:0:0:
256,192,8442,1,2,0:0:0:0:
256,192,9380,1,2,0:0:0:0:
256,192,9849,1,0,0:0:0:0:
256,192,10317,1,2,0:0:0:0:
256,192,11255,1,2,0:0:0:0:
256,192,11489,1,2,0:0:0:0:
256,192,11724,1,0,0:0:0:0:
256,192,12192,1,2,0:0:0:0:
256,192,13130,1,2,0:0:0:0:
256,192,13599,1,0,0:0:0:0:
256,192,13833,1,2,0:0:0:0:
256,192,14302,1,2,0:0:0:0:
256,192,14770,1,2,0:0:0:0:
256,192,15005,1,2,0:0:0:0:
256,192,15474,5,4,0:0:0:0:
256,192,15942,1,2,0:0:0:0:
256,192,16177,1,0,0:0:0:0:
256,192,16645,1,0,0:0:0:0:
256,192,16880,1,2,0:0:0:0:
256,192,17114,1,2,0:0:0:0:
256,192,17349,1,0,0:0:0:0:
256,192,17817,1,2,0:0:0:0:
256,192,18052,1,0,0:0:0:0:
256,192,18520,1,2,0:0:0:0:
256,192,18638,1,2,0:0:0:0:
256,192,18755,1,2,0:0:0:0:
256,192,18989,1,2,0:0:0:0:
256,192,19224,1,0,0:0:0:0:
256,192,19692,1,2,0:0:0:0:
256,192,19927,1,0,0:0:0:0:
256,192,20395,1,0,0:0:0:0:
256,192,20630,1,2,0:0:0:0:
256,192,20864,1,2,0:0:0:0:
256,192,21099,1,0,0:0:0:0:
256,192,21567,1,2,0:0:0:0:
256,192,21802,1,0,0:0:0:0:
256,192,22036,1,0,0:0:0:0:
256,192,22153,1,2,0:0:0:0:
256,192,22505,1,2,0:0:0:0:
256,192,22739,1,2,0:0:0:0:
256,192,22974,1,0,0:0:0:0:
256,192,23442,1,2,0:0:0:0:
256,192,23677,1,0,0:0:0:0:
256,192,24145,1,0,0:0:0:0:
256,192,24380,1,2,0:0:0:0:
256,192,24614,1,2,0:0:0:0:
256,192,24849,1,0,0:0:0:0:
256,192,25317,1,2,0:0:0:0:
256,192,25552,1,0,0:0:0:0:
256,192,26020,1,2,0:0:0:0:
256,192,26138,1,2,0:0:0:0:
256,192,26255,1,2,0:0:0:0:
256,192,26489,1,2,0:0:0:0:
256,192,26724,1,0,0:0:0:0:
256,192,27192,1,2,0:0:0:0:
256,192,27427,1,0,0:0:0:0:
256,192,27895,1,0,0:0:0:0:
256,192,28130,1,2,0:0:0:0:
256,192,28364,1,2,0:0:0:0:
256,192,28599,1,4,0:0:0:0:
256,192,29067,1,0,0:0:0:0:
256,192,29302,1,2,0:0:0:0:
256,192,29536,1,0,0:0:0:0:
256,192,29770,1,2,0:0:0:0:
256,192,30005,1,2,0:0:0:0:
256,192,30474,1,4,0:0:0:0:
256,192,30942,1,2,0:0:0:0:
256,192,31177,1,0,0:0:0:0:
256,192,31880,1,2,0:0:0:0:
256,192,32349,1,0,0:0:0:0:
256,192,32817,1,2,0:0:0:0:
256,192,33052,1,0,0:0:0:0:
256,192,33520,1,2,0:0:0:0:
256,192,33755,1,2,0:0:0:0:
256,192,34224,1,0,0:0:0:0:
256,192,34692,1,2,0:0:0:0:
256,192,34927,1,0,0:0:0:0:
256,192,35630,1,2,0:0:0:0:
256,192,36099,1,0,0:0:0:0:
256,192,36567,1,2,0:0:0:0:
256,192,36802,1,0,0:0:0:0:
256,192,37270,1,2,0:0:0:0:
256,192,37388,1,2,0:0:0:0:
256,192,37505,1,2,0:0:0:0:
256,192,37974,1,4,0:0:0:0:
256,192,38442,1,2,0:0:0:0:
256,192,38911,1,0,0:0:0:0:
256,192,39145,1,0,0:0:0:0:
256,192,39380,1,2,0:0:0:0:
256,192,39614,1,2,0:0:0:0:
256,192,39849,1,0,0:0:0:0:
256,192,40317,1,2,0:0:0:0:
256,192,40786,1,0,0:0:0:0:
256,192,41020,1,2,0:0:0:0:
256,192,41138,1,2,0:0:0:0:
256,192,41255,1,2,0:0:0:0:
256,192,41489,1,2,0:0:0:0:
256,192,41724,1,0,0:0:0:0:
256,192,42192,1,2,0:0:0:0:
256,192,42661,1,0,0:0:0:0:
256,192,42895,1,2,0:0:0:0:
256,192,43130,1,2,0:0:0:0:
256,192,43364,1,2,0:0:0:0:
256,192,43599,1,0,0:0:0:0:
256,192,44067,1,2,0:0:0:0:
256,192,44536,1,0,0:0:0:0:
256,192,44770,1,2,0:0:0:0:
256,192,44888,1,2,0:0:0:0:
256,192,45005,1,2,0:0:0:0:
256,192,45239,1,0,0:0:0:0:
256,192,45474,1,0,0:0:0:0:
256,192,45942,1,2,0:0:0:0:
256,192,46411,1,0,0:0:0:0:
256,192,46645,1,0,0:0:0:0:
256,192,46880,1,2,0:0:0:0:
256,192,47114,1,2,0:0:0:0:
256,192,47349,1,0,0:0:0:0:
256,192,47817,1,2,0:0:0:0:
256,192,48286,1,0,0:0:0:0:
256,192,48520,1,2,0:0:0:0:
256,192,48638,1,2,0:0:0:0:
256,192,48755,1,2,0:0:0:0:
256,192,48989,1,2,0:0:0:0:
256,192,49224,1,0,0:0:0:0:
256,192,49692,1,2,0:0:0:0:
256,192,50161,1,0,0:0:0:0:
256,192,50395,1,2,0:0:0:0:
256,192,50630,1,2,0:0:0:0:
256,192,50864,1,2,0:0:0:0:
256,192,51099,1,0,0:0:0:0:
256,192,51567,1,2,0:0:0:0:
256,192,52036,1,0,0:0:0:0:
256,192,52270,1,2,0:0:0:0:
256,192,52388,1,2,0:0:0:0:
256,192,52505,1,2,0:0:0:0:
256,192,52974,5,4,0:0:0:0:
256,192,53911,1,2,0:0:0:0:
256,192,54849,1,2,0:0:0:0:
256,192,55786,1,2,0:0:0:0:
256,192,56255,1,2,0:0:0:0:
256,192,56724,1,2,0:0:0:0:
256,192,57661,1,2,0:0:0:0:
256,192,57895,1,2,0:0:0:0:
256,192,58130,1,2,0:0:0:0:
256,192,58599,1,2,0:0:0:0:
256,192,59302,1,2,0:0:0:0:
256,192,59536,1,2,0:0:0:0:
256,192,60474,1,2,0:0:0:0:
256,192,61411,1,2,0:0:0:0:
256,192,62349,1,2,0:0:0:0:
256,192,62817,1,2,0:0:0:0:
256,192,63286,1,2,0:0:0:0:
256,192,64224,1,2,0:0:0:0:
256,192,65161,1,2,0:0:0:0:
256,192,65395,1,2,0:0:0:0:
256,192,65630,1,2,0:0:0:0:
256,192,66099,1,2,0:0:0:0:
256,192,66333,12,2,67739,0:0:0:0:
256,192,67974,5,4,0:0:0:0:
256,192,68442,1,0,0:0:0:0:
256,192,68677,1,2,0:0:0:0:
256,192,68911,1,2,0:0:0:0:
256,192,69380,1,0,0:0:0:0:
256,192,69849,1,2,0:0:0:0:
256,192,70317,1,2,0:0:0:0:
256,192,70552,1,0,0:0:0:0:
256,192,70786,1,2,0:0:0:0:
256,192,71020,1,2,0:0:0:0:
256,192,71138,1,2,0:0:0:0:
256,192,71255,1,0,0:0:0:0:
256,192,71724,1,0,0:0:0:0:
256,192,72192,1,2,0:0:0:0:
256,192,72427,1,2,0:0:0:0:
256,192,72661,1,0,0:0:0:0:
256,192,72895,1,0,0:0:0:0:
256,192,73013,1,0,0:0:0:0:
256,192,73130,1,2,0:0:0:0:
256,192,73364,1,2,0:0:0:0:
256,192,73599,1,0,0:0:0:0:
256,192,74067,1,2,0:0:0:0:
256,192,74302,1,0,0:0:0:0:
256,192,74536,1,0,0:0:0:0:
256,192,75005,1,2,0:0:0:0:
256,192,75474,1,0,0:0:0:0:
256,192,75942,1,0,0:0:0:0:
256,192,76177,1,2,0:0:0:0:
256,192,76411,1,2,0:0:0:0:
256,192,76880,1,0,0:0:0:0:
256,192,77349,1,2,0:0:0:0:
256,192,77817,1,2,0:0:0:0:
256,192,78052,1,0,0:0:0:0:
256,192,78286,1,2,0:0:0:0:
256,192,78520,1,2,0:0:0:0:
256,192,78638,1,2,0:0:0:0:
256,192,78755,1,0,0:0:0:0:
256,192,78989,1,2,0:0:0:0:
256,192,79224,1,0,0:0:0:0:
256,192,79692,1,2,0:0:0:0:
256,192,79927,1,2,0:0:0:0:
256,192,80161,1,0,0:0:0:0:
256,192,80395,1,0,0:0:0:0:
256,192,80513,1,0,0:0:0:0:
256,192,80630,1,2,0:0:0:0:
256,192,80864,1,2,0:0:0:0:
256,192,81099,1,0,0:0:0:0:
256,192,81333,1,2,0:0:0:0:
256,192,81450,1,2,0:0:0:0:
256,192,81802,1,2,0:0:0:0:
256,192,81919,1,0,0:0:0:0:
256,192,82270,1,2,0:0:0:0:
256,192,82505,1,2,0:0:0:0:
256,192,82974,5,4,0:0:0:0:
256,192,83911,1,0,0:0:0:0:
256,192,84145,1,2,0:0:0:0:
256,192,84380,1,2,0:0:0:0:
256,192,84849,1,0,0:0:0:0:
256,192,85317,1,2,0:0:0:0:
256,192,85552,1,0,0:0:0:0:
256,192,86020,1,0,0:0:0:0:
256,192,86255,1,2,0:0:0:0:
256,192,86724,1,0,0:0:0:0:
256,192,87192,1,2,0:0:0:0:
256,192,87427,1,2,0:0:0:0:
256,192,87661,1,0,0:0:0:0:
256,192,88130,1,2,0:0:0:0:
256,192,88599,1,0,0:0:0:0:
256,192,89067,1,2,0:0:0:0:
256,192,89536,1,0,0:0:0:0:
256,192,89770,1,2,0:0:0:0:
256,192,89888,1,2,0:0:0:0:
256,192,90005,1,2,0:0:0:0:
256,192,90239,1,2,0:0:0:0:
256,192,90474,1,0,0:0:0:0:
256,192,90942,1,2,0:0:0:0:
256,192,91411,1,0,0:0:0:0:
256,192,91645,1,2,0:0:0:0:
256,192,91880,1,2,0:0:0:0:
256,192,92114,1,0,0:0:0:0:
256,192,92349,1,0,0:0:0:0:
256,192,92817,1,2,0:0:0:0:
256,192,93052,1,2,0:0:0:0:
256,192,93286,1,0,0:0:0:0:
256,192,93755,1,0,0:0:0:0:
256,192,93989,1,2,0:0:0:0:
256,192,94224,1,0,0:0:0:0:
256,192,94692,1,2,0:0:0:0:
256,192,95161,1,0,0:0:0:0:
256,192,95630,1,2,0:0:0:0:
256,192,95864,1,2,0:0:0:0:
256,192,96099,1,0,0:0:0:0:
256,192,96333,1,2,0:0:0:0:
256,192,96567,1,0,0:0:0:0:
256,192,96714,1,2,0:0:0:0:
256,192,96802,1,2,0:0:0:0:
256,192,97036,1,0,0:0:0:0:
256,192,97182,1,2,0:0:0:0:
256,192,97270,1,2,0:0:0:0:
256,192,97505,1,2,0:0:0:0:
256,192,97974,5,4,0:0:0:0:
256,192,98442,1,2,0:0:0:0:
256,192,98677,1,0,0:0:0:0:
256,192,99145,1,0,0:0:0:0:
256,192,99380,1,2,0:0:0:0:
256,192,99849,1,0,0:0:0:0:
256,192,100317,1,2,0:0:0:0:
256,192,100552,1,0,0:0:0:0:
256,192,100786,1,2,0:0:0:0:
256,192,101255,1,2,0:0:0:0:
256,192,101724,1,0,0:0:0:0:
256,192,102192,1,2,0:0:0:0:
256,192,102427,1,0,0:0:0:0:
256,192,102895,1,0,0:0:0:0:
256,192,103130,1,2,0:0:0:0:
256,192,103599,1,0,0:0:0:0:
256,192,104067,1,2,0:0:0:0:
256,192,104302,1,0,0:0:0:0:
256,192,104536,1,2,0:0:0:0:
256,192,104770,1,2,0:0:0:0:
256,192,104888,1,2,0:0:0:0:
256,192,105005,1,2,0:0:0:0:
256,192,105239,1,2,0:0:0:0:
256,192,105474,1,0,0:0:0:0:
256,192,105942,1,2,0:0:0:0:
256,192,106177,1,0,0:0:0:0:
256,192,106645,1,0,0:0:0:0:
256,192,106880,1,2,0:0:0:0:
256,192,107349,1,0,0:0:0:0:
256,192,107817,1,2,0:0:0:0:
256,192,108052,1,0,0:0:0:0:
256,192,108286,1,0,0:0:0:0:
256,192,108520,1,2,0:0:0:0:
256,192,108755,1,2,0:0:0:0:
256,192,109224,1,0,0:0:0:0:
256,192,109692,1,2,0:0:0:0:
256,192,109927,1,0,0:0:0:0:
256,192,110395,1,0,0:0:0:0:
256,192,110630,1,2,0:0:0:0:
256,192,111099,1,4,0:0:0:0:
256,192,111333,1,0,0:0:0:0:
256,192,111567,1,2,0:0:0:0:
256,192,111802,1,0,0:0:0:0:
256,192,111919,1,0,0:0:0:0:
256,192,112270,1,2,0:0:0:0:
256,192,112388,1,2,0:0:0:0:
256,192,112505,1,2,0:0:0:0:
256,192,112974,5,4,0:0:0:0:
256,192,113442,1,0,0:0:0:0:
256,192,113677,1,2,0:0:0:0:
256,192,113911,1,0,0:0:0:0:
256,192,114145,1,2,0:0:0:0:
256,192,114263,1,2,0:0:0:0:
256,192,114380,1,0,0:0:0:0:
256,192,114614,1,2,0:0:0:0:
256,192,114849,1,0,0:0:0:0:
256,192,115317,1,0,0:0:0:0:
256,192,115552,1,2,0:0:0:0:
256,192,115786,1,0,0:0:0:0:
256,192,116255,1,2,0:0:0:0:
256,192,116489,1,0,0:0:0:0:
256,192,116606,1,0,0:0:0:0:
256,192,116724,1,2,0:0:0:0:
256,192,117192,1,2,0:0:0:0:
256,192,117427,1,2,0:0:0:0:
256,192,117661,1,0,0:0:0:0:
256,192,117895,1,2,0:0:0:0:
256,192,118130,1,2,0:0:0:0:
256,192,118364,1,0,0:0:0:0:
256,192,118599,1,0,0:0:0:0:
256,192,119067,1,0,0:0:0:0:
256,192,119302,1,2,0:0:0:0:
256,192,119536,1,0,0:0:0:0:
256,192,119653,1,2,0:0:0:0:
256,192,120005,1,2,0:0:0:0:
256,192,120239,1,0,0:0:0:0:
256,192,120356,1,0,0:0:0:0:
256,192,120474,1,0,0:0:0:0:
256,192,120942,1,2,0:0:0:0:
256,192,121177,1,0,0:0:0:0:
256,192,121294,1,0,0:0:0:0:
256,192,121411,1,2,0:0:0:0:
256,192,121880,1,2,0:0:0:0:
256,192,122114,1,2,0:0:0:0:
256,192,122349,1,0,0:0:0:0:
256,192,122817,1,2,0:0:0:0:
256,192,123052,1,2,0:0:0:0:
256,192,123169,1,2,0:0:0:0:
256,192,123286,1,0,0:0:0:0:
256,192,123755,1,2,0:0:0:0:
256,192,123989,1,2,0:0:0:0:
256,192,124106,1,2,0:0:0:0:
256,192,124224,1,2,0:0:0:0:
256,192,124575,1,0,0:0:0:0:
256,192,124927,1,2,0:0:0:0:
256,192,125161,1,0,0:0:0:0:
256,192,125515,1,0,0:0:0:0:
256,192,125869,1,2,0:0:0:0:
256,192,126105,1,0,0:0:0:0:
256,192,126345,1,2,0:0:0:0:
256,192,126465,1,0,0:0:0:0:
256,192,126825,1,2,0:0:0:0:
256,192,127065,1,0,0:0:0:0:
256,192,127337,1,0,0:0:0:0:
256,192,127474,1,2,0:0:0:0:
256,192,127895,1,2,0:0:0:0:
256,192,128181,5,4,0:0:0:0:
256,192,131181,1,2,0:0:0:0:
256,192,131781,1,2,0:0:0:0:
256,192,132381,1,2,0:0:0:0:
256,192,132981,1,4,0:0:0:0:
256,192,133449,1,2,0:0:0:0:
256,192,133684,1,0,0:0:0:0:
256,192,134387,1,2,0:0:0:0:
256,192,134856,1,0,0:0:0:0:
256,192,135324,1,2,0:0:0:0:
256,192,135559,1,0,0:0:0:0:
256,192,136027,1,2,0:0:0:0:
256,192,136262,1,2,0:0:0:0:
256,192,136731,1,0,0:0:0:0:
256,192,137199,1,2,0:0:0:0:
256,192,137434,1,0,0:0:0:0:
256,192,138137,1,2,0:0:0:0:
256,192,138606,1,0,0:0:0:0:
256,192,139074,1,2,0:0:0:0:
256,192,139309,1,0,0:0:0:0:
256,192,139777,1,2,0:0:0:0:
256,192,139895,1,2,0:0:0:0:
256,192,140012,1,2,0:0:0:0:
256,192,140481,1,4,0:0:0:0:
256,192,140949,1,2,0:0:0:0:
256,192,141418,1,0,0:0:0:0:
256,192,141652,1,0,0:0:0:0:
256,192,141887,1,2,0:0:0:0:
256,192,142121,1,2,0:0:0:0:
256,192,142356,1,0,0:0:0:0:
256,192,142824,1,2,0:0:0:0:
256,192,143293,1,0,0:0:0:0:
256,192,143527,1,2,0:0:0:0:
256,192,143645,1,2,0:0:0:0:
256,192,143762,1,2,0:0:0:0:
256,192,143996,1,2,0:0:0:0:
256,192,144231,1,0,0:0:0:0:
256,192,144699,1,2,0:0:0:0:
256,192,145168,1,0,0:0:0:0:
256,192,145402,1,2,0:0:0:0:
256,192,145637,1,2,0:0:0:0:
256,192,145871,1,2,0:0:0:0:
256,192,146106,1,0,0:0:0:0:
256,192,146574,1,2,0:0:0:0:
256,192,147043,1,0,0:0:0:0:
256,192,147277,1,2,0:0:0:0:
256,192,147395,1,2,0:0:0:0:
256,192,147512,1,2,0:0:0:0:
256,192,147746,1,0,0:0:0:0:
256,192,147981,1,0,0:0:0:0:
256,192,148449,1,2,0:0:0:0:
256,192,148918,1,0,0:0:0:0:
256,192,149152,1,0,0:0:0:0:
256,192,149387,1,2,0:0:0:0:
256,192,149621,1,2,0:0:0:0:
256,192,149856,1,0,0:0:0:0:
256,192,150324,1,2,0:0:0:0:
256,192,150793,1,0,0:0:0:0:
256,192,151027,1,2,0:0:0:0:
256,192,151145,1,2,0:0:0:0:
256,192,151262,1,2,0:0:0:0:
256,192,151496,1,2,0:0:0:0:
256,192,151731,1,0,0:0:0:0:
256,192,152199,1,2,0:0:0:0:
256,192,152668,1,0,0:0:0:0:
256,192,152902,1,2,0:0:0:0:
256,192,153137,1,2,0:0:0:0:
256,192,153371,1,2,0:0:0:0:
256,192,153606,1,0,0:0:0:0:
256,192,154074,1,2,0:0:0:0:
256,192,154543,1,0,0:0:0:0:
256,192,154777,1,2,0:0:0:0:
256,192,154895,1,2,0:0:0:0:
256,192,155012,1,2,0:0:0:0:
256,192,155246,1,2,0:0:0:0:
256,192,155481,5,4,0:0:0:0:
256,192,155949,1,2,0:0:0:0:
256,192,156418,1,0,0:0:0:0:
256,192,156652,1,0,0:0:0:0:
256,192,156887,1,2,0:0:0:0:
256,192,157356,1,0,0:0:0:0:
256,192,157824,1,2,0:0:0:0:
256,192,158059,1,0,0:0:0:0:
256,192,158527,1,0,0:0:0:0:
256,192,158762,1,2,0:0:0:0:
256,192,159231,1,0,0:0:0:0:
256,192,159699,1,2,0:0:0:0:
256,192,160168,1,0,0:0:0:0:
256,192,160402,1,2,0:0:0:0:
256,192,160637,1,2,0:0:0:0:
256,192,161106,1,0,0:0:0:0:
256,192,161574,1,2,0:0:0:0:
256,192,161809,1,0,0:0:0:0:
256,192,162043,1,0,0:0:0:0:
256,192,162160,1,2,0:0:0:0:
256,192,162512,1,2,0:0:0:0:
256,192,162746,1,2,0:0:0:0:
256,192,162981,1,0,0:0:0:0:
256,192,163449,1,2,0:0:0:0:
256,192,163918,1,0,0:0:0:0:
256,192,164152,1,0,0:0:0:0:
256,192,164387,1,2,0:0:0:0:
256,192,164856,1,0,0:0:0:0:
256,192,165324,1,2,0:0:0:0:
256,192,165559,1,0,0:0:0:0:
256,192,166027,1,0,0:0:0:0:
256,192,166262,1,2,0:0:0:0:
256,192,166731,1,0,0:0:0:0:
256,192,167199,1,2,0:0:0:0:
256,192,167668,1,0,0:0:0:0:
256,192,167902,1,2,0:0:0:0:
256,192,168137,1,2,0:0:0:0:
256,192,168606,1,0,0:0:0:0:
256,192,169074,1,2,0:0:0:0:
256,192,169309,1,0,0:0:0:0:
256,192,169777,1,2,0:0:0:0:
256,192,169895,1,2,0:0:0:0:
256,192,170012,1,2,0:0:0:0:
256,192,170481,1,4,0:0:0:0:
