osu file format v14

[General]
AudioFilename: audio.mp3
AudioLeadIn: 0
PreviewTime: 291
Countdown: 0
SampleSet: Soft
StackLeniency: 0.7
Mode: 0
LetterboxInBreaks: 0
WidescreenStoryboard: 1

[Editor]
Bookmarks: 452,14166,27880,55309,81023,82737,110166,137594,144452,171880
DistanceSpacing: 0.5
BeatDivisor: 4
GridSize: 8
TimelineZoom: 2.2

[Metadata]
Title:Eientewi set 15 ~ Evening Primrose
TitleUnicode:Eientewi set 15 〜 月見草
Artist:Rin
ArtistUnicode:凛
Creator:yaspo
Version:Aeril's Hard
Source:東方永夜抄 ~ Imperishable Night.
Tags:touhou imperishable night eiyashou tsukimisou Featured Artist FA mappers' guild defiance osuskrub quanhitter39 mentai aeril
BeatmapID:2133172
BeatmapSetID:1014593

[Difficulty]
HPDrainRate:5
CircleSize:3.5
OverallDifficulty:6
ApproachRate:8
SliderMultiplier:1.4
SliderTickRate:1

[Events]
//Background and Video events
0,0,"moon-1180345_1920.jpg",0,0
//Break Periods
//Storyboard Layer 0 (Background)
//Storyboard Layer 1 (Fail)
//Storyboard Layer 2 (Pass)
//Storyboard Layer 3 (Foreground)
//Storyboard Layer 4 (Overlay)
//Storyboard Sound Samples

[TimingPoints]
437,428.571428571429,4,2,4,60,1,0
437,-142.857142857143,4,2,4,60,0,0
1294,-200,4,2,4,60,0,0
3008,-142.857142857143,4,2,4,60,0,0
6437,-200,4,2,4,60,0,0
7294,-142.857142857143,4,2,4,60,0,0
8151,-200,4,2,4,60,0,0
9865,-142.857142857143,4,2,4,60,0,0
13294,-200,4,2,4,60,0,0
14151,-111.111111111111,4,2,4,70,0,0
27865,-66.6666666666667,4,2,4,85,0,0
28437,-76.9230769230769,4,2,4,85,0,0
30437,-76.9230769230769,4,2,4,70,0,0
31294,-66.6666666666667,4,2,4,70,0,0
31722,-66.6666666666667,4,2,4,85,0,0
32151,-76.9230769230769,4,2,4,85,0,0
33865,-76.9230769230769,4,2,4,85,0,0
34294,-90.9090909090909,4,2,4,85,0,0
34722,-66.6666666666667,4,2,4,85,0,0
35151,-76.9230769230769,4,2,4,85,0,0
38151,-66.6666666666667,4,2,4,85,0,0
38472,-66.6666666666667,4,2,4,5,0,0
38579,-76.9230769230769,4,2,4,85,0,0
40722,-58.8235294117647,4,2,4,85,0,0
41579,-66.6666666666667,4,2,4,90,0,0
42008,-76.9230769230769,4,2,4,90,0,0
45008,-66.6666666666667,4,2,4,90,0,0
45865,-76.9230769230769,4,2,4,90,0,0
48437,-66.6666666666667,4,2,4,90,0,0
48865,-76.9230769230769,4,2,4,90,0,0
51865,-66.6666666666667,4,2,4,90,0,0
52722,-76.9230769230769,4,2,4,90,0,0
54437,-66.6666666666667,4,2,4,70,0,0
55294,-125,4,2,4,60,0,0
81008,-83.3333333333333,4,2,4,70,0,0
81222,-83.3333333333333,4,2,4,5,0,0
81329,-83.3333333333333,4,2,4,60,0,0
81543,-83.3333333333333,4,2,4,5,0,0
81651,-83.3333333333333,4,2,4,60,0,0
81865,-71.4285714285714,4,2,4,60,0,0
82722,-58.8235294117647,4,2,4,70,0,0
84437,-66.6666666666667,4,2,4,70,0,0
86151,-58.8235294117647,4,2,4,70,0,0
87579,-76.9230769230769,4,2,4,70,0,0
87865,-66.6666666666667,4,2,4,70,0,0
89579,-58.8235294117647,4,2,4,70,0,0
91295,-66.6666666666667,4,2,4,70,0,0
93009,-58.8235294117647,4,2,4,70,0,0
94437,-76.9230769230769,4,2,4,70,0,0
94722,-66.6666666666667,4,2,4,70,0,0
96437,-58.8235294117647,4,2,4,70,0,0
98151,-66.6666666666667,4,2,4,70,0,0
99865,-58.8235294117647,4,2,4,70,0,0
101151,-76.9230769230769,4,2,4,70,0,0
101579,-66.6666666666667,4,2,4,70,0,0
103294,-58.8235294117647,4,2,4,70,0,0
105008,-66.6666666666667,4,2,4,70,0,0
106722,-58.8235294117647,4,2,4,70,0,0
108008,-76.9230769230769,4,2,4,70,0,0
108437,-52.6315789473684,4,2,4,70,0,0
108865,-66.6666666666667,4,2,4,70,0,0
110151,-52.6315789473684,4,2,4,85,0,0
111008,-58.8235294117647,4,2,4,85,0,0
113579,-52.6315789473684,4,2,4,85,0,0
114865,-58.8235294117647,4,2,4,85,0,0
115865,-66.6666666666667,4,2,4,85,0,0
117008,-58.8235294117647,4,2,4,85,0,0
117865,-52.6315789473684,4,2,4,85,0,0
118722,-58.8235294117647,4,2,4,85,0,0
120437,-52.6315789473684,4,2,4,85,0,0
121722,-66.6666666666667,4,2,4,85,0,0
122579,-58.8235294117647,4,2,4,85,0,0
123865,-52.6315789473684,4,2,4,85,0,0
124722,-58.8235294117647,4,2,4,85,0,0
127294,-52.6315789473684,4,2,4,85,0,0
128579,-58.8235294117647,4,2,4,85,0,0
129579,-66.6666666666667,4,2,4,85,0,0
130722,-58.8235294117647,4,2,4,85,0,0
131579,-52.6315789473684,4,2,4,85,0,0
132651,-58.8235294117647,4,2,4,85,0,0
134151,-52.6315789473684,4,2,4,85,0,0
135579,-66.6666666666667,4,2,4,85,0,0
135865,-58.8235294117647,4,2,4,85,0,0
136722,-52.6315789473684,4,2,4,85,0,0
137579,-52.6315789473684,4,2,4,85,0,0
138008,-58.8235294117647,4,2,4,85,0,0
140151,-76.9230769230769,4,2,4,85,0,0
141008,-76.9230769230769,4,2,4,70,0,0
141437,-76.9230769230769,4,2,4,85,0,0
141865,-58.8235294117647,4,2,4,85,0,0
142722,-100,4,2,4,70,0,0

[Colours]
Combo1 : 31,74,129
Combo2 : 96,26,181
Combo3 : 44,47,190
Combo4 : 122,44,122

[HitObjects]
53,300,437,6,0,L|59:350,1,48.9999985046387,2|0,2:0|2:0,2:0:0:0:
141,261,865,2,0,L|133:317,1,48.9999985046387,8|0,2:0|2:0,2:0:0:0:
236,246,1294,2,0,L|207:313,1,70,2|8,2:0|2:0,2:0:0:0:
485,336,3008,6,0,P|462:341|428:339,1,48.9999985046387,2|8,2:0|2:0,2:0:0:0:
398,265,3437,2,0,P|382:247|366:217,1,48.9999985046387,8|2,2:0|2:0,2:0:0:0:
475,134,3865,6,0,P|489:105|502:31,1,97.9999970092774,2|8,2:0|2:0,2:0:0:0:
417,11,4508,1,0,2:0:0:0:
417,11,4722,2,0,P|362:7|307:26,1,97.9999970092774,2|8,2:0|2:0,2:0:0:0:
27,48,6437,2,0,P|50:43|75:46,2,35,0|8|8,2:0|2:0|2:0,2:0:0:0:
104,83,7079,1,0,2:0:0:0:
228,31,7294,6,0,L|217:95,1,48.9999985046387,2|0,2:0|2:0,2:0:0:0:
321,62,7722,2,0,L|326:126,1,48.9999985046387,8|0,2:0|2:0,2:0:0:0:
418,67,8151,2,0,L|444:137,1,70,2|8,2:0|2:0,2:0:0:0:
147,147,9865,6,0,P|127:138|100:133,1,48.9999985046387,2|8,2:0|2:0,2:0:0:0:
55,198,10294,2,0,P|33:200|-4:212,1,48.9999985046387,8|2,2:0|2:0,2:0:0:0:
119,311,10722,6,0,P|151:322|228:319,1,97.9999970092774,2|8,2:0|2:0,2:0:0:0:
293,370,11365,1,0,2:0:0:0:
293,370,11579,2,0,P|304:303|327:266,1,97.9999970092774,2|8,2:0|2:0,2:0:0:0:
468,93,13294,2,0,P|468:76|462:49,2,35,0|8|8,2:0|2:0|2:0,2:0:0:0:
412,162,13937,1,0,2:0:0:0:
303,119,14151,6,0,L|160:141,1,125.999996154785,10|8,2:3|2:0,2:0:0:0:
44,17,15008,2,0,B|75:63|75:63|34:219,1,188.999994232178,2|0,1:0|2:0,2:0:0:0:
86,273,15865,2,0,L|73:134,1,125.999996154785,8|8,2:3|2:0,2:0:0:0:
216,33,16722,2,0,B|247:61|250:97|250:97|276:80|325:85,1,125.999996154785,2|8,1:0|2:0,2:0:0:0:
385,163,17365,5,2,3:2:0:0:
385,163,17579,2,0,L|376:299,1,125.999996154785,10|8,2:3|2:0,2:0:0:0:
376,288,18222,1,8,2:3:0:0:
478,321,18437,2,0,B|415:325|415:325|354:354|354:354|271:342,1,188.999994232178,0|0,1:0|2:0,2:0:0:0:
197,328,19294,2,0,L|337:306,1,125.999996154785,8|0,2:3|2:0,2:0:0:0:
487,177,20151,1,0,1:0:0:0:
232,383,20794,5,0,3:0:0:0:
266,297,21008,2,0,L|253:146,1,125.999996154785,10|10,2:3|2:0,2:0:0:0:
285,2,21865,2,0,B|308:58|308:58|283:192,1,188.999994232178,2|0,1:0|2:0,2:0:0:0:
177,143,22722,2,0,L|27:132,1,125.999996154785,8|8,2:3|2:0,2:0:0:0:
128,328,23579,2,0,B|134:280|105:230|105:230|114:237|146:242,1,125.999996154785,2|8,1:0|2:0,2:0:0:0:
220,165,24222,5,2,3:2:0:0:
220,165,24437,2,0,L|234:302,1,125.999996154785,10|8,2:3|2:0,2:0:0:0:
232,290,25079,1,8,2:3:0:0:
144,342,25294,2,0,B|291:302|241:389|391:334,1,251.999992309571,2|0,1:0|2:0,2:0:0:0:
451,21,27865,6,0,B|495:54|497:113|497:113|458:170|380:121,1,210.000008010865,4|2,3:1|3:0,2:0:0:0:
334,169,28437,2,0,P|314:132|317:92,1,60.6666638895672,2|2,3:0|3:0,2:0:0:0:
249,21,28722,2,0,L|189:30,5,60.6666638895672,2|2|2|2|2|2,1:3|2:3|2:3|2:3|2:3|2:3,2:0:0:0:
86,80,29579,6,0,B|61:167|61:167|163:138,2,181.999991668702,10|2|2,2:3|3:0|1:3,2:0:0:0:
174,22,30651,1,8,2:0:0:0:
174,22,30758,1,0,0:0:0:0:
174,22,30865,2,0,L|189:172,1,136.499993751526,8|8,2:0|2:0,2:0:0:0:
215,201,31294,6,0,B|148:151|46:165|46:165|72:222,1,210.000008010865,8|2,2:3|3:0,2:0:0:0:
60,195,31937,1,8,3:0:0:0:
20,312,32151,2,0,L|90:329,2,60.6666638895672,2|2|2,1:3|2:3|2:3,2:0:0:0:
116,356,32579,2,0,L|186:339,2,60.6666638895672,2|2|2,2:3|2:3|2:3,2:0:0:0:
135,255,33008,5,10,2:3:0:0:
208,350,33222,1,8,2:0:0:0:
290,355,33437,1,2,3:0:0:0:
372,359,33651,1,8,3:2:0:0:
362,344,33865,6,0,P|389:298|402:185,1,136.499993751526,2|8,1:3|2:0,2:0:0:0:
404,217,34294,2,0,P|425:258|429:302,1,77.0000023498536,8|0,2:3|1:0,2:0:0:0:
511,189,34722,6,0,B|430:193|469:237|336:236,1,157.500006008148,8|8,2:3|2:3,2:0:0:0:
318,209,35151,2,0,P|303:170|304:127,2,60.6666638895672,2|2|2,3:0|3:0|3:0,2:0:0:0:
237,302,35579,2,0,L|170:309,1,60.6666638895672,2|2,1:3|2:3,2:0:0:0:
280,335,35865,2,0,L|213:324,1,60.6666638895672,2|2,2:3|2:3,2:0:0:0:
312,378,36151,2,0,L|250:350,1,60.6666638895672,2|2,2:3|2:3,2:0:0:0:
167,271,36437,6,0,B|112:274|112:274|10:364,2,181.999991668702,10|2|2,2:3|3:0|1:3,2:0:0:0:
248,195,37508,1,8,2:0:0:0:
143,231,37722,1,8,2:0:0:0:
143,231,37829,1,8,2:0:0:0:
143,231,37937,2,0,L|88:223,1,45.4999979171754,8|8,2:3|2:0,0:0:0:0:
57,191,38151,6,0,B|108:221|108:221|155:194|157:92,1,157.500006008148,8|0,2:3|2:0,2:0:0:0:
153,137,38579,2,0,P|74:146|35:54,1,181.999991668702,2|2,3:0|1:3,2:0:0:0:
103,20,39151,2,0,L|171:33,1,60.6666638895672,2|2,2:3|2:3,2:0:0:0:
264,52,39437,2,0,L|195:61,2,60.6666638895672,2|2|2,2:3|2:3|2:3,2:0:0:0:
366,0,39865,5,10,2:3:0:0:
301,86,40079,1,8,2:0:0:0:
315,169,40294,1,2,3:0:0:0:
334,250,40508,1,8,2:0:0:0:
321,295,40615,1,8,2:0:0:0:
334,315,40722,6,0,P|271:298|163:389,1,178.500003404617,0|0,1:0|2:0,2:0:0:0:
178,351,41151,2,0,P|111:305|120:265,1,119.000002269745,0|8,3:0|2:3,2:0:0:0:
55,158,41579,6,0,B|146:158|110:205|217:193,1,157.500006008148,4|8,3:1|2:3,2:0:0:0:
252,163,42008,2,0,P|266:127|267:95,2,60.6666638895672,2|2|2,3:0|3:0|3:0,2:0:0:0:
192,59,42437,2,0,L|125:68,1,60.6666638895672,2|2,1:3|2:3,2:0:0:0:
36,106,42722,1,2,2:3:0:0:
36,106,42865,2,0,L|103:115,2,60.6666638895672,2|2|2,2:3|2:3|2:3,2:0:0:0:
10,219,43294,6,0,B|33:347|33:347|92:405,2,181.999991668702,10|2|8,2:3|3:0|1:2,2:0:0:0:
100,153,44365,1,8,2:0:0:0:
169,241,44579,1,8,2:0:0:0:
169,241,44687,1,8,2:0:0:0:
169,241,44794,2,0,L|224:249,1,45.4999979171754,8|8,2:3|2:0,0:0:0:0:
253,218,45008,6,0,B|346:210|394:277|394:277|336:322,1,210.000008010865,8|2,2:3|3:0,2:0:0:0:
355,307,45651,1,0,3:0:0:0:
462,384,45865,2,0,L|454:298,5,60.6666638895672,2|2|2|2|2|2,1:3|2:3|2:3|2:3|2:3|2:3,2:0:0:0:
340,338,46722,5,8,2:3:0:0:
238,384,46937,1,8,2:0:0:0:
238,384,47151,1,0,3:0:0:0:
238,384,47365,1,8,2:0:0:0:
147,342,47579,2,0,P|195:278|193:186,1,136.499993751526,0|8,1:0|2:0,2:0:0:0:
201,223,48008,2,0,L|183:103,1,90.9999958343508,8|0,2:3|1:0,2:0:0:0:
274,46,48437,6,0,B|320:4|393:23|393:23|426:70,1,157.500006008148,8|0,2:3|3:0,2:0:0:0:
455,74,48865,2,0,P|447:123|418:158,2,60.6666638895672,8|2|2,2:3|3:0|3:0,2:0:0:0:
337,129,49294,2,0,L|350:217,1,60.6666638895672,2|2,1:3|2:3,2:0:0:0:
285,107,49579,2,0,L|320:188,1,60.6666638895672,2|2,2:3|2:3,2:0:0:0:
229,99,49865,2,0,L|284:168,1,60.6666638895672,2|2,2:3|2:3,2:0:0:0:
173,217,50151,6,0,B|198:103|198:103|164:8,2,181.999991668702,10|2|8,2:3|3:0|1:2,2:0:0:0:
94,138,51222,1,8,2:0:0:0:
30,239,51437,1,8,2:0:0:0:
30,239,51544,1,8,2:0:0:0:
30,239,51651,2,0,L|99:225,1,45.4999979171754,8|8,2:3|2:0,0:0:0:0:
112,263,51865,6,0,P|34:299|40:363,1,157.500006008148,8|0,2:3|2:0,2:0:0:0:
38,360,52294,2,0,L|149:342,1,105.000004005432,2|0,3:0|2:0,2:0:0:0:
268,286,52722,2,0,L|342:301,2,60.6666638895672,2|2|2,1:3|2:3|2:3,2:0:0:0:
358,338,53151,2,0,L|432:323,2,60.6666638895672,2|2|2,2:3|2:3|2:3,2:0:0:0:
243,384,53579,5,8,2:3:0:0:
243,384,53794,1,8,2:0:0:0:
165,289,54008,2,0,L|177:228,1,45.4999979171754,0|0,3:0|3:0,2:0:0:0:
156,207,54222,2,0,L|168:146,1,45.4999979171754,0|0,3:0|3:0,2:0:0:0:
143,80,54437,2,0,B|51:45|51:45|73:167,1,210.000008010865,0|0,1:0|3:0,2:0:0:0:
70,154,55079,1,8,3:2:0:0:
23,265,55294,6,0,P|49:283|148:306,1,112,4|2,3:1|2:0,2:0:0:0:
218,268,56151,1,0,1:0:0:0:
316,284,56579,1,2,2:0:0:0:
464,247,57008,2,0,P|443:315|445:370,1,112,8|2,2:3|2:0,2:0:0:0:
443,241,57865,1,0,1:0:0:0:
395,137,58294,1,2,2:0:0:0:
461,85,58508,5,0,3:0:0:0:
396,10,58722,2,0,P|349:40|275:63,1,112,8|2,2:3|2:0,2:0:0:0:
188,63,59579,2,0,P|240:81|287:111,1,112,0|2,1:0|2:0,2:0:0:0:
270,223,60437,1,10,2:3:0:0:
159,238,60865,1,2,2:3:0:0:
75,163,61294,1,2,1:3:0:0:
46,55,61722,1,2,2:3:0:0:
123,88,61937,5,0,3:0:0:0:
186,8,62151,2,0,P|252:43|292:48,1,112,8|2,2:3|2:0,2:0:0:0:
391,27,63008,1,0,1:0:0:0:
474,92,63437,1,2,2:0:0:0:
390,205,63865,2,0,P|402:272|394:323,1,112,8|2,2:3|2:0,2:0:0:0:
495,375,64722,1,0,1:0:0:0:
385,337,65151,1,2,2:0:0:0:
313,381,65365,5,0,3:0:0:0:
273,284,65579,2,0,P|291:225|283:147,2,112,8|8|0,2:3|2:0|1:0,2:0:0:0:
77,317,67294,1,0,3:3:0:0:
426,229,68151,1,0,1:0:0:0:
468,96,68794,5,8,2:0:0:0:
468,96,69008,2,0,P|415:125|349:133,1,112,4|2,3:1|2:0,2:0:0:0:
274,80,69865,1,0,1:0:0:0:
169,89,70294,1,2,2:0:0:0:
22,130,70722,2,0,P|36:69|78:8,1,112,8|2,2:3|2:0,2:0:0:0:
52,143,71579,1,0,1:0:0:0:
98,250,72008,1,2,2:0:0:0:
182,271,72222,5,0,3:0:0:0:
120,353,72437,2,0,P|62:319|-2:315,1,112,8|2,2:3|2:0,2:0:0:0:
87,225,73294,2,0,P|141:215|188:185,1,112,0|2,1:0|2:0,2:0:0:0:
236,84,74151,1,10,2:3:0:0:
347,101,74579,1,2,2:3:0:0:
430,176,75008,1,2,1:3:0:0:
465,282,75437,1,2,2:3:0:0:
438,362,75651,5,0,3:0:0:0:
424,273,75865,1,8,2:3:0:0:
424,273,76294,1,8,2:0:0:0:
468,155,76722,1,0,1:0:0:0:
414,41,77151,1,2,2:0:0:0:
286,81,77579,2,0,P|215:76|159:46,1,112,8|2,2:3|2:0,2:0:0:0:
20,106,78437,1,0,1:0:0:0:
134,42,78865,1,8,2:0:0:0:
113,142,79079,5,0,3:0:0:0:
113,142,79294,2,0,P|93:209|91:274,2,112,8|8|0,2:3|2:0|1:0,2:0:0:0:
8,360,81008,6,0,L|130:342,1,83.9999974365235,8|0,2:3|2:0,2:0:0:0:
143,294,81329,2,0,L|265:276,1,83.9999974365235,8|0,2:3|2:0,2:0:0:0:
239,291,81651,1,8,2:3:0:0:
330,352,81865,2,0,B|386:382|450:349|450:349|423:299,1,146.999995513916,0|8,3:0|2:0,2:0:0:0:
416,256,82294,1,8,2:0:0:0:
416,256,82401,1,8,2:0:0:0:
416,256,82508,1,8,2:0:0:0:
416,256,82615,1,8,2:0:0:0:
416,256,82722,6,0,L|429:37,2,178.500003404617,4|0|8,3:1|3:0|3:0,2:0:0:0:
349,357,83579,2,0,P|300:303|313:231,1,119.000002269745,2|0,1:3|2:0,2:0:0:0:
252,201,83901,2,0,P|266:184|306:170,1,59.5000011348725,0|8,3:0|2:2,2:0:0:0:
299,259,84222,1,0,3:0:0:0:
203,341,84437,6,0,P|137:326|43:321,1,157.500006008148,2|8,3:0|2:0,2:0:0:0:
47,320,84865,2,0,P|37:271|50:215,1,105.000004005432,2|8,3:2|2:3,2:0:0:0:
118,110,85294,2,0,L|129:32,2,70.0000026702882,0|8|8,1:0|2:0|2:0,2:0:0:0:
28,133,85722,2,0,P|52:151|134:149,1,105.000004005432,8|8,2:0|3:2,2:0:0:0:
238,99,86151,6,0,L|457:119,2,178.500003404617,10|0|8,2:3|3:0|3:0,2:0:0:0:
335,29,87008,2,0,P|387:41|416:71,2,79.3333348464966,0|8|8,1:0|2:0|2:0,2:0:0:0:
262,126,87437,1,2,3:0:0:0:
291,160,87579,2,0,L|298:234,1,60.6666638895672,2|2,3:0|3:0,2:0:0:0:
352,307,87865,6,0,B|479:337|479:337|485:272|436:236,1,210.000008010865,8|2,2:3|3:0,2:0:0:0:
367,288,88437,2,0,L|379:377,1,70.0000026702882,2|2,3:0|3:0,2:0:0:0:
257,311,88722,2,0,L|263:235,2,70.0000026702882,2|2|2,1:2|3:0|3:0,2:0:0:0:
173,366,89151,1,2,2:3:0:0:
173,366,89365,1,10,2:3:0:0:
173,366,89579,6,0,L|-4:325,2,178.500003404617,10|0|8,2:3|3:0|2:3,2:0:0:0:
235,245,90437,2,0,P|194:227|135:291,1,119.000002269745,2|0,1:2|2:0,2:0:0:0:
52,273,90758,2,0,P|45:303|63:362,1,59.5000011348725,0|8,3:0|2:2,2:0:0:0:
137,266,91080,1,0,3:0:0:0:
250,334,91295,6,0,P|329:343|406:390,1,157.500006008148,10|8,2:3|2:0,2:0:0:0:
395,380,91722,2,0,P|333:374|275:352,1,105.000004005432,2|0,3:2|2:0,2:0:0:0:
214,252,92152,2,0,L|225:330,2,70.0000026702882,0|8|8,1:0|2:0|2:0,2:0:0:0:
159,166,92579,2,0,P|191:128|191:45,1,105.000004005432,10|8,2:0|2:0,2:0:0:0:
190,199,93009,6,0,L|-29:219,2,178.500003404617,8|0|8,2:3|3:0|2:3,2:0:0:0:
108,93,93865,2,0,P|56:105|13:174,2,79.3333348464966,0|8|8,1:0|2:0|2:0,2:0:0:0:
217,50,94295,1,8,2:0:0:0:
211,67,94437,2,0,L|218:141,1,60.6666638895672,8|8,2:0|2:0,2:0:0:0:
332,181,94722,6,0,B|369:125|348:26|348:26|385:80,1,210.000008010865,8|2,2:3|2:3,2:0:0:0:
449,143,95295,2,0,L|437:232,1,70.0000026702882,2|2,2:3|2:3,2:0:0:0:
393,301,95579,2,0,B|323:211|323:211|375:226,1,157.500006008148,2|0,1:3|3:0,2:0:0:0:
364,223,96008,2,0,P|333:301|356:386,1,157.500006008148,8|8,2:2|2:0,2:0:0:0:
308,343,96437,6,0,L|496:310,2,178.500003404617,4|0|8,3:1|3:0|2:3,2:0:0:0:
173,384,97294,2,0,P|176:321|229:262,1,119.000002269745,2|0,1:3|2:0,2:0:0:0:
160,184,97615,2,0,P|172:233|158:283,1,59.5000011348725,0|8,3:0|2:2,2:0:0:0:
55,301,97937,1,0,3:0:0:0:
121,185,98151,6,0,P|124:97|92:9,1,157.500006008148,10|8,2:3|2:0,2:0:0:0:
103,31,98579,2,0,P|145:66|203:58,1,105.000004005432,10|8,2:0|2:3,2:0:0:0:
354,15,99008,2,0,L|342:104,1,70.0000026702882,8|8,1:2|2:0,2:0:0:0:
390,169,99294,1,8,2:0:0:0:
390,169,99437,2,0,P|379:94|422:66,1,105.000004005432,8|0,2:0|3:0,2:0:0:0:
468,195,99865,6,0,L|453:395,2,178.500003404617,8|0|8,2:3|3:0|2:3,2:0:0:0:
355,83,100722,2,0,L|341:-22,1,79.3333348464966,8|8,2:0|2:0,2:0:0:0:
289,151,101008,1,8,2:0:0:0:
230,102,101151,2,0,L|160:93,2,60.6666638895672,2|2|2,3:0|3:0|3:0,2:0:0:0:
108,36,101579,6,0,B|131:9|131:9|171:72|139:145,1,157.500006008148,8|0,2:3|2:0,2:0:0:0:
81,211,102008,2,0,L|-2:194,1,70.0000026702882,2|2,3:0|3:0,2:0:0:0:
112,286,102294,2,0,L|36:248,1,70.0000026702882,2|2,3:0|1:2,2:0:0:0:
122,366,102579,2,0,L|58:309,1,70.0000026702882,2|2,3:0|3:0,2:0:0:0:
196,285,102865,2,0,P|259:268|290:237,1,105.000004005432,2|10,3:0|2:3,2:0:0:0:
395,177,103294,6,0,L|372:-28,2,178.500003404617,2|0|8,3:0|3:0|2:3,2:0:0:0:
257,136,104151,2,0,P|232:90|241:2,1,119.000002269745,0|0,1:0|2:0,2:0:0:0:
145,25,104472,2,0,P|182:49|208:92,1,59.5000011348725,0|8,3:0|2:0,2:0:0:0:
171,166,104794,1,0,3:0:0:0:
81,250,105008,6,0,P|172:259|265:238,1,157.500006008148,10|8,2:3|2:0,2:0:0:0:
236,247,105437,2,0,P|186:220|135:228,1,105.000004005432,2|0,3:2|2:0,2:0:0:0:
177,366,105865,2,0,L|285:344,1,70.0000026702882,8|8,1:2|2:0,2:0:0:0:
338,384,106151,1,8,2:0:0:0:
338,384,106294,2,0,P|306:342|326:278,1,105.000004005432,8|8,2:0|2:0,2:0:0:0:
311,162,106722,6,0,L|524:128,2,178.500003404617,8|0|8,2:3|3:0|2:3,2:0:0:0:
210,79,107579,2,8,L|196:-31,1,79.3333348464966,0|8,1:0|2:0,2:0:0:0:
105,126,107865,1,8,2:0:0:0:
151,185,108008,2,0,L|144:256,2,60.6666638895672,8|8|8,2:0|2:0|2:0,2:0:0:0:
120,110,108437,6,0,B|139:239|81:180|107:349,1,199.499994672775,4|0,3:1|2:0,2:0:0:0:
176,357,108865,2,0,L|284:320,2,70.0000026702882,2|2|2,2:3|2:3|2:3,2:0:0:0:
101,305,109294,2,0,P|107:240|143:190,1,105.000004005432,4|8,1:0|3:2,2:0:0:0:
56,97,109722,1,8,3:2:0:0:
56,97,109829,1,0,3:0:0:0:
56,97,109937,1,8,3:2:0:0:
56,97,110044,1,0,3:0:0:0:
56,97,110151,6,0,P|149:110|209:2,1,199.499994672775,0|0,3:0|3:0,2:0:0:0:
285,0,110579,2,0,P|267:74|305:145,1,132.999996448517,2|8,3:2|2:3,2:0:0:0:
419,237,111008,2,0,P|350:221|282:239,1,119.000002269745,2|0,1:3|2:0,2:0:0:0:
303,229,111329,2,0,L|317:292,1,59.5000011348725,0|0,3:0|3:2,2:0:0:0:
327,125,111651,1,10,3:2:0:0:
427,187,111865,6,0,L|439:-21,2,178.500003404617,10|0|8,2:3|3:0|2:3,2:0:0:0:
484,302,112722,2,0,L|496:394,2,79.3333348464966,8|8|8,1:2|2:0|2:0,2:0:0:0:
452,216,113151,2,0,P|445:282|393:315,1,119.000002269745,10|0,2:0|3:0,2:0:0:0:
273,377,113579,6,0,P|247:285|272:206,1,132.999996448517,10|0,2:3|2:0,2:0:0:0:
277,168,113901,2,0,P|329:176|355:216,1,66.4999982242585,10|0,3:2|3:0,2:0:0:0:
237,272,114222,1,8,2:3:0:0:
232,261,114329,1,10,2:0:0:0:
226,250,114437,2,0,P|157:248|30:318,1,199.499994672775,2|10,1:2|2:0,2:0:0:0:
25,297,114865,2,0,L|34:376,2,79.3333348464966,8|8|8,2:0|2:0|2:0,2:0:0:0:
0,194,115294,6,0,B|137:223|137:223|83:108,1,238.00000453949,10|2,2:3|3:0,2:0:0:0:
65,34,115865,2,0,L|136:47,1,70.0000026702882,2|2,3:0|3:0,2:0:0:0:
245,64,116151,2,0,L|174:80,2,70.0000026702882,2|2|2,1:2|3:0|3:0,2:0:0:0:
349,22,116579,5,2,2:3:0:0:
387,95,116794,1,2,3:2:0:0:
481,73,117008,2,0,P|484:156|461:221,1,119.000002269745,10|0,2:3|2:0,2:0:0:0:
398,250,117329,1,0,3:0:0:0:
387,240,117437,2,0,P|453:218|516:268,1,119.000002269745,2|8,3:2|2:3,2:0:0:0:
385,359,117865,2,0,B|315:315|315:315|215:314,1,132.999996448517,2|0,1:3|2:0,2:0:0:0:
204,384,118187,2,0,L|246:284,1,66.4999982242585,0|2,3:0|3:2,2:0:0:0:
151,234,118508,1,0,3:0:0:0:
39,183,118722,6,0,L|11:-11,2,178.500003404617,10|0|8,2:3|3:0|2:3,2:0:0:0:
56,188,119472,1,10,2:0:0:0:
73,194,119579,2,0,P|73:241|24:309,2,79.3333348464966,0|8|8,1:0|2:0|2:0,2:0:0:0:
70,90,120008,2,0,P|102:166|182:159,1,119.000002269745,8|0,2:0|3:0,2:0:0:0:
277,97,120437,6,0,P|353:56|434:68,1,132.999996448517,10|0,2:3|2:0,2:0:0:0:
491,52,120758,2,0,P|504:93|493:134,1,66.4999982242585,0|2,3:2|3:2,2:0:0:0:
397,56,121079,1,8,2:3:0:0:
299,140,121294,2,0,L|181:119,1,88.6666642990113,0|8,1:0|2:0,2:0:0:0:
363,221,121579,1,8,2:0:0:0:
435,194,121722,2,0,L|512:186,2,70.0000026702882,2|2|2,3:0|3:0|3:0,2:0:0:0:
338,185,122151,6,0,B|338:279|365:243|362:360,1,157.500006008148,8|0,2:3|2:0,2:0:0:0:
324,374,122579,2,0,L|403:360,1,79.3333348464966,2|2,3:0|3:0,2:0:0:0:
259,284,122865,1,2,3:0:0:0:
201,339,123008,2,0,P|149:368|61:301,1,178.500003404617,2|0,1:2|3:0,2:0:0:0:
61,305,123437,2,0,L|183:260,1,119.000002269745,2|10,3:0|2:3,2:0:0:0:
218,136,123865,6,0,P|153:103|76:116,1,132.999996448517,4|0,3:1|2:0,2:0:0:0:
22,78,124187,2,0,P|30:26|70:0,1,66.4999982242585,0|2,3:0|3:2,2:0:0:0:
94,107,124508,1,8,3:2:0:0:
221,67,124722,2,0,B|322:57|292:115|437:88,1,178.500003404617,0|0,1:0|2:0,2:0:0:0:
466,128,125151,2,0,L|483:37,2,79.3333348464966,10|8|8,2:0|2:0|2:0,2:0:0:0:
487,263,125579,6,0,P|478:343|393:346,1,178.500003404617,10|0,2:3|3:0,2:0:0:0:
394,347,126008,2,0,L|378:216,1,119.000002269745,10|8,3:2|2:3,2:0:0:0:
291,117,126437,2,0,L|212:98,2,79.3333348464966,8|8|8,1:2|2:0|2:0,2:0:0:0:
264,20,126865,5,2,2:0:0:0:
148,47,127080,1,2,3:2:0:0:
26,13,127294,2,0,L|47:250,2,199.499994672775,10|0|8,2:3|3:0|2:3,2:0:0:0:
124,95,128151,2,0,L|260:111,1,88.6666642990113,2|8,1:2|2:0,2:0:0:0:
304,181,128437,1,8,2:0:0:0:
365,136,128579,2,0,L|358:48,2,79.3333348464966,2|2|2,3:0|3:0|3:0,2:0:0:0:
467,194,129008,6,0,B|385:211|379:312|379:312|457:383,1,238.00000453949,10|2,2:3|3:0,2:0:0:0:
336,327,129579,2,0,L|225:356,1,70.0000026702882,2|2,3:0|3:0,2:0:0:0:
162,294,129865,2,0,L|273:323,2,70.0000026702882,2|8|8,1:2|2:0|2:0,2:0:0:0:
81,346,130294,1,2,3:2:0:0:
0,254,130508,5,10,2:0:0:0:
12,255,130615,1,10,2:0:0:0:
24,255,130722,2,0,P|119:195|125:115,1,178.500003404617,10|0,2:3|3:0,2:0:0:0:
182,67,131151,2,0,P|158:41|66:27,1,119.000002269745,0|8,3:0|2:3,2:0:0:0:
8,163,131579,2,0,B|82:147|82:147|145:161|145:161|222:140,1,199.499994672775,2|8,1:3|2:0,2:0:0:0:
248,112,132008,2,0,P|227:187|231:251,1,132.999996448517,2|0,3:2|2:0,2:0:0:0:
237,253,132329,1,10,2:0:0:0:
246,263,132437,1,2,3:0:0:0:
370,319,132651,6,0,L|391:400,2,59.5000011348725,10|10|0,2:0|2:0|3:0,2:0:0:0:
473,231,133079,1,8,2:3:0:0:
473,231,133187,1,10,2:0:0:0:
473,231,133294,2,0,P|401:236|348:205,1,119.000002269745,2|10,1:3|2:0,2:0:0:0:
261,154,133722,2,0,P|267:95|299:42,1,119.000002269745,10|0,2:0|3:0,2:0:0:0:
419,145,134151,6,0,B|416:261|455:201|452:358,2,199.499994672775,4|0|8,3:1|3:0|2:3,2:0:0:0:
291,98,135008,2,0,L|280:-17,2,88.6666642990113,0|8|8,1:0|2:0|2:0,2:0:0:0:
193,171,135437,1,2,3:0:0:0:
129,122,135579,2,0,L|44:110,1,70.0000026702882,2|2,3:0|3:0,2:0:0:0:
16,205,135865,6,0,L|31:272,3,59.5000011348725,6|8|10|8,3:2|2:0|2:0|2:0,2:0:0:0:
109,281,136294,2,0,L|94:348,3,59.5000011348725,10|8|10|8,2:0|2:0|2:0|2:0,2:0:0:0:
188,245,136722,2,0,B|253:252|253:252|313:282|313:282|407:269,1,199.499994672775,0|0,1:0|3:0,2:0:0:0:
469,265,137151,1,0,3:0:0:0:
469,265,137258,1,0,3:0:0:0:
469,265,137365,1,0,3:0:0:0:
469,265,137472,1,0,3:0:0:0:
420,309,138008,6,0,L|530:331,2,79.3333348464966,8|0|0,2:3|3:0|3:0,2:0:0:0:
312,230,138437,1,0,1:0:0:0:
241,286,138579,2,0,L|141:302,1,79.3333348464966,0|0,3:0|3:0,2:0:0:0:
65,267,138865,2,0,L|54:358,2,79.3333348464966,8|0|0,2:3|3:0|3:0,2:0:0:0:
114,166,139294,2,0,L|98:47,1,79.3333348464966,8|0,2:3|3:0,2:0:0:0:
208,24,139579,1,0,3:0:0:0:
208,24,139722,2,0,L|192:133,2,79.3333348464966,8|0|0,2:3|3:0|3:0,2:0:0:0:
76,57,140151,6,0,B|171:28|249:101|249:101|207:40|298:177|333:48|400:90,1,363.999983337403,8|2,1:2|2:0,2:0:0:0:
390,320,141437,5,0,3:0:0:0:
390,320,141544,1,0,3:0:0:0:
390,320,141651,1,0,3:0:0:0:
390,320,141758,1,0,3:0:0:0:
390,320,141865,2,0,L|373:155,1,119.000002269745,0|8,1:0|2:3,2:0:0:0:
198,175,142294,1,0,3:0:0:0:
198,175,142401,1,0,3:0:0:0:
198,175,142508,2,0,L|212:82,1,59.5000011348725,0|0,3:0|3:0,2:0:0:0:
256,50,142722,6,0,L|304:37,3,35,2|0|0|0,2:0|2:0|2:0|2:0,2:0:0:0:
316,61,143151,2,0,L|364:74,3,35,2|0|0|0,2:0|2:0|2:0|2:0,2:0:0:0:
389,150,143579,2,0,B|303:140|270:202|267:202|265:202|232:263|130:237,1,280,2|4,2:0|2:0,2:0:0:0:
