osu file format v14

[General]
AudioFilename: audio.mp3
AudioLeadIn: 0
PreviewTime: 41940
Countdown: 0
SampleSet: Soft
StackLeniency: 0.7
Mode: 0
LetterboxInBreaks: 0
WidescreenStoryboard: 0

[Editor]
Bookmarks: 27402,28272,42185,56098,70011,83924,97837,125663,139576,153489,167402,181315,209141,223054,236967,264793,278706,292619
DistanceSpacing: 0.8
BeatDivisor: 12
GridSize: 8
TimelineZoom: 2

[Metadata]
Title:Eientewi set 13 ~ Extend Ash
TitleUnicode:Eientewi set 13 〜 エクステンドアッシュ
Artist:Rin
ArtistUnicode:凛
Creator:Halfslashed
Version:Lunatic
Source:東方永夜抄 ~ Imperishable Night.
Tags:osu! featured artist kuroneko lounge function phantom ocelot house set instrumental electronic touhou eiyashou th8 keine kamishirasawa 上白沢 慧音 person of hourai 蓬莱人 mentai corsace qf hr1
BeatmapID:2624071
BeatmapSetID:1262466

[Difficulty]
HPDrainRate:5.5
CircleSize:4
OverallDifficulty:8
ApproachRate:8.7
SliderMultiplier:1.4
SliderTickRate:1

[Events]
//Background and Video events
0,0,"keine-by-hoshi_dokei.png",0,0
//Break Periods
2,28459,33477
2,35416,39564
2,157155,159680
2,160633,165006
//Storyboard Layer 0 (Background)
//Storyboard Layer 1 (Fail)
//Storyboard Layer 2 (Pass)
//Storyboard Layer 3 (Foreground)
//Storyboard Layer 4 (Overlay)
//Storyboard Sound Samples

[TimingPoints]
434,434.782608695652,4,2,1,50,1,0
27390,-100,4,2,1,50,0,0
27680,-100,4,2,1,5,0,0
27752,-100,4,2,1,50,0,0
27970,-100,4,2,1,5,0,0
28042,-50,4,2,1,50,0,0
40433,-100,4,2,1,50,0,0
41955,-100,4,2,1,40,0,0
42173,-50,4,2,1,80,0,0
69999,-66.6666666666667,4,2,1,60,0,0
83912,-66.6666666666667,4,2,1,65,0,0
96303,-66.6666666666667,4,2,2,70,0,0
97390,-66.6666666666667,4,2,2,45,0,0
97825,-50,4,2,1,80,0,0
111013,-100,4,2,1,50,0,0
111303,-100,4,2,1,50,0,0
111738,-50,4,2,1,80,0,0
119564,-50,4,2,1,70,0,0
120433,-57.1428571428571,4,2,1,60,0,0
121303,-57.1428571428571,4,2,1,50,0,0
122173,-66.6666666666667,4,2,1,50,0,0
123042,-80,4,2,1,40,0,0
123912,-100,4,2,1,30,0,0
124455,-66.6666666666667,4,2,1,40,0,0
124999,-57.1428571428571,4,2,1,60,0,0
125651,-50,4,2,1,70,0,0
152607,-50,4,2,1,50,0,0
153042,-50,4,2,1,60,0,0
153477,-66.6666666666667,4,2,1,70,0,0
160325,-66.6666666666667,4,2,1,60,0,0
175651,-66.6666666666667,4,2,2,60,0,0
175977,-66.6666666666667,4,2,1,60,0,0
177462,-66.6666666666667,4,2,2,60,0,0
177825,-66.6666666666667,4,2,1,60,0,0
181303,-100,4,2,1,40,0,0
181357,-100,4,2,2,40,0,0
185361,-100,4,2,2,5,0,0
185433,-100,4,2,2,40,0,0
186013,-100,4,2,2,5,0,0
186049,-100,4,2,2,40,0,0
187752,-100,4,2,2,5,0,0
187824,-100,4,2,2,40,0,0
190578,-100,4,2,2,5,0,0
190650,-100,4,2,2,40,0,0
192318,-100,4,2,2,5,0,0
192389,-100,4,2,2,40,0,0
192970,-100,4,2,2,5,0,0
193006,-100,4,2,2,40,0,0
194709,-100,4,2,2,5,0,0
194781,-100,4,2,2,40,0,0
195216,-100,4,2,1,40,0,0
195270,-100,4,2,2,40,0,0
199274,-100,4,2,2,5,0,0
199346,-100,4,2,2,40,0,0
201013,-100,4,2,2,5,0,0
201085,-100,4,2,2,40,0,0
201665,-100,4,2,2,5,0,0
201738,-100,4,2,2,40,0,0
202173,-100,4,2,1,40,0,0
202227,-100,4,2,2,40,0,0
203912,-100,4,2,2,45,0,0
204491,-100,4,2,2,5,0,0
204563,-100,4,2,2,45,0,0
205144,-100,4,2,2,5,0,0
205215,-100,4,2,2,45,0,0
205651,-100,4,2,2,50,0,0
206231,-100,4,2,2,5,0,0
206302,-100,4,2,2,50,0,0
206883,-100,4,2,2,5,0,0
206919,-100,4,2,2,50,0,0
207318,-100,4,2,2,5,0,0
207389,-100,4,2,2,50,0,0
207970,-100,4,2,2,5,0,0
208041,-100,4,2,2,60,0,0
208260,-100,4,2,2,30,0,0
209129,-66.6666666666667,4,2,1,60,0,0
223042,-50,4,2,1,70,0,0
236086,-133.333333333333,4,2,1,50,0,0
236847,-133.333333333333,4,2,1,5,0,0
236955,-50,4,2,1,80,0,0

[Colours]
Combo1 : 200,201,232
Combo2 : 27,172,19
Combo3 : 209,254,169
Combo4 : 119,125,202

[HitObjects]
0,264,27390,6,0,P|46:273|88:302,1,93.3333333333333
118,256,27752,2,0,P|81:258|33:250,1,70
9,288,28042,2,0,L|120:371,1,140,0|4,0:0|1:0,0:0:0:0:
470,215,34564,5,0,1:0:0:0:
512,35,34781,2,0,L|502:132,1,93.3333333333333,0|0,1:0|0:0,0:0:0:0:
502,226,34999,1,0,1:0:0:0:
494,180,35071,1,0,1:0:0:0:
486,133,35144,1,0,1:0:0:0:
477,87,35216,5,4,1:0:0:0:
456,373,40433,5,0,0:0:0:0:
422,384,40578,1,0,0:0:0:0:
423,290,40796,1,0,0:0:0:0:
318,254,41013,1,0,0:0:0:0:
348,127,41231,2,0,P|426:80|441:74,1,93.3333333333333
238,244,41738,1,0,0:0:0:0:
6,130,41955,1,2,0:0:0:0:
10,148,42028,1,2,0:0:0:0:
13,166,42100,1,2,0:0:0:0:
16,185,42173,5,6,1:2:0:0:
198,109,42390,6,0,L|166:271,1,140,2|8,0:0|0:0,0:0:0:0:
81,355,42752,2,0,L|49:193,1,140,2|0,0:0|0:0,0:0:0:0:
112,95,43042,1,0,1:0:0:0:
136,166,43187,1,0,0:0:0:0:
136,166,43260,2,0,L|298:198,1,140,2|8,0:0|0:0,0:0:0:0:
364,79,43622,2,0,L|202:111,1,140,2|0,0:0|0:0,0:0:0:0:
211,228,43912,1,0,1:0:0:0:
60,133,44129,2,0,L|121:7,1,140,2|8,0:0|0:0,0:0:0:0:
268,0,44491,2,0,L|258:139,1,140,2|0,0:0|0:0,0:0:0:0:
273,288,44781,5,0,1:0:0:0:
327,243,44926,1,0,0:0:0:0:
327,243,44999,2,0,L|466:233,1,140,2|8,0:0|0:0,0:0:0:0:
296,215,45361,2,0,L|226:210,1,46.6666666666667,2|0,0:0|0:0,0:0:0:0:
370,58,45578,1,2,0:0:0:0:
397,77,45651,1,0,1:0:0:0:
257,232,45868,6,0,L|95:264,1,140,2|8,0:0|0:0,0:0:0:0:
18,147,46231,2,0,L|180:179,1,140,2|0,0:0|0:0,0:0:0:0:
213,280,46520,1,0,1:0:0:0:
234,212,46665,1,0,0:0:0:0:
234,212,46738,2,0,L|261:74,1,140,2|8,0:0|0:0,0:0:0:0:
390,29,47100,2,0,L|417:166,1,140,2|0,0:0|0:0,0:0:0:0:
354,298,47390,1,0,1:0:0:0:
174,189,47607,2,0,L|41:234,1,140,2|8,0:0|0:0,0:0:0:0:
96,370,47970,2,0,L|200:278,1,140,2|0,0:0|0:0,0:0:0:0:
266,207,48260,5,0,1:0:0:0:
205,244,48405,1,0,0:0:0:0:
205,244,48477,2,0,L|232:381,1,140,2|8,0:0|0:0,0:0:0:0:
232,201,48839,2,0,L|245:133,1,46.6666666666667,2|0,0:0|0:0,0:0:0:0:
27,350,49057,1,2,0:0:0:0:
0,329,49129,5,4,1:0:0:0:
198,374,49347,2,0,L|335:346,1,140,2|8,0:0|0:0,0:0:0:0:
436,255,49709,2,0,L|298:227,1,140,2|0,0:0|0:0,0:0:0:0:
190,267,49999,1,0,1:0:0:0:
224,204,50144,1,0,0:0:0:0:
224,204,50216,2,0,L|251:67,1,140,2|8,0:0|0:0,0:0:0:0:
121,0,50578,2,0,L|148:137,1,140,2|0,0:0|0:0,0:0:0:0:
190,267,50868,1,0,1:0:0:0:
371,163,51086,2,0,L|487:85,1,140,2|8,0:0|0:0,0:0:0:0:
504,224,51448,2,0,L|426:340,1,140,2|0,0:0|0:0,0:0:0:0:
326,362,51738,5,0,1:0:0:0:
338,293,51883,1,0,0:0:0:0:
338,293,51955,2,0,L|200:320,1,140,2|8,0:0|0:0,0:0:0:0:
347,247,52318,2,0,L|415:260,1,46.6666666666667,2|0,0:0|0:0,0:0:0:0:
160,195,52535,1,2,0:0:0:0:
149,226,52607,5,0,1:0:0:0:
179,1,52825,2,0,L|207:139,1,140,2|8,0:0|0:0,0:0:0:0:
269,268,53187,2,0,L|296:130,1,140,2|0,0:0|0:0,0:0:0:0:
385,182,53477,1,0,1:0:0:0:
373,114,53622,1,0,0:0:0:0:
373,114,53694,2,0,L|235:86,1,140,2|8,0:0|0:0,0:0:0:0:
150,201,54057,2,0,L|288:174,1,140,2|0,0:0|0:0,0:0:0:0:
397,260,54347,1,0,1:0:0:0:
186,276,54564,2,0,L|94:381,1,140,2|8,0:0|0:0,0:0:0:0:
0,252,54926,2,0,L|46:119,1,140,2|0,0:0|0:0,0:0:0:0:
138,0,55216,5,4,1:2:0:0:
167,327,55433,1,2,1:2:0:0:
167,327,55506,1,0,1:0:0:0:
167,327,55578,1,0,1:0:0:0:
167,327,55651,5,4,1:2:0:0:
200,356,55796,2,0,L|385:380,1,140,2|0,1:2|0:0,0:0:0:0:
512,346,56086,5,6,1:2:0:0:
488,360,56194,1,2,0:0:0:0:
463,346,56303,1,2,0:0:0:0:
448,321,56412,1,0,0:0:0:0:
451,293,56520,1,10,0:0:0:0:
465,269,56629,1,2,0:0:0:0:
483,247,56738,1,0,0:0:0:0:
483,218,56847,1,2,0:0:0:0:
463,198,56955,1,2,1:2:0:0:
428,195,57064,1,2,0:0:0:0:
390,175,57173,1,2,0:0:0:0:
365,133,57281,1,0,0:0:0:0:
363,76,57390,1,10,0:0:0:0:
393,33,57499,1,2,0:0:0:0:
441,26,57607,1,0,0:0:0:0:
473,59,57716,1,2,0:0:0:0:
465,101,57825,1,2,1:2:0:0:
429,87,57933,1,2,0:0:0:0:
400,107,58042,1,2,0:0:0:0:
402,138,58151,1,0,0:0:0:0:
426,153,58260,1,10,0:0:0:0:
450,149,58368,1,2,0:0:0:0:
465,133,58477,1,0,0:0:0:0:
466,116,58586,1,2,0:0:0:0:
470,117,58694,1,2,1:2:0:0:
470,117,58803,1,2,0:0:0:0:
471,117,58912,1,2,0:0:0:0:
471,117,59020,1,0,0:0:0:0:
471,117,59129,5,10,0:0:0:0:
417,142,59238,2,0,P|348:135|255:116,1,140,2|2,0:0|0:0,0:0:0:0:
81,71,59564,5,2,1:2:0:0:
72,97,59673,1,2,0:0:0:0:
80,124,59781,1,2,0:0:0:0:
97,146,59890,1,0,0:0:0:0:
123,158,59999,1,10,0:0:0:0:
151,158,60107,1,2,0:0:0:0:
177,148,60216,1,0,0:0:0:0:
205,148,60325,1,2,0:0:0:0:
232,155,60433,1,2,1:2:0:0:
259,177,60542,1,2,0:0:0:0:
270,218,60651,1,2,0:0:0:0:
255,265,60760,1,0,0:0:0:0:
209,296,60868,1,10,0:0:0:0:
159,277,60977,1,2,0:0:0:0:
140,232,61086,1,0,0:0:0:0:
157,191,61194,1,2,0:0:0:0:
196,175,61303,1,2,1:2:0:0:
194,213,61412,1,2,0:0:0:0:
214,242,61520,1,2,0:0:0:0:
244,252,61629,1,0,0:0:0:0:
272,244,61738,1,10,0:0:0:0:
288,224,61847,1,2,0:0:0:0:
281,204,61955,1,0,0:0:0:0:
269,196,62064,1,2,0:0:0:0:
275,208,62173,1,2,1:2:0:0:
275,208,62281,1,2,0:0:0:0:
275,208,62390,1,2,0:0:0:0:
275,208,62499,1,0,0:0:0:0:
275,208,62607,5,10,0:0:0:0:
257,265,62716,1,2,0:0:0:0:
20,367,62933,1,2,0:0:0:0:
88,354,63041,5,6,1:2:0:0:
71,331,63151,1,2,0:0:0:0:
71,302,63260,1,2,0:0:0:0:
88,279,63368,1,0,0:0:0:0:
113,267,63477,1,10,0:0:0:0:
141,264,63586,1,2,0:0:0:0:
167,273,63694,1,0,0:0:0:0:
185,295,63803,1,2,0:0:0:0:
193,322,63912,1,2,1:2:0:0:
218,346,64020,1,2,0:0:0:0:
260,357,64129,1,2,0:0:0:0:
305,335,64238,1,0,0:0:0:0:
324,282,64347,5,10,1:2:0:0:
349,327,64455,1,2,0:0:0:0:
341,375,64564,1,0,1:0:0:0:
381,355,64673,1,2,0:0:0:0:
391,293,64781,5,6,1:2:0:0:
353,301,64890,1,2,0:0:0:0:
324,282,64999,1,2,0:0:0:0:
320,252,65107,1,0,0:0:0:0:
335,228,65216,1,10,0:0:0:0:
360,227,65325,1,2,0:0:0:0:
378,238,65433,1,0,0:0:0:0:
381,255,65542,1,2,0:0:0:0:
388,282,65651,1,2,1:2:0:0:
388,282,65760,1,2,0:0:0:0:
388,282,65868,1,2,0:0:0:0:
388,282,65977,1,0,0:0:0:0:
388,282,66086,5,10,1:2:0:0:
409,246,66194,1,2,0:0:0:0:
434,211,66303,1,0,1:0:0:0:
445,252,66412,1,2,0:0:0:0:
463,312,66520,5,6,1:2:0:0:
481,289,66629,1,2,0:0:0:0:
490,262,66738,1,2,0:0:0:0:
488,233,66847,1,0,0:0:0:0:
478,206,66955,1,10,0:0:0:0:
457,186,67064,1,2,0:0:0:0:
429,180,67173,1,0,0:0:0:0:
401,182,67281,1,2,0:0:0:0:
355,225,67390,5,6,1:2:0:0:
350,190,67499,1,2,0:0:0:0:
345,149,67607,1,2,0:0:0:0:
338,100,67716,1,0,0:0:0:0:
277,115,67825,5,14,0:0:0:0:
271,163,67933,1,2,0:0:0:0:
267,205,68042,1,2,0:0:0:0:
262,239,68151,1,0,0:0:0:0:
209,273,68260,6,0,L|194:186,1,70,6|0,1:2|0:0,0:0:0:0:
89,51,68477,1,0,1:0:0:0:
125,56,68549,1,0,1:0:0:0:
162,61,68622,1,0,1:0:0:0:
198,67,68694,6,0,L|301:79,1,93.3333333333333,6|0,1:2|0:0,0:0:0:0:
389,182,68912,1,0,0:0:0:0:
448,134,69057,6,0,L|374:142,1,46.6666666666667,6|0,1:2|0:0,0:0:0:0:
289,282,69202,1,0,0:0:0:0:
309,354,69346,6,0,L|321:251,1,93.3333333333333,6|0,1:2|0:0,0:0:0:0:
185,100,69564,1,0,0:0:0:0:
267,118,69709,6,0,P|190:144|91:150,1,140,6|0,1:2|0:0,0:0:0:0:
21,120,69999,5,2,1:2:0:0:
211,172,70216,1,0,0:0:0:0:
114,195,70433,2,0,P|91:248|89:287,1,70.0000026702882,10|0,0:0|0:0,0:0:0:0:
94,300,70651,1,0,0:0:0:0:
193,259,70796,1,0,0:0:0:0:
198,241,70868,1,2,1:2:0:0:
233,322,71013,1,0,0:0:0:0:
241,337,71086,2,0,P|320:344|378:335,1,105.000004005432,2|8,0:0|0:0,0:0:0:0:
487,137,71520,6,0,P|488:165|519:247,1,105.000004005432,2|0,0:0|1:0,0:0:0:0:
162,159,71955,1,2,0:0:0:0:
240,48,72173,2,0,P|293:71|332:73,1,70.0000026702882,10|0,0:0|0:0,0:0:0:0:
343,79,72390,1,0,0:0:0:0:
495,62,72535,1,0,0:0:0:0:
512,51,72607,1,2,1:2:0:0:
425,88,72752,1,0,0:0:0:0:
420,109,72825,2,0,P|433:187|457:240,1,105.000004005432,2|8,0:0|0:0,0:0:0:0:
274,378,73260,1,2,0:0:0:0:
304,312,73405,1,0,0:0:0:0:
304,312,73477,5,2,1:2:0:0:
256,150,73694,1,0,0:0:0:0:
346,88,73912,2,0,P|293:111|254:113,1,70.0000026702882,10|0,0:0|0:0,0:0:0:0:
207,95,74129,1,0,0:0:0:0:
97,145,74274,1,0,0:2:0:0:
116,160,74347,1,2,1:2:0:0:
156,238,74491,1,0,0:0:0:0:
141,257,74564,2,0,P|66:284|8:290,1,105.000004005432,2|8,0:0|0:0,0:0:0:0:
0,27,74999,1,2,0:0:0:0:
41,39,75144,1,0,0:0:0:0:
41,39,75216,5,2,1:2:0:0:
98,134,75433,1,0,0:0:0:0:
230,178,75651,2,0,P|287:186|325:178,1,70.0000026702882,10|0,0:0|0:0,0:0:0:0:
371,163,75868,1,0,0:0:0:0:
496,95,76013,1,0,0:0:0:0:
497,74,76086,2,0,L|504:10,1,35.0000013351441,2|0,1:2|0:0,0:0:0:0:
326,265,76303,1,2,3:2:0:0:
337,287,76376,1,0,3:0:0:0:
349,308,76448,1,0,3:0:0:0:
360,330,76520,2,0,P|289:317|206:338,1,140.000005340576,10|0,0:0|0:0,0:0:0:0:
348,366,76955,5,4,1:2:0:0:
512,289,77173,1,0,0:0:0:0:
380,255,77390,2,0,P|357:202|355:163,1,70.0000026702882,10|0,0:0|0:0,0:0:0:0:
365,156,77607,1,0,0:0:0:0:
483,137,77752,1,0,0:0:0:0:
492,114,77825,1,2,1:2:0:0:
386,126,77970,1,0,0:0:0:0:
411,142,78042,2,0,P|383:216|377:274,1,105.000004005432,2|8,0:0|0:0,0:0:0:0:
189,371,78477,6,0,P|180:344|129:273,1,105.000004005432,2|0,0:0|1:0,0:0:0:0:
38,295,78839,1,0,0:0:0:0:
38,295,78912,1,0,0:0:0:0:
53,168,79129,1,10,0:0:0:0:
134,188,79274,1,0,0:0:0:0:
134,188,79347,2,0,L|112:93,1,70.0000026702882
207,63,79564,5,0,1:0:0:0:
136,93,79709,1,0,1:0:0:0:
0,10,79926,2,0,L|54:-7,1,35.0000013351441,0|8,1:0|0:0,0:0:0:0:
233,27,80144,2,0,L|376:43,1,140.000005340576,0|0,1:0|1:0,0:0:0:0:
59,148,80651,5,2,0:0:0:0:
13,257,80868,2,0,P|21:283|64:338,1,70.0000026702882,10|0,0:0|0:0,0:0:0:0:
120,298,81086,2,0,P|154:304|185:320,1,70.0000026702882
232,384,81303,1,2,1:2:0:0:
204,212,81448,1,0,0:0:0:0:
181,220,81520,2,0,L|76:189,1,105.000004005432,0|8,0:0|0:0,0:0:0:0:
364,177,82100,1,0,0:0:0:0:
364,177,82173,5,2,1:2:0:0:
364,382,82390,1,0,1:0:0:0:
405,166,82607,2,0,L|416:103,1,35.0000013351441,8|0,1:2|0:0,0:0:0:0:
182,340,82970,1,0,1:0:0:0:
212,363,83042,2,0,L|152:373,1,35.0000013351441,0|0,1:0|0:0,0:0:0:0:
0,249,83260,1,0,1:0:0:0:
174,237,83477,2,0,L|209:51,1,175.00000667572,8|0,1:2|0:0,0:0:0:0:
56,31,83912,5,2,1:2:0:0:
56,31,84057,2,0,L|103:43,1,35.0000013351441,2|0,0:0|0:0,0:0:0:0:
269,43,84347,2,0,L|376:13,1,105.000004005432,10|0,0:0|0:0,0:0:0:0:
333,136,84709,1,0,0:0:0:0:
328,156,84781,2,0,L|300:266,1,105.000004005432,2|2,1:2|0:0,0:0:0:0:
442,194,85144,2,0,L|495:207,1,35.0000013351441,2|8,0:0|0:0,0:0:0:0:
439,384,85433,6,0,P|462:369|518:301,1,105.000004005432,2|0,0:0|1:0,0:0:0:0:
358,260,85796,2,0,L|301:274,1,35.0000013351441,2|0,0:0|0:0,0:0:0:0:
178,369,86086,2,0,L|63:338,1,105.000004005432,10|0,0:0|0:0,0:0:0:0:
192,259,86448,1,0,0:0:0:0:
199,240,86520,2,0,L|226:135,1,105.000004005432,2|2,1:2|0:0,0:0:0:0:
264,8,86883,2,0,L|218:-4,1,35.0000013351441,2|8,0:0|0:0,0:0:0:0:
1,27,87173,2,0,P|7:75|24:116,1,70.0000026702882,2|0,0:0|0:0,0:0:0:0:
83,173,87390,5,2,1:2:0:0:
83,173,87535,2,0,L|129:124,1,35.0000013351441,2|0,0:0|0:0,0:0:0:0:
241,23,87825,2,0,L|356:52,1,105.000004005432,10|0,0:0|0:0,0:0:0:0:
493,154,88187,1,0,0:0:0:0:
487,174,88260,2,0,L|512:276,1,105.000004005432,2|2,1:2|0:0,0:0:0:0:
386,196,88622,2,0,L|341:208,1,35.0000013351441,2|8,0:0|0:0,0:0:0:0:
264,350,88912,2,0,P|294:369|328:379,1,70.0000026702882,2|0,0:0|0:0,0:0:0:0:
407,341,89129,5,2,1:2:0:0:
407,341,89274,2,0,L|362:352,1,35.0000013351441,2|0,0:0|0:0,0:0:0:0:
218,230,89564,2,0,L|139:153,1,105.000004005432,10|2,0:0|0:0,0:0:0:0:
293,93,89926,1,0,0:0:0:0:
278,108,89999,2,0,L|292:158,1,35.0000013351441,2|0,1:2|0:0,0:0:0:0:
429,191,90216,1,2,3:2:0:0:
408,204,90289,1,0,3:0:0:0:
388,218,90361,1,0,3:0:0:0:
368,232,90433,2,0,P|327:173|343:114,1,105.000004005432,10|0,0:0|0:0,0:0:0:0:
410,32,90796,1,0,0:0:0:0:
429,16,90868,5,6,1:2:0:0:
429,16,91013,2,0,L|443:66,1,35.0000013351441,2|0,0:0|0:0,0:0:0:0:
301,170,91303,2,0,L|267:283,1,105.000004005432,10|0,0:0|0:0,0:0:0:0:
412,360,91665,1,0,0:0:0:0:
419,340,91738,2,0,L|387:234,1,105.000004005432,2|2,1:2|0:0,0:0:0:0:
211,215,92100,2,0,L|174:178,1,35.0000013351441,2|8,0:0|0:0,0:0:0:0:
37,34,92390,6,0,P|57:53|137:89,1,105.000004005432,2|0,0:0|1:0,0:0:0:0:
250,64,92752,2,0,L|204:89,1,35.0000013351441,2|0,0:0|0:0,0:0:0:0:
0,119,93042,2,0,L|28:220,1,105.000004005432,10|0,0:0|0:0,0:0:0:0:
151,297,93477,5,2,1:2:0:0:
242,297,93622,1,0,1:0:0:0:
33,360,93839,2,0,L|-21:374,1,35.0000013351441,2|8,1:2|0:0,0:0:0:0:
251,332,94057,2,0,L|359:361,1,105.000004005432,0|0,1:0|0:0,0:0:0:0:
241,379,94347,5,6,1:2:0:0:
241,379,94491,2,0,L|227:328,1,35.0000013351441,2|0,0:0|0:0,0:0:0:0:
361,222,94781,2,0,L|437:145,1,105.000004005432,10|0,0:0|0:0,0:0:0:0:
254,108,95144,1,0,0:0:0:0:
246,85,95216,6,0,L|216:193,1,105.000004005432,6|2,1:2|0:0,0:0:0:0:
341,188,95578,2,0,L|391:202,1,35.0000013351441,2|8,0:0|0:0,0:0:0:0:
436,364,95796,1,0,0:0:0:0:
456,364,95868,2,0,P|448:329|430:292,1,70.0000026702882,2|0,0:0|0:0,0:0:0:0:
316,341,96086,5,6,1:2:0:0:
335,255,96231,1,2,0:0:0:0:
335,255,96303,2,0,P|306:223|278:210,1,70.0000026702882,0|0,1:0|1:0,0:0:0:0:
141,261,96520,1,2,1:2:0:0:
117,344,96665,1,2,0:0:0:0:
117,344,96738,2,0,P|76:356|46:354,1,52.5000020027161,0|0,1:0|1:0,0:0:0:0:
73,221,96955,2,0,L|83:130,1,70.0000026702882,2|0,1:2|0:0,0:0:0:0:
0,66,97173,2,0,L|8:109,2,26.2500010013581,2|0|0,1:2|1:0|1:0,0:0:0:0:
154,24,97390,2,0,L|120:-4,5,35.0000013351441,2|0|0|0|0|0,0:0|0:0|0:0|0:0|0:0|0:0,0:0:0:0:
165,34,97825,5,2,1:2:0:0:
189,48,97933,1,2,0:0:0:0:
218,48,98042,1,2,0:0:0:0:
245,41,98151,1,0,0:0:0:0:
269,27,98260,1,10,0:0:0:0:
296,19,98368,1,2,0:0:0:0:
324,21,98477,1,0,0:0:0:0:
351,28,98586,1,2,0:0:0:0:
376,40,98694,1,2,1:2:0:0:
397,68,98803,1,2,0:0:0:0:
391,110,98912,1,2,0:0:0:0:
349,134,99020,1,0,0:0:0:0:
300,106,99129,1,10,0:0:0:0:
309,54,99238,1,2,0:0:0:0:
355,37,99347,1,0,0:0:0:0:
388,68,99455,1,2,0:0:0:0:
391,110,99564,1,2,1:2:0:0:
428,100,99673,1,2,0:0:0:0:
451,74,99781,1,2,0:0:0:0:
449,42,99890,1,0,0:0:0:0:
434,18,99999,1,10,0:0:0:0:
411,21,100107,1,2,0:0:0:0:
401,40,100216,1,0,0:0:0:0:
400,57,100325,1,2,0:0:0:0:
424,83,100433,1,2,1:2:0:0:
424,83,100542,1,2,0:0:0:0:
424,83,100651,1,2,0:0:0:0:
424,83,100760,1,0,0:0:0:0:
424,83,100868,5,10,0:0:0:0:
371,111,100977,2,0,P|349:186|342:254,1,140,2|2,0:0|0:0,0:0:0:0:
441,366,101303,5,2,1:2:0:0:
425,342,101412,1,2,0:0:0:0:
401,326,101520,1,2,0:0:0:0:
374,318,101629,1,0,0:0:0:0:
345,316,101738,1,10,0:0:0:0:
317,320,101847,1,2,0:0:0:0:
290,328,101955,1,0,0:0:0:0:
266,343,102064,1,2,0:0:0:0:
248,364,102173,1,2,1:2:0:0:
215,377,102281,1,2,0:0:0:0:
174,368,102390,1,2,0:0:0:0:
148,326,102499,1,0,0:0:0:0:
167,273,102607,1,10,0:0:0:0:
215,254,102716,1,2,0:0:0:0:
262,268,102825,1,0,0:0:0:0:
293,301,102933,1,2,0:0:0:0:
296,344,103042,1,2,1:2:0:0:
326,320,103151,1,2,0:0:0:0:
334,286,103260,1,2,0:0:0:0:
326,256,103368,1,0,0:0:0:0:
326,228,103477,1,10,0:0:0:0:
336,205,103586,1,2,0:0:0:0:
353,195,103694,1,0,0:0:0:0:
371,197,103803,1,2,0:0:0:0:
387,223,103912,1,2,1:2:0:0:
387,223,104020,1,2,0:0:0:0:
387,223,104129,1,2,0:0:0:0:
387,223,104238,1,0,0:0:0:0:
387,223,104347,5,10,0:0:0:0:
334,197,104455,1,2,0:0:0:0:
136,41,104673,1,2,0:0:0:0:
156,108,104781,5,2,1:2:0:0:
181,96,104890,1,2,0:0:0:0:
208,98,104999,1,2,0:0:0:0:
231,112,105107,1,0,0:0:0:0:
248,133,105216,1,10,0:0:0:0:
245,160,105325,1,2,0:0:0:0:
229,183,105433,1,0,0:0:0:0:
205,198,105542,1,2,0:0:0:0:
176,198,105651,1,2,1:2:0:0:
146,215,105760,1,2,0:0:0:0:
138,256,105868,1,2,0:0:0:0:
152,304,105977,1,0,0:0:0:0:
203,328,106086,1,10,0:0:0:0:
249,303,106194,1,2,0:0:0:0:
252,255,106303,1,0,0:0:0:0:
223,221,106412,1,2,0:0:0:0:
182,225,106520,1,2,1:2:0:0:
197,260,106629,1,2,0:0:0:0:
196,295,106738,1,2,0:0:0:0:
186,326,106847,1,0,0:0:0:0:
170,348,106955,1,10,0:0:0:0:
150,364,107064,1,2,0:0:0:0:
130,363,107173,1,0,0:0:0:0:
117,351,107281,1,2,0:0:0:0:
131,351,107390,1,2,1:2:0:0:
131,351,107499,1,2,0:0:0:0:
131,351,107607,1,2,0:0:0:0:
131,351,107716,1,0,0:0:0:0:
131,351,107825,5,10,0:0:0:0:
175,313,107933,2,0,P|137:244|94:191,1,140,2|2,0:0|0:0,0:0:0:0:
0,94,108260,5,2,1:2:0:0:
14,70,108368,1,2,0:0:0:0:
40,60,108477,1,2,0:0:0:0:
68,59,108586,1,0,0:0:0:0:
94,67,108694,1,10,0:0:0:0:
115,85,108803,1,2,0:0:0:0:
126,110,108912,1,0,0:0:0:0:
143,131,109020,1,2,0:0:0:0:
166,145,109129,1,2,1:2:0:0:
201,149,109238,1,2,0:0:0:0:
241,140,109347,1,2,0:0:0:0:
279,110,109455,1,0,0:0:0:0:
293,55,109564,1,10,0:0:0:0:
270,8,109673,1,2,0:0:0:0:
222,4,109781,1,0,0:0:0:0:
198,43,109890,1,2,0:0:0:0:
216,103,109999,6,0,P|293:97|335:116,2,70,4|2|0,1:2|0:0|0:0,0:0:0:0:
473,44,110361,6,0,L|486:0,1,46.6666666666667,4|0,1:2|0:0,0:0:0:0:
321,166,110578,1,2,0:0:0:0:
286,143,110651,6,0,P|291:66|270:8,1,140,4|2,1:2|0:0,0:0:0:0:
403,251,111013,1,0,0:0:0:0:
403,251,111086,2,0,P|428:265|448:293,1,46.6666666666667
408,296,111303,1,0,0:0:0:0:
408,296,111448,2,0,P|430:247|456:225,1,70
512,140,111738,5,6,1:2:0:0:
510,111,111847,1,2,0:0:0:0:
488,92,111955,1,2,0:0:0:0:
460,95,112064,1,0,0:0:0:0:
447,120,112173,1,10,0:0:0:0:
455,146,112281,1,2,0:0:0:0:
476,163,112390,1,0,0:0:0:0:
488,187,112499,1,2,0:0:0:0:
486,214,112607,1,2,1:2:0:0:
460,236,112716,1,2,0:0:0:0:
417,233,112825,1,2,0:0:0:0:
388,194,112933,1,0,0:0:0:0:
335,178,113042,1,10,0:0:0:0:
288,202,113151,1,2,0:0:0:0:
283,251,113260,1,0,0:0:0:0:
304,290,113368,1,2,0:0:0:0:
343,306,113477,1,2,1:2:0:0:
333,269,113586,1,2,0:0:0:0:
345,235,113694,1,2,0:0:0:0:
371,218,113803,1,0,0:0:0:0:
399,226,113912,1,10,0:0:0:0:
412,246,114020,1,2,0:0:0:0:
403,265,114129,1,0,0:0:0:0:
387,272,114238,1,2,0:0:0:0:
388,285,114347,1,2,1:2:0:0:
386,285,114455,1,2,0:0:0:0:
386,285,114564,1,2,0:0:0:0:
386,285,114673,1,0,0:0:0:0:
386,285,114781,5,10,0:0:0:0:
347,330,114890,2,0,P|271:351|203:358,1,140,2|2,0:0|0:0,0:0:0:0:
73,293,115216,5,2,1:2:0:0:
58,269,115325,1,2,0:0:0:0:
58,241,115433,1,2,0:0:0:0:
74,218,115542,1,0,0:0:0:0:
99,206,115651,1,10,0:0:0:0:
126,214,115760,1,2,0:0:0:0:
147,232,115868,1,0,0:0:0:0:
173,242,115977,1,2,0:0:0:0:
201,239,116086,1,2,1:2:0:0:
227,215,116194,1,2,0:0:0:0:
233,173,116303,1,2,0:0:0:0:
200,137,116412,1,0,0:0:0:0:
146,128,116520,1,10,0:0:0:0:
106,94,116629,1,2,0:0:0:0:
113,46,116738,1,0,0:0:0:0:
155,29,116847,1,2,0:0:0:0:
191,51,116955,1,2,1:2:0:0:
162,76,117064,1,2,0:0:0:0:
179,107,117173,1,2,0:0:0:0:
210,109,117281,1,0,0:0:0:0:
229,87,117390,1,10,0:0:0:0:
228,62,117499,1,2,0:0:0:0:
234,41,117607,1,0,0:0:0:0:
246,28,117716,1,2,0:0:0:0:
274,37,117825,1,2,1:2:0:0:
274,37,117933,1,2,0:0:0:0:
274,37,118042,1,2,0:0:0:0:
274,37,118151,1,0,0:0:0:0:
274,37,118260,5,10,1:2:0:0:
248,69,118368,1,2,0:0:0:0:
226,105,118477,1,0,1:0:0:0:
267,98,118586,1,2,0:0:0:0:
328,87,118694,5,6,1:2:0:0:
317,113,118803,1,2,0:0:0:0:
327,138,118912,1,2,0:0:0:0:
349,154,119020,1,0,0:0:0:0:
367,174,119129,1,10,0:0:0:0:
370,201,119238,1,2,0:0:0:0:
358,226,119347,1,0,0:0:0:0:
332,237,119455,1,2,0:0:0:0:
305,227,119564,1,2,1:2:0:0:
284,198,119673,1,2,0:0:0:0:
246,179,119781,1,2,0:0:0:0:
198,192,119890,1,0,0:0:0:0:
182,245,119999,6,0,L|269:261,1,70,10|0,1:2|0:0,0:0:0:0:
405,211,120216,2,0,L|318:227,1,70,2|0,1:2|0:0,0:0:0:0:
167,211,120433,5,6,1:2:0:0:
186,178,120542,1,2,0:0:0:0:
221,180,120651,2,0,L|278:247,1,61.2500005841255,2|0,0:0|0:0,0:0:0:0:
254,348,120868,1,10,0:0:0:0:
237,366,120977,2,0,L|150:382,1,61.2500005841255,2|0,0:0|0:0,0:0:0:0:
87,330,121194,1,2,0:0:0:0:
81,324,121303,1,2,1:2:0:0:
81,324,121412,1,2,0:0:0:0:
81,324,121520,2,0,L|92:384,1,61.2500005841255,2|0,0:0|0:0,0:0:0:0:
0,201,121738,5,10,1:2:0:0:
49,350,121955,1,2,1:2:0:0:
0,201,122173,5,4,1:2:0:0:
14,216,122281,1,0,0:0:0:0:
28,227,122390,2,0,L|88:216,1,52.5000020027161,2|0,0:0|0:0,0:0:0:0:
224,287,122607,1,10,0:0:0:0:
241,283,122752,2,0,L|343:264,1,105.000004005432,2|0,0:0|0:0,0:0:0:0:
166,264,123042,1,4,1:2:0:0:
183,261,123151,1,0,0:0:0:0:
201,259,123260,2,0,L|261:248,1,43.75,2|0,0:0|0:0,0:0:0:0:
353,341,123477,1,10,0:0:0:0:
400,336,123622,2,0,L|504:316,1,87.5,2|0,0:0|0:0,0:0:0:0:
316,314,123912,1,4,1:2:0:0:
316,314,124129,2,0,L|390:300,1,70,2|0,0:0|0:0,0:0:0:0:
452,381,124491,2,0,L|514:290,1,105.000004005432,2|0,0:0|0:0,0:0:0:0:
443,182,124781,2,0,L|522:197,1,70.0000026702882
512,166,124999,6,0,L|377:141,1,122.500001168251,2|0,0:0|0:0,0:0:0:0:
315,53,125361,2,0,L|180:28,1,122.500001168251,2|0,0:0|0:0,0:0:0:0:
47,86,125651,6,0,P|15:142|0:231,1,140,2|0,1:2|0:0,0:0:0:0:
88,116,126013,1,0,0:0:0:0:
114,133,126086,2,0,P|176:116|250:63,1,140,10|0,0:0|0:0,0:0:0:0:
133,16,126448,1,0,0:0:0:0:
100,11,126520,1,2,1:2:0:0:
192,75,126665,1,0,0:0:0:0:
195,106,126738,2,0,P|181:174|147:235,1,140,2|8,0:0|0:0,0:0:0:0:
0,384,127173,6,0,P|45:338|128:301,1,140,2|0,0:0|1:2,0:0:0:0:
278,383,127607,2,0,P|284:342|264:291,1,93.3333333333333
247,199,127825,2,0,P|233:267|199:328,1,140,10|0,0:0|0:0,0:0:0:0:
127,238,128187,1,0,0:0:0:0:
141,214,128260,1,2,1:2:0:0:
172,301,128405,1,0,0:0:0:0:
199,310,128477,2,0,P|267:296|328:262,1,140,2|8,0:0|0:0,0:0:0:0:
480,67,128912,6,0,P|487:108|465:162,1,93.3333333333333,2|0,0:0|0:0,0:0:0:0:
359,190,129129,2,0,P|354:259|371:327,1,140,2|0,1:2|0:0,0:0:0:0:
400,206,129491,1,0,0:0:0:0:
398,176,129564,2,0,P|352:123|292:87,1,140,10|0,0:0|0:0,0:0:0:0:
172,174,129926,1,0,0:0:0:0:
184,202,129999,1,2,1:2:0:0:
279,161,130144,1,0,0:0:0:0:
292,137,130216,2,0,P|296:67|279:-1,1,140,2|8,0:0|0:0,0:0:0:0:
4,93,130651,6,0,P|47:114|75:153,1,93.3333333333333,2|0,0:0|0:0,0:0:0:0:
93,254,130868,2,0,P|88:184|105:116,1,140,2|0,1:2|0:0,0:0:0:0:
215,84,131231,1,0,0:0:0:0:
185,66,131303,2,0,P|189:135|172:203,1,140,10|0,0:0|0:0,0:0:0:0:
39,262,131665,1,0,0:0:0:0:
8,276,131738,1,2,1:2:0:0:
135,292,131883,1,0,0:0:0:0:
141,257,131955,1,2,0:0:0:0:
156,170,132173,2,0,P|225:165|293:182,1,140,10|0,0:0|0:0,0:0:0:0:
424,228,132535,1,0,0:0:0:0:
407,186,132607,6,0,P|452:133|512:97,1,140,6|0,1:2|0:0,0:0:0:0:
449,194,132970,1,0,0:0:0:0:
469,220,133042,2,0,P|473:289|456:357,1,140,10|0,0:0|0:0,0:0:0:0:
405,253,133405,1,0,0:0:0:0:
430,238,133477,1,2,1:2:0:0:
362,152,133622,1,0,0:0:0:0:
332,149,133694,2,0,P|270:180|219:228,1,140,2|8,0:0|0:0,0:0:0:0:
22,373,134129,6,0,P|5:310|14:220,1,140,2|2,0:0|1:2,0:0:0:0:
56,291,134491,1,0,0:0:0:0:
35,262,134564,1,0,0:0:0:0:
198,158,134781,2,0,P|243:141|291:149,1,93.3333333333333,10|0,0:0|0:0,0:0:0:0:
388,190,134999,2,0,P|438:153|465:95,1,93.3333333333333,2|0,0:0|0:0,0:0:0:0:
411,11,135216,5,0,1:2:0:0:
430,84,135361,1,0,1:2:0:0:
419,267,135578,2,0,L|436:189,1,46.6666666666667,0|8,1:2|0:0,0:0:0:0:
462,25,135796,2,0,L|472:242,1,186.666666666667,0|0,1:2|1:2,0:0:0:0:
172,96,136303,6,0,P|129:75|82:78,1,93.3333333333333,2|0,0:0|0:0,0:0:0:0:
11,107,136520,2,0,P|76:128|146:129,1,140,10|0,0:0|0:0,0:0:0:0:
58,39,136883,1,0,0:0:0:0:
32,18,136955,2,0,P|75:-3|122:0,1,93.3333333333333,2|0,1:2|0:0,0:0:0:0:
172,96,137173,2,0,L|319:172,1,140,0|8,0:0|0:0,0:0:0:0:
36,344,137607,1,0,0:0:0:0:
59,273,137752,1,0,0:0:0:0:
59,273,137825,5,2,1:2:0:0:
233,254,138042,1,0,1:0:0:0:
34,236,138260,2,0,L|-25:182,1,46.6666666666667,8|0,0:0|0:0,0:0:0:0:
234,357,138622,1,0,1:0:0:0:
217,382,138694,2,0,L|295:365,1,46.6666666666667,0|0,1:2|0:0,0:0:0:0:
213,154,138912,1,0,1:0:0:0:
281,335,139129,2,0,L|527:388,1,233.333333333333,8|0,0:0|0:0,0:0:0:0:
512,249,139564,5,2,1:2:0:0:
512,249,139709,2,0,L|434:266,1,46.6666666666667,2|0,0:0|0:0,0:0:0:0:
293,191,139926,1,0,0:0:0:0:
269,212,139999,2,0,P|194:207|130:181,1,140,10|0,0:0|0:0,0:0:0:0:
31,65,140361,1,0,0:0:0:0:
7,38,140433,2,0,L|40:184,1,140,2|2,1:2|0:0,0:0:0:0:
153,55,140796,2,0,L|231:72,1,46.6666666666667,2|8,0:0|0:0,0:0:0:0:
51,254,141086,6,0,P|18:310|4:399,1,140,2|2,0:0|1:2,0:0:0:0:
174,349,141448,2,0,L|225:301,1,46.6666666666667,2|0,0:0|0:0,0:0:0:0:
226,127,141665,1,0,0:0:0:0:
257,143,141738,2,0,P|328:118|382:78,1,140,10|0,0:0|0:0,0:0:0:0:
495,43,142100,1,0,0:0:0:0:
512,14,142173,2,0,L|373:42,1,140,2|0,1:2|0:0,0:0:0:0:
485,184,142535,2,0,L|499:252,1,46.6666666666667,2|8,0:0|0:0,0:0:0:0:
348,62,142825,2,0,P|298:39|255:44,1,93.3333333333333,2|0,0:0|0:0,0:0:0:0:
173,142,143042,5,2,1:2:0:0:
173,142,143187,2,0,L|187:210,1,46.6666666666667,2|0,0:0|0:0,0:0:0:0:
75,316,143405,1,0,0:0:0:0:
92,288,143477,2,0,P|67:217|27:163,1,140,10|0,0:0|0:0,0:0:0:0:
113,42,143839,1,0,0:0:0:0:
138,64,143912,2,0,L|57:185,1,140,2|2,1:2|0:0,0:0:0:0:
237,193,144274,2,0,L|251:261,1,46.6666666666667,2|8,0:0|0:0,0:0:0:0:
471,116,144564,2,0,P|506:74|511:30,1,93.3333333333333,2|0,0:0|0:0,0:0:0:0:
388,0,144781,5,2,1:2:0:0:
388,0,144926,2,0,L|402:68,1,46.6666666666667,2|0,0:0|0:0,0:0:0:0:
488,211,145144,1,0,0:0:0:0:
453,219,145216,2,0,P|412:275|390:341,1,140,10|0,0:0|0:0,0:0:0:0:
276,384,145578,1,0,0:0:0:0:
241,384,145651,1,2,1:2:0:0:
162,354,145796,2,0,L|177:273,1,46.6666666666667,2|0,0:0|0:0,0:0:0:0:
63,208,146086,2,0,P|38:142|34:73,1,140,10|0,0:0|0:0,0:0:0:0:
149,0,146448,1,0,0:0:0:0:
184,30,146520,5,2,1:2:0:0:
184,30,146665,2,0,L|197:98,1,46.6666666666667,2|0,0:0|0:0,0:0:0:0:
255,214,146883,1,0,0:0:0:0:
226,198,146955,2,0,P|157:209|94:240,1,140,10|0,0:0|0:0,0:0:0:0:
51,360,147318,1,0,0:0:0:0:
71,334,147390,2,0,L|40:183,1,140,2|2,1:2|0:0,0:0:0:0:
175,308,147752,2,0,L|243:322,1,46.6666666666667,2|8,0:0|0:0,0:0:0:0:
47,159,148042,6,0,P|14:102|0:13,1,140,2|2,0:0|1:2,0:0:0:0:
149,154,148405,2,0,L|141:200,1,46.6666666666667,2|0,0:0|0:0,0:0:0:0:
274,33,148622,1,0,0:0:0:0:
302,50,148694,2,0,P|355:50|400:23,1,93.3333333333333,10|0,0:0|0:0,0:0:0:0:
490,71,148912,2,0,P|468:112|426:134,1,93.3333333333333,2|0,0:0|0:0,0:0:0:0:
275,154,149129,5,2,1:2:0:0:
333,226,149274,1,0,1:2:0:0:
491,339,149491,2,0,L|427:316,1,46.6666666666667,2|8,1:2|0:0,0:0:0:0:
291,255,149709,2,0,L|425:343,1,140,0|0,1:0|0:0,0:0:0:0:
512,259,149999,5,6,1:2:0:0:
512,259,150144,2,0,L|445:271,1,46.6666666666667,2|0,0:0|0:0,0:0:0:0:
279,298,150361,1,0,0:0:0:0:
267,338,150433,2,0,P|226:361|181:359,1,93.3333333333333,10|0,0:0|0:0,0:0:0:0:
127,261,150651,2,0,P|94:226|50:215,1,93.3333333333333
0,99,150868,5,6,1:2:0:0:
47,29,151013,2,0,L|113:17,1,46.6666666666667,2|0,0:0|0:0,0:0:0:0:
318,113,151231,2,0,L|251:101,1,46.6666666666667,2|8,0:0|0:0,0:0:0:0:
460,384,151520,2,0,L|512:306,1,93.3333333333333,2|0,0:0|0:0,0:0:0:0:
466,192,151738,5,2,1:2:0:0:
466,192,151883,2,0,L|460:124,1,46.6666666666667,2|0,0:0|0:0,0:0:0:0:
366,0,152173,2,0,L|358:97,1,93.3333333333333,10|0,0:0|0:0,0:0:0:0:
440,272,152535,1,2,0:0:0:0:
472,296,152607,1,2,3:2:0:0:
472,296,152752,2,0,L|462:353,3,46.6666666666667,0|0|0|0,3:0|0:0|0:0|0:0,0:0:0:0:
347,354,153042,1,0,3:0:0:0:
322,340,153115,1,0,3:0:0:0:
294,342,153187,1,0,3:0:0:0:
270,358,153260,1,0,3:0:0:0:
243,366,153332,1,0,3:0:0:0:
215,366,153405,1,0,3:0:0:0:
196,358,153477,6,0,B|109:317|58:229|98:141|98:141|138:229|210:261|210:261|170:181|170:125|306:93|266:-19|266:-19|386:29|394:125|330:189|266:261|290:285|314:293|314:293|394:221|410:197|426:149|442:85|442:85|522:237|442:325|346:365,1,1680.00006408692,2|0,1:2|1:0,0:0:0:0:
31,333,160325,6,0,L|-4:379,1,52.5000020027161,0|4,1:0|1:2,0:0:0:0:
180,68,165651,5,0,1:0:0:0:
9,47,165868,1,0,1:0:0:0:
188,39,166086,1,0,1:0:0:0:
393,248,166448,1,0,1:0:0:0:
411,243,166520,1,0,1:0:0:0:
490,190,166665,1,0,1:0:0:0:
500,210,166738,2,0,L|489:290,1,70.0000026702882,0|0,1:0|0:0,0:0:0:0:
466,384,166955,1,0,1:0:0:0:
449,309,167100,2,0,L|326:324,1,105.000004005432,0|0,1:0|0:0,0:0:0:0:
211,383,167390,5,4,1:2:0:0:
200,119,167607,6,0,P|196:153|203:178,1,35.0000013351441,2|0,0:0|0:0,0:0:0:0:
349,249,167825,1,8,1:2:0:0:
349,249,167970,2,0,P|330:261|316:265,1,35.0000013351441,2|0,0:0|0:0,0:0:0:0:
90,348,168260,2,0,P|31:313|-13:274,1,105.000004005432,2|0,1:2|0:0,0:0:0:0:
0,179,168622,2,0,P|18:227|45:272,1,105.000004005432,2|0,0:0|0:0,0:0:0:0:
141,283,168912,2,0,P|134:335|116:384,1,105.000004005432,2|0,0:0|0:0,0:0:0:0:
296,143,169347,6,0,P|322:140|347:144,1,35.0000013351441,2|0,0:0|0:0,0:0:0:0:
467,264,169564,1,8,1:2:0:0:
467,264,169709,2,0,P|491:254|512:239,1,35.0000013351441,2|0,0:0|0:0,0:0:0:0:
459,6,169999,1,2,1:2:0:0:
408,65,170144,2,0,P|381:67|356:63,1,35.0000013351441,2|0,0:0|0:0,0:0:0:0:
210,0,170361,2,0,P|189:47|176:98,1,105.000004005432,2|0,0:0|0:0,0:0:0:0:
197,172,170651,1,2,0:0:0:0:
166,146,170796,1,0,0:0:0:0:
166,146,170868,1,0,1:2:0:0:
23,221,171086,6,0,P|43:203|58:182,1,35.0000013351441,2|0,0:0|0:0,0:0:0:0:
84,14,171304,1,8,1:2:0:0:
84,14,171448,2,0,P|108:4|134:3,1,35.0000013351441,2|0,0:0|0:0,0:0:0:0:
285,141,171738,2,0,P|333:122|378:95,1,105.000004005432,2|0,1:2|0:0,0:0:0:0:
381,0,172100,2,0,P|360:46|347:98,1,105.000004005432,2|0,0:0|0:0,0:0:0:0:
269,95,172390,2,0,P|318:114|360:144,1,105.000004005432,2|0,0:0|0:0,0:0:0:0:
40,180,172825,6,0,P|47:204|63:225,1,35.0000013351441,2|0,0:0|0:0,0:0:0:0:
209,201,173043,1,8,1:2:0:0:
209,201,173187,2,0,P|235:201|259:211,1,35.0000013351441,2|0,0:0|0:0,0:0:0:0:
424,383,173477,1,2,1:2:0:0:
472,313,173622,1,2,0:0:0:0:
453,290,173694,1,2,0:0:0:0:
453,290,173803,2,0,L|460:265,2,26.2500010013581,2|0|8,0:0|0:0|1:2,0:0:0:0:
467,244,174020,2,0,L|484:308,1,52.5000020027161
342,72,174274,1,2,1:2:0:0:
376,84,174347,5,0,1:2:0:0:
164,124,174564,6,0,P|179:146|188:170,1,35.0000013351441,2|0,0:0|0:0,0:0:0:0:
103,281,174781,1,8,1:2:0:0:
103,281,174926,2,0,P|95:333|100:385,1,105.000004005432,2|0,0:0|0:0,0:0:0:0:
55,292,175216,1,2,1:2:0:0:
4,225,175361,1,0,1:0:0:0:
223,277,175578,2,0,L|264:309,1,35.0000013351441,2|0,1:2|1:0,0:0:0:0:
41,207,175796,2,0,L|-10:200,1,35.0000013351441,2|0,1:2|0:0,0:0:0:0:
162,38,176013,2,0,L|181:-10,1,35.0000013351441,8|0,1:2|0:0,0:0:0:0:
175,6,176231,1,0,1:0:0:0:
220,0,176303,6,0,P|243:11|263:27,1,35.0000013351441,2|0,1:2|0:0,0:0:0:0:
243,159,176520,1,8,1:2:0:0:
243,159,176665,2,0,P|252:183|267:205,1,35.0000013351441,2|0,0:0|0:0,0:0:0:0:
509,236,176955,1,2,1:2:0:0:
481,205,177100,2,0,P|455:200|429:202,1,35.0000013351441,2|0,1:2|0:0,0:0:0:0:
232,224,177318,1,2,1:2:0:0:
232,224,177390,1,0,1:2:0:0:
220,249,177462,1,0,1:0:0:0:
208,274,177534,1,0,1:0:0:0:
196,299,177607,1,0,1:0:0:0:
184,325,177679,1,0,1:0:0:0:
172,350,177752,1,0,1:0:0:0:
160,375,177824,5,4,1:2:0:0:
387,266,178042,6,0,P|391:240|389:214,1,35.0000013351441,2|0,0:0|0:0,0:0:0:0:
245,150,178260,1,8,1:2:0:0:
245,150,178405,2,0,P|212:108|190:61,1,105.000004005432,2|0,0:0|0:0,0:0:0:0:
282,137,178694,1,2,1:2:0:0:
363,114,178839,1,0,1:0:0:0:
128,101,179057,2,0,L|175:93,1,35.0000013351441,2|0,1:2|0:0,0:0:0:0:
375,10,179274,1,0,1:0:0:0:
158,28,179491,1,0,1:0:0:0:
143,64,179564,1,4,1:2:0:0:
290,83,179781,5,2,0:0:0:0:
430,221,180144,1,0,0:0:0:0:
34,167,180433,5,4,0:0:0:0:
91,211,180651,1,0,0:0:0:0:
188,212,180868,1,0,0:0:0:0:
298,162,181086,1,0,0:0:0:0:
344,17,181303,6,0,L|340:-1,1,17.5,6|0,1:2|0:0,0:0:0:0:
430,49,182100,1,0,3:0:0:0:
430,49,182173,2,0,L|447:66,1,23.3333333333333,2|0,0:0|0:0,0:0:0:0:
412,131,182390,1,0,3:0:0:0:
426,208,182752,1,0,3:0:0:0:
495,247,183042,2,0,P|392:155|335:124,1,198.333333333333,2|0,0:0|0:0,0:0:0:0:
317,116,183694,1,2,0:0:0:0:
333,165,183839,1,0,3:0:0:0:
345,244,184347,1,2,3:2:0:0:
301,311,184491,1,0,3:2:0:0:
301,311,184564,1,0,3:2:0:0:
267,332,184781,6,0,P|204:208|191:153,1,186.666666666667,2|0,0:0|0:0,0:0:0:0:
112,196,185433,1,2,0:0:0:0:
112,196,185578,2,0,L|82:52,1,140,0|0,3:0|0:0,0:0:0:0:
45,26,186049,2,0,L|47:5,1,11.6666666666667,2|0,0:0|0:0,0:0:0:0:
120,37,186521,2,0,P|48:70|1:110,1,140,2|0,0:0|0:0,0:0:0:0:
11,183,187173,2,0,L|22:134,1,46.6666666666667,2|0,0:0|3:0,0:0:0:0:
55,111,187390,2,0,P|101:179|114:213,1,116.666666666667,2|0,0:0|0:0,0:0:0:0:
116,234,187825,1,0,1:0:0:0:
185,280,187970,1,0,1:0:0:0:
185,280,188042,1,0,1:0:0:0:
203,258,188260,6,0,L|171:248,1,23.3333333333333,2|0,0:0|0:0,0:0:0:0:
152,342,189057,1,0,3:0:0:0:
152,342,189129,2,0,L|181:357,1,23.3333333333333,2|0,0:0|0:0,0:0:0:0:
224,302,189347,1,0,3:0:0:0:
302,320,189709,1,0,3:0:0:0:
354,379,189999,2,0,P|422:332|528:313,1,186.666666666667,2|0,0:0|0:0,0:0:0:0:
496,384,190651,1,2,0:0:0:0:
463,358,190796,1,0,3:0:0:0:
438,282,191303,1,2,3:2:0:0:
464,212,191448,1,0,3:2:0:0:
464,212,191520,1,0,3:2:0:0:
512,201,191738,6,0,P|443:247|339:269,1,186.666666666667,2|0,0:0|0:0,0:0:0:0:
294,215,192390,1,2,0:0:0:0:
294,215,192535,2,0,L|265:354,1,140,0|0,3:0|0:0,0:0:0:0:
198,383,193006,1,2,0:0:0:0:
238,202,193477,2,0,L|232:176,1,23.3333333333333,2|0,0:0|0:0,0:0:0:0:
157,50,194093,2,0,L|110:70,1,46.6666666666667,2|0,0:0|3:0,0:0:0:0:
89,86,194347,2,0,P|170:101|206:124,1,116.666666666667,2|0,0:0|0:0,0:0:0:0:
217,132,194781,1,0,1:0:0:0:
248,68,194926,1,0,1:0:0:0:
248,68,194999,1,0,1:0:0:0:
166,216,195216,6,0,L|172:243,1,23.3333333333333,6|0,1:2|0:0,0:0:0:0:
216,307,196013,1,0,3:0:0:0:
216,307,196086,2,0,L|189:313,1,23.3333333333333,2|0,0:0|0:0,0:0:0:0:
121,315,196303,1,0,3:0:0:0:
55,272,196665,1,0,3:0:0:0:
40,190,196955,2,0,P|11:325|11:388,1,198.333333333333,2|0,0:0|0:0,0:0:0:0:
48,384,197607,1,2,0:0:0:0:
39,335,197752,1,0,3:0:0:0:
59,264,198260,1,2,3:2:0:0:
128,230,198405,1,0,3:0:0:0:
128,230,198478,1,0,3:0:0:0:
157,248,198694,6,0,P|292:276|348:278,1,186.666666666667,2|0,0:0|0:0,0:0:0:0:
336,191,199347,1,2,0:0:0:0:
336,191,199491,2,0,L|471:109,1,151.666666666667,0|0,3:0|0:0,0:0:0:0:
466,84,199999,1,2,0:0:0:0:
462,159,200433,2,0,P|421:129|366:3,1,186.666666666667,2|0,0:0|0:0,0:0:0:0:
409,11,201086,2,0,L|386:62,1,46.6666666666667,2|0,0:0|3:0,0:0:0:0:
307,69,201303,2,0,P|266:45|196:36,1,116.666666666667,2|0,0:0|0:0,0:0:0:0:
180,44,201738,1,2,1:2:0:0:
106,58,201883,1,0,1:0:0:0:
106,58,201955,1,0,1:0:0:0:
5,5,202173,6,0,L|-4:32,1,23.3333333333333,6|0,1:2|0:0,0:0:0:0:
50,100,202970,1,0,3:0:0:0:
50,100,203042,2,0,L|73:114,1,23.3333333333333,2|0,0:0|0:0,0:0:0:0:
109,177,203260,1,0,3:0:0:0:
75,244,203622,1,0,3:0:0:0:
0,239,203912,2,0,P|48:258|159:346,1,186.666666666667,2|0,0:0|0:0,0:0:0:0:
219,384,204564,1,2,0:0:0:0:
219,384,204709,2,0,L|362:375,1,140,0|0,3:0|0:0,0:0:0:0:
390,337,205216,1,0,3:0:0:0:
348,273,205361,1,0,3:0:0:0:
348,273,205433,1,0,3:0:0:0:
308,251,205651,6,0,P|305:225|388:94,1,186.666666666667,2|0,0:0|0:0,0:0:0:0:
465,90,206303,1,2,0:0:0:0:
448,132,206448,2,0,L|468:287,1,140,0|0,3:0|0:0,0:0:0:0:
442,281,206919,2,0,P|394:275|322:241,1,128.333333333333,2|0,0:0|0:0,0:0:0:0:
395,308,207390,2,0,P|356:308|206:263,1,186.666666666667,2|0,0:0|0:0,0:0:0:0:
140,219,208042,2,0,L|157:171,1,46.6666666666667,2|0,0:0|0:0,0:0:0:0:
227,106,208260,5,2,0:0:0:0:
225,118,208405,1,2,0:0:0:0:
224,131,208477,1,2,0:0:0:0:
223,144,208694,1,2,0:0:0:0:
222,157,208912,1,2,0:0:0:0:
221,169,209057,1,2,0:0:0:0:
219,187,209129,6,0,P|148:216|96:214,1,105.000004005432,2|0,1:2|0:0,0:0:0:0:
57,174,209491,2,0,L|118:181,1,35.0000013351441,0|8,1:0|0:0,0:0:0:0:
3,46,209781,1,0,1:0:0:0:
73,12,209926,1,0,0:0:0:0:
73,12,209999,2,0,P|148:22|193:50,1,105.000004005432,2|0,1:2|0:0,0:0:0:0:
320,182,210433,1,8,0:0:0:0:
331,21,210651,1,0,0:0:0:0:
371,0,210796,1,0,0:0:0:0:
371,0,210868,6,0,P|417:61|428:111,1,105.000004005432,2|0,1:2|0:0,0:0:0:0:
397,161,211231,2,0,L|405:96,1,35.0000013351441,0|8,1:0|0:0,0:0:0:0:
495,271,211520,1,0,1:0:0:0:
440,326,211665,1,0,0:0:0:0:
440,326,211738,2,0,P|378:279|328:268,1,105.000004005432,2|0,1:2|0:0,0:0:0:0:
142,333,212173,1,8,0:0:0:0:
241,201,212390,1,0,0:0:0:0:
281,189,212535,1,0,0:0:0:0:
281,189,212607,6,0,P|271:265|286:314,1,105.000004005432,2|0,1:2|0:0,0:0:0:0:
322,353,212970,2,0,L|314:293,1,35.0000013351441,0|8,1:0|0:0,0:0:0:0:
135,358,213260,2,0,P|102:316|86:267,1,105.000004005432,2|0,1:2|1:0,0:0:0:0:
184,85,213694,1,0,0:0:0:0:
244,139,213839,1,0,0:0:0:0:
244,139,213912,2,0,P|295:132|342:108,1,105.000004005432,10|0,0:0|0:0,0:0:0:0:
353,246,214274,1,0,0:0:0:0:
353,246,214347,6,0,P|401:266|453:269,1,105.000004005432,2|0,1:2|0:0,0:0:0:0:
512,221,214709,2,0,L|457:227,1,35.0000013351441,0|8,1:0|0:0,0:0:0:0:
348,384,214999,2,0,L|304:327,1,70.0000026702882,2|0,1:2|0:0,0:0:0:0:
247,248,215216,2,0,P|212:286|192:335,1,105.000004005432,2|0,1:2|0:0,0:0:0:0:
22,383,215651,1,8,0:0:0:0:
9,346,215796,1,0,3:0:0:0:
9,346,215868,1,0,3:0:0:0:
0,302,216013,1,0,3:0:0:0:
0,302,216086,6,0,P|2:249|22:201,1,105.000004005432,6|0,1:2|0:0,0:0:0:0:
43,129,216448,2,0,L|7:174,1,35.0000013351441,0|8,1:0|0:0,0:0:0:0:
186,67,216738,1,0,1:0:0:0:
237,134,216883,1,0,0:0:0:0:
237,134,216955,2,0,P|247:185|240:236,1,105.000004005432,2|0,1:2|0:0,0:0:0:0:
72,347,217390,1,8,0:0:0:0:
269,341,217607,1,0,0:0:0:0:
309,327,217752,1,0,0:0:0:0:
309,327,217825,6,0,P|270:292|221:272,1,105.000004005432,2|0,1:2|0:0,0:0:0:0:
200,200,218187,2,0,L|224:231,1,35.0000013351441,0|8,1:0|0:0,0:0:0:0:
248,67,218477,1,0,1:0:0:0:
323,42,218622,1,0,0:0:0:0:
323,42,218694,2,0,P|375:44|423:64,1,105.000004005432,2|0,1:2|0:0,0:0:0:0:
497,242,219129,1,8,0:0:0:0:
333,222,219347,1,0,0:0:0:0:
320,263,219491,1,0,0:0:0:0:
320,263,219564,6,0,P|273:239|221:232,1,105.000004005432,2|0,1:2|0:0,0:0:0:0:
167,175,219926,2,0,L|213:194,1,35.0000013351441,0|8,1:0|0:0,0:0:0:0:
151,348,220216,2,0,P|102:368|50:370,1,105.000004005432,2|0,1:2|1:0,0:0:0:0:
0,234,220651,1,0,0:0:0:0:
14,157,220796,1,0,0:0:0:0:
14,157,220868,2,0,P|65:150|116:160,1,105.000004005432,10|0,0:0|0:0,0:0:0:0:
162,45,221231,1,0,0:0:0:0:
162,45,221303,6,0,P|210:24|262:22,1,105.000004005432,2|0,1:2|0:0,0:0:0:0:
335,5,221665,2,0,L|282:-1,1,35.0000013351441,0|8,1:0|0:0,0:0:0:0:
335,177,221955,2,0,L|379:120,1,70.0000026702882,2|0,1:2|0:0,0:0:0:0:
431,19,222173,5,6,1:2:0:0:
457,288,222390,1,0,1:0:0:0:
457,288,222462,1,0,1:0:0:0:
457,288,222535,1,0,1:0:0:0:
457,288,222607,5,4,1:2:0:0:
487,325,222752,2,0,L|342:339,1,105.000004005432,0|0,1:0|0:0,0:0:0:0:
258,384,223042,6,0,P|235:301|156:166,1,233.333333333333,6|0,1:2|0:0,0:0:0:0:
123,150,223477,1,8,0:0:0:0:
176,336,223694,1,0,0:0:0:0:
272,317,223839,1,0,0:0:0:0:
272,317,223912,2,0,P|327:261|390:117,1,233.333333333333,2|0,1:2|0:0,0:0:0:0:
402,21,224347,1,8,0:0:0:0:
252,60,224564,1,0,0:0:0:0:
342,120,224709,1,0,0:0:0:0:
342,120,224781,6,0,P|364:205|346:351,1,233.333333333333,2|0,1:2|0:0,0:0:0:0:
282,384,225216,1,8,0:0:0:0:
246,216,225433,1,0,0:0:0:0:
226,112,225578,1,0,0:0:0:0:
226,112,225651,2,0,P|137:88|-13:115,1,233.333333333333,2|0,1:2|0:0,0:0:0:0:
0,239,226086,1,8,0:0:0:0:
161,210,226303,1,0,0:0:0:0:
218,307,226448,1,0,0:0:0:0:
218,307,226520,6,0,P|300:353|438:370,1,233.333333333333,2|0,1:2|0:0,0:0:0:0:
503,324,226955,1,8,0:0:0:0:
414,183,227173,2,0,P|349:174|257:186,1,140,2|0,0:0|1:2,0:0:0:0:
198,279,227535,1,0,0:0:0:0:
198,279,227607,1,0,0:0:0:0:
35,209,227825,2,0,P|19:141|37:19,1,186.666666666667,10|0,0:0|0:0,0:0:0:0:
129,14,228187,1,0,0:0:0:0:
173,0,228260,6,0,P|193:75|187:233,1,233.333333333333,2|0,1:2|0:0,0:0:0:0:
149,296,228694,1,8,0:0:0:0:
20,176,228912,2,0,P|61:192|108:224,1,93.3333333333333,2|0,0:0|0:2,0:0:0:0:
137,250,229129,2,0,P|181:256|242:247,1,93.3333333333333,2|0,1:2|0:2,0:0:0:0:
308,211,229347,1,0,0:0:0:0:
107,384,229564,1,8,0:0:0:0:
23,341,229709,1,0,3:0:0:0:
0,306,229781,1,0,3:0:0:0:
81,262,229926,1,0,3:0:0:0:
111,239,229999,6,0,P|109:161|45:17,1,233.333333333333,6|0,1:2|0:0,0:0:0:0:
7,1,230433,1,8,0:0:0:0:
188,19,230651,1,0,0:0:0:0:
232,106,230796,1,0,0:0:0:0:
232,106,230868,2,0,P|254:194|246:341,1,233.333333333333,2|0,1:2|0:0,0:0:0:0:
166,384,231303,1,8,1:2:0:0:
352,364,231520,1,0,1:2:0:0:
130,384,231738,6,0,P|197:346|355:333,1,233.333333333333,6|0,1:2|0:0,0:0:0:0:
420,367,232173,1,8,0:0:0:0:
288,235,232390,1,0,0:0:0:0:
214,162,232535,1,0,0:0:0:0:
214,162,232607,2,0,P|215:84|235:8,1,140,2|0,1:2|0:0,0:0:0:0:
361,2,233042,1,8,1:2:0:0:
241,169,233260,1,0,1:2:0:0:
393,24,233477,6,0,P|431:91|442:162,1,140,6|0,1:2|0:0,0:0:0:0:
403,240,233839,1,0,0:0:0:0:
403,240,233912,1,8,0:0:0:0:
222,255,234129,6,0,L|279:248,1,46.6666666666667,6|0,0:0|0:0,0:0:0:0:
449,260,234347,2,0,L|498:393,1,140,0|0,1:2|0:0,0:0:0:0:
294,374,234709,1,0,0:0:0:0:
251,369,234781,6,0,P|196:313|187:164,1,233.333333333333,14|0,0:0|0:0,0:0:0:0:
281,150,235216,5,6,1:2:0:0:
255,77,235361,1,0,1:0:0:0:
180,57,235506,1,0,1:0:0:0:
107,82,235651,1,0,1:0:0:0:
84,159,235796,1,0,1:0:0:0:
0,154,235941,1,0,1:0:0:0:
103,144,236086,2,0,P|174:154|287:219,1,183.750007009506,6|0,1:2|0:0,0:0:0:0:
293,296,236955,5,2,1:2:0:0:
281,321,237064,1,2,0:0:0:0:
282,349,237173,1,2,0:0:0:0:
298,372,237281,1,0,0:0:0:0:
324,382,237390,1,10,0:0:0:0:
352,376,237499,1,2,0:0:0:0:
371,355,237607,1,0,0:0:0:0:
376,327,237716,1,2,0:0:0:0:
366,300,237825,1,2,1:2:0:0:
373,273,237933,1,2,0:0:0:0:
401,241,238042,1,2,0:0:0:0:
449,228,238151,1,0,0:0:0:0:
502,246,238260,1,10,0:0:0:0:
511,297,238368,1,2,0:0:0:0:
481,335,238477,1,0,0:0:0:0:
439,318,238586,1,2,0:0:0:0:
433,277,238694,1,2,1:2:0:0:
407,306,238803,1,2,0:0:0:0:
414,341,238912,1,2,0:0:0:0:
442,357,239020,1,0,0:0:0:0:
469,348,239129,1,10,0:0:0:0:
479,325,239238,1,2,0:0:0:0:
471,305,239347,1,0,0:0:0:0:
457,294,239455,1,2,0:0:0:0:
457,308,239564,1,2,1:2:0:0:
457,308,239673,1,2,0:0:0:0:
457,308,239781,1,2,0:0:0:0:
457,308,239890,1,0,0:0:0:0:
457,308,239999,5,10,0:0:0:0:
419,353,240107,2,0,P|346:257|319:179,1,140,2|2,0:0|0:0,0:0:0:0:
363,90,240433,5,2,1:2:0:0:
345,111,240542,1,2,0:0:0:0:
320,125,240651,1,2,0:0:0:0:
292,131,240760,1,0,0:0:0:0:
264,130,240868,1,10,0:0:0:0:
237,120,240977,1,2,0:0:0:0:
213,105,241086,1,0,0:0:0:0:
195,83,241194,1,2,0:0:0:0:
189,55,241303,1,2,1:2:0:0:
202,22,241412,1,2,0:0:0:0:
241,7,241520,1,2,0:0:0:0:
285,29,241629,1,0,0:0:0:0:
296,83,241738,1,10,0:0:0:0:
274,130,241847,1,2,0:0:0:0:
227,143,241955,1,0,0:0:0:0:
187,121,242064,1,2,0:0:0:0:
169,84,242173,1,2,1:2:0:0:
153,119,242281,1,2,0:0:0:0:
166,151,242390,1,2,0:0:0:0:
181,178,242499,1,0,0:0:0:0:
180,206,242607,1,10,0:0:0:0:
165,226,242716,1,2,0:0:0:0:
146,236,242825,1,0,0:0:0:0:
130,230,242933,1,2,0:0:0:0:
139,232,243042,1,2,1:2:0:0:
139,232,243151,1,2,0:0:0:0:
139,232,243260,1,2,0:0:0:0:
139,232,243368,1,0,0:0:0:0:
139,232,243477,5,10,0:0:0:0:
159,186,243586,1,2,0:0:0:0:
5,313,243803,1,2,0:0:0:0:
68,344,243912,5,6,1:2:0:0:
91,329,244020,1,2,0:0:0:0:
118,334,244129,1,2,0:0:0:0:
136,354,244238,1,0,0:0:0:0:
127,380,244347,1,10,0:0:0:0:
99,380,244455,1,2,0:0:0:0:
88,353,244564,1,0,0:0:0:0:
101,328,244673,1,2,0:0:0:0:
127,318,244781,1,2,1:2:0:0:
162,318,244890,1,2,0:0:0:0:
193,346,244999,1,2,0:0:0:0:
231,376,245107,1,0,0:0:0:0:
287,369,245216,1,10,0:0:0:0:
323,331,245325,1,2,0:0:0:0:
317,282,245433,1,0,0:0:0:0:
274,267,245542,1,2,0:0:0:0:
243,295,245651,1,2,1:2:0:0:
281,292,245760,1,2,0:0:0:0:
313,307,245868,1,2,0:0:0:0:
332,331,245977,1,0,0:0:0:0:
340,358,246086,1,10,0:0:0:0:
357,376,246194,1,2,0:0:0:0:
378,382,246303,1,0,0:0:0:0:
392,372,246412,1,2,0:0:0:0:
407,373,246520,1,2,1:2:0:0:
407,373,246629,1,2,0:0:0:0:
407,373,246738,1,2,0:0:0:0:
407,373,246847,1,0,0:0:0:0:
407,373,246955,5,10,0:0:0:0:
356,343,247064,2,0,P|340:223|356:142,1,140,2|2,0:0|0:0,0:0:0:0:
386,73,247390,5,2,1:2:0:0:
403,51,247499,1,2,0:0:0:0:
428,39,247607,1,2,0:0:0:0:
456,39,247716,1,0,0:0:0:0:
479,54,247825,1,10,0:0:0:0:
488,80,247933,1,2,0:0:0:0:
480,106,248042,1,0,0:0:0:0:
457,122,248151,1,2,0:0:0:0:
429,129,248260,1,2,1:2:0:0:
402,152,248368,1,2,0:0:0:0:
405,194,248477,1,2,0:0:0:0:
453,205,248586,1,0,0:0:0:0:
490,163,248694,1,10,0:0:0:0:
466,116,248803,1,2,0:0:0:0:
418,112,248912,1,0,0:0:0:0:
386,145,249020,1,2,0:0:0:0:
388,187,249129,1,2,1:2:0:0:
352,173,249238,1,2,0:0:0:0:
334,143,249347,1,2,0:0:0:0:
332,112,249455,1,0,0:0:0:0:
341,86,249564,1,10,0:0:0:0:
335,62,249673,1,2,0:0:0:0:
321,46,249781,1,0,0:0:0:0:
305,39,249890,1,2,0:0:0:0:
291,44,249999,6,0,L|201:61,1,70,6|0,1:2|0:0,0:0:0:0:
12,218,250216,1,0,1:2:0:0:
12,218,250289,1,0,1:2:0:0:
12,218,250361,1,0,1:2:0:0:
12,218,250433,5,6,1:2:0:0:
54,181,250578,2,0,L|193:207,1,140,2|0,1:2|0:0,0:0:0:0:
236,379,250868,5,6,1:2:0:0:
208,374,250977,1,2,0:0:0:0:
186,355,251086,1,2,0:0:0:0:
176,328,251194,1,0,0:0:0:0:
167,301,251303,1,10,0:0:0:0:
146,281,251412,1,2,0:0:0:0:
119,271,251520,1,0,0:0:0:0:
90,272,251629,1,2,0:0:0:0:
64,282,251738,1,2,1:2:0:0:
31,268,251847,1,2,0:0:0:0:
10,232,251955,1,2,0:0:0:0:
20,184,252064,1,0,0:0:0:0:
75,169,252173,1,10,0:0:0:0:
105,126,252281,1,2,0:0:0:0:
98,78,252390,1,0,0:0:0:0:
56,60,252499,1,2,0:0:0:0:
20,82,252607,1,2,1:2:0:0:
20,43,252716,1,2,0:0:0:0:
45,18,252825,1,2,0:0:0:0:
76,16,252933,1,0,0:0:0:0:
100,31,253042,1,10,0:0:0:0:
118,49,253151,1,2,0:0:0:0:
138,57,253260,1,0,0:0:0:0:
155,55,253368,1,2,0:0:0:0:
180,61,253477,1,2,1:2:0:0:
180,61,253586,1,2,0:0:0:0:
180,61,253694,1,2,0:0:0:0:
180,61,253803,1,0,0:0:0:0:
180,61,253912,5,10,0:0:0:0:
171,116,254020,2,0,P|244:211|313:257,1,140,2|2,0:0|0:0,0:0:0:0:
401,223,254347,5,2,1:2:0:0:
423,205,254455,1,2,0:0:0:0:
451,204,254564,1,2,0:0:0:0:
476,216,254673,1,0,0:0:0:0:
490,240,254781,1,10,0:0:0:0:
485,267,254890,1,2,0:0:0:0:
468,289,254999,1,0,0:0:0:0:
441,297,255107,1,2,0:0:0:0:
413,289,255216,1,2,1:2:0:0:
391,262,255325,1,2,0:0:0:0:
352,248,255433,1,2,0:0:0:0:
305,265,255542,1,0,0:0:0:0:
281,315,255651,1,10,0:0:0:0:
301,364,255760,1,2,0:0:0:0:
349,375,255868,1,0,0:0:0:0:
381,354,255977,1,2,0:0:0:0:
396,322,256086,1,2,1:2:0:0:
359,335,256194,1,2,0:0:0:0:
324,336,256303,1,2,0:0:0:0:
295,324,256412,1,0,0:0:0:0:
276,305,256520,1,10,0:0:0:0:
252,300,256629,1,2,0:0:0:0:
231,305,256738,1,0,0:0:0:0:
219,318,256847,1,2,0:0:0:0:
235,346,256955,1,2,1:2:0:0:
235,346,257064,1,2,0:0:0:0:
235,346,257173,1,2,0:0:0:0:
235,346,257281,1,0,0:0:0:0:
235,346,257390,5,10,0:0:0:0:
189,380,257499,1,2,0:0:0:0:
178,185,257716,1,2,0:0:0:0:
243,212,257825,5,6,1:2:0:0:
228,188,257933,1,2,0:0:0:0:
222,160,258042,1,2,0:0:0:0:
228,132,258151,1,0,0:0:0:0:
246,111,258260,1,10,0:0:0:0:
272,103,258368,1,2,0:0:0:0:
299,108,258477,1,0,0:0:0:0:
321,124,258586,1,2,0:0:0:0:
340,144,258694,1,2,1:2:0:0:
372,159,258803,1,2,0:0:0:0:
413,148,258912,1,2,0:0:0:0:
432,103,259020,1,0,0:0:0:0:
406,53,259129,5,10,1:2:0:0:
399,105,259238,1,2,0:0:0:0:
375,147,259347,1,0,1:0:0:0:
419,136,259455,1,2,0:0:0:0:
479,157,259564,5,6,1:2:0:0:
474,196,259673,1,2,0:0:0:0:
445,217,259781,1,2,0:0:0:0:
413,219,259890,1,0,0:0:0:0:
388,207,259999,1,10,0:0:0:0:
363,208,260107,1,2,0:0:0:0:
343,214,260216,1,0,0:0:0:0:
329,224,260325,1,2,0:0:0:0:
339,251,260433,1,2,1:2:0:0:
339,251,260542,1,2,0:0:0:0:
339,251,260651,1,2,0:0:0:0:
339,251,260760,1,0,0:0:0:0:
339,251,260868,5,10,1:2:0:0:
322,290,260977,1,2,0:0:0:0:
308,330,261086,1,0,1:2:0:0:
289,293,261194,1,2,0:0:0:0:
264,235,261303,5,6,1:2:0:0:
258,262,261412,1,2,0:0:0:0:
244,286,261520,1,2,0:0:0:0:
221,302,261629,1,0,0:0:0:0:
195,313,261738,1,10,0:0:0:0:
167,315,261847,1,2,0:0:0:0:
140,306,261955,1,0,0:0:0:0:
120,286,262064,1,2,0:0:0:0:
112,223,262173,5,6,1:2:0:0:
145,235,262281,1,2,0:0:0:0:
185,248,262390,1,2,0:0:0:0:
231,266,262499,1,0,0:0:0:0:
246,206,262607,5,14,0:0:0:0:
209,174,262716,1,2,0:0:0:0:
177,147,262825,1,2,0:0:0:0:
149,126,262933,1,0,0:0:0:0:
156,64,263042,6,0,L|256:83,1,93.3333333333333,6|0,1:2|0:0,0:0:0:0:
503,51,263260,1,0,1:0:0:0:
501,88,263332,1,0,1:0:0:0:
497,125,263405,1,0,1:0:0:0:
492,162,263477,6,0,L|449:247,1,93.3333333333333,6|0,1:2|0:0,0:0:0:0:
314,339,263694,1,0,0:0:0:0:
387,356,263839,6,0,L|337:282,1,46.6666666666667,6|0,1:2|0:0,0:0:0:0:
217,212,263984,1,0,0:0:0:0:
245,140,264129,6,0,L|158:214,1,93.3333333333333,6|0,1:2|0:0,0:0:0:0:
36,384,264347,1,0,0:0:0:0:
0,301,264491,6,0,P|91:288|154:301,1,140,6|0,1:2|0:0,0:0:0:0:
304,383,264781,5,2,1:2:0:0:
